Tags
Language
Tags

Fanger & Siebert - Fanger & Siebert (1995)

Posted By: gribovar
Fanger & Siebert - Fanger & Siebert (1995)

Fanger & Siebert - Fanger & Siebert (1995)
EAC Rip | FLAC (image+.cue+log) - 400 MB | MP3 CBR 320 kbps (LAME 3.93) - 174 MB | Covers - 29 MB
Genre: Electronic, Techno, Ambient | RAR 3% Rec. | Label: Fax +49-69/450464 (PS 08/77)

This is a marvelous effort by two newcomers to the Fax label. Sometimes light and melodic, and other times dark and trippy, there is a bit of everything here. "Hinuit" best exemplifies the free-floating musical side while "The Cage" offers up some serious "sparsed-out" trance. Minimalistic in its approach, yet engaging in its results, only carefully-tuned ears will notice the subtle sonic hues and tonal dynamics of this record.
Tracklist:
01. And Suddenly
02. Hinuit
03. Conspiracy
04. Future Dub
05. The Cage
06. Esála
07. Twinkling Oasis

Total time: 01:13:58

Exact Audio Copy V0.99 prebeta 4 from 23. January 2008

EAC extraction logfile from 11. March 2009, 21:16

Thomas Fanger & Jan Siebert / Fanger & Siebert

Used drive : PIONEER DVD-RW DVR-111 Adapter: 3 ID: 0

Read mode : Secure
Utilize accurate stream : Yes
Defeat audio cache : Yes
Make use of C2 pointers : No

Read offset correction : 48
Overread into Lead-In and Lead-Out : No
Fill up missing offset samples with silence : Yes
Delete leading and trailing silent blocks : No
Null samples used in CRC calculations : Yes
Used interface : Installed external ASPI interface

Used output format : User Defined Encoder
Selected bitrate : 1024 kBit/s
Quality : High
Add ID3 tag : No
Command line compressor : C:\Program Files\Exact Audio Copy\Flac\flac.exe
Additional command line options : -8 -V -T "ARTIST=%a" -T "ALBUM=%g" -T "DATE=%y" -T "GENRE=%m" %s -o %d


TOC of the extracted CD

Track | Start | Length | Start sector | End sector
––––––––––––––––––––––––––––-
1 | 0:00.00 | 11:05.36 | 0 | 49910
2 | 11:05.36 | 8:39.69 | 49911 | 88904
3 | 19:45.30 | 6:46.05 | 88905 | 119359
4 | 26:31.35 | 17:01.01 | 119360 | 195935
5 | 43:32.36 | 6:46.61 | 195936 | 226446
6 | 50:19.22 | 13:28.22 | 226447 | 287068
7 | 63:47.44 | 10:10.03 | 287069 | 332821


Range status and errors

Selected range

Filename F:\temp\nnm\Fanger & Siebert.wav

Peak level 100.0 %
Range quality 100.0 %
Test CRC DAD16E7A
Copy CRC DAD16E7A
Copy OK

No errors occurred


AccurateRip summary

Track 1 accurately ripped (confidence 2) [6E4F7FA4]
Track 2 accurately ripped (confidence 2) [3F11E447]
Track 3 accurately ripped (confidence 2) [DB8BB46C]
Track 4 accurately ripped (confidence 2) [C702FCED]
Track 5 accurately ripped (confidence 2) [AABE74FC]
Track 6 accurately ripped (confidence 2) [CB18E017]
Track 7 accurately ripped (confidence 2) [475BF38F]

All tracks accurately ripped

End of status report

[CUETools log; Date: 07.11.2020 20:31:06; Version: 2.1.4]
[CTDB TOCID: donJ52j8yOe.beVUCIMjo3Ey6nM-] found.
Track | CTDB Status
1 | (13/13) Accurately ripped
2 | (13/13) Accurately ripped
3 | (13/13) Accurately ripped
4 | (13/13) Accurately ripped
5 | (13/13) Accurately ripped
6 | (13/13) Accurately ripped
7 | (13/13) Accurately ripped
[AccurateRip ID: 0013d7e2-0077d93f-61115507] found.
Track [ CRC | V2 ] Status
01 [6e4f7fa4|503ab474] (5+4/9) Accurately ripped
02 [3f11e447|bb873ba6] (5+4/9) Accurately ripped
03 [db8bb46c|0ca4cec9] (5+4/9) Accurately ripped
04 [c702fced|8c47c958] (5+4/9) Accurately ripped
05 [aabe74fc|b0280778] (5+4/9) Accurately ripped
06 [cb18e017|38673774] (5+4/9) Accurately ripped
07 [475bf38f|98426ff9] (5+4/9) Accurately ripped

Track Peak [ CRC32 ] [W/O NULL] [ LOG ]
– 100,0 [DAD16E7A] [A607DA89] CRC32
01 65,6 [A5C73EE9] [B2A31C4D]
02 74,6 [4709A683] [44E1555D]
03 71,3 [ACA9CD38] [333CEA49]
04 75,3 [2126AB0C] [86B69F82]
05 100,0 [5EB05352] [47AD1B64]
06 100,0 [84967DFA] [8F96D60E]
07 93,0 [25549E0E] [4EA4043F]

Thanks to _ok