Subcategories

Fastway - Waiting For The Roar (1985) [Japan Press, 1986]

Posted By: Andi_Deris
Fastway - Waiting For The Roar (1985) [Japan Press, 1986]

Fastway - Waiting For The Roar (1985) [Japan Press, 1986]
EAC Rip | FLAC: Image+Cue+Log | 307 Mb | MP3 CBR 320 kbps | 109 Mb | Scans | Time: 44:59
Genre: Hard Rock, Heavy Metal | Label: Columbia/CBS Records | Cat.#: CDCBS 26654

It's amazing how much a band can change in just three albums. "Waiting For the Roar," despite it's heavy title, is no where near as heavy, as British, or as original as the band's debut. Waiting For The Roar a typical metal album from this time. Maybe there is too much synth… but hey, that's what was in style at the time.

Just in case you didn't know, Fastway were formed back in 1983 by Fast Eddie Clarke (Motörhead) and Pete Way (UFO) - not that Pete Way stuck around for long. Anyway, after some early success with albums like Fastway, All Fired Up and Waiting For The Roar the band ground to a halt in 1991. The popped up again in 1997 for a reworked version of their '88 album On Target but quickly faded from view again.



Fastway - Waiting For The Roar (1985) [Japan Press, 1986]


Track Listing

01. The World Waits For You (6:27)
02. Kill Me With Your Heart (4:52)
03. Tired Of Your Love (4:02)
04. Change (4:55)
05. Move Over (4:06)
06. Little By Little (5:48)
07. Rock On (3:22)
08. Waiting For The Roar (4:00)
09. Girl (4:08)
10. Back Door Man (3:19)

Produced by Terry Manning

The Band

• 'Fast' Eddie Clarke: lead & rhythm guitars
• Dave King: vocals, harmonica
• Shane Carroll: guitars & keyboards
• Paul Reid: bass
• Alan Connor: drums

special guests:
• Terry Manning - synthesizers and backing vocals
• Carl Marsh - Fairlight programming and orchestration
• Chris Thompson - backing vocals

Notes

CD pressed in Japan for release in Europe

Exact Audio Copy V0.99 prebeta 5 from 4. May 2009

Отчёт EAC об извлечении, выполненном 20. мая 2011, 10:10

Fastway / Waiting For The Roar [CDCBS 26654]

Дисковод: Optiarc DVD RW AD-7200A Adapter: 1 ID: 0

Режим чтения : Достоверность
Использование точного потока : Да
Отключение кэша аудио : Да
Использование указателей C2 : Нет

Коррекция смещения при чтении : 48
Способность читать области Lead-in и Lead-out : Нет
Заполнение пропущенных сэмплов тишиной : Да
Удаление блоков с тишиной в начале и конце : Нет
При вычислениях CRC использовались нулевые сэмплы : Да
Интерфейс : Встроенный Win32-интерфейс для Win NT/2000

Выходной формат : Пользовательский кодировщик
Выбранный битрейт : 128 kBit/s
Качество : Высокий
Добавление ID3-тэга : Нет
Утилита сжатия : C:\Program Files\Exact Audio Copy\Flac\flac.exe
Дополнительные параметры : -8 -V -T "artist=%a" -T "title=%t" -T "album=%g" -T "date=%y" -T "tracknumber=%n" -T "genre=%m" -T "comment=EAC


TOC извлечённого CD

Трек | Старт | Длительность | Начальный сектор | Конечный сектор
––––––––––––––––––––––––––––––––––-
1 | 0:00.00 | 6:27.10 | 0 | 29034
2 | 6:27.10 | 4:52.20 | 29035 | 50954
3 | 11:19.30 | 4:02.10 | 50955 | 69114
4 | 15:21.40 | 4:55.22 | 69115 | 91261
5 | 20:16.62 | 4:06.38 | 91262 | 109749
6 | 24:23.25 | 5:48.52 | 109750 | 135901
7 | 30:12.02 | 3:22.35 | 135902 | 151086
8 | 33:34.37 | 4:00.70 | 151087 | 169156
9 | 37:35.32 | 4:08.03 | 169157 | 187759
10 | 41:43.35 | 3:19.47 | 187760 | 202731


Характеристики диапазона извлечения и сообщения об ошибках

Выбранный диапазон

Имя файла Y:\Музыка\Fastway\1985 Waiting For The Roar\Fastway - Waiting For The Roar [CDCBS 26654].wav

Пиковый уровень 100.0 %
Качество диапазона 100.0 %
CRC теста AB83C081
CRC копии AB83C081
Копирование… OK

Ошибок не произошло


AccurateRip: сводка

Трек 1 нет в базе данных
Трек 2 нет в базе данных
Трек 3 нет в базе данных
Трек 4 нет в базе данных
Трек 5 нет в базе данных
Трек 6 нет в базе данных
Трек 7 нет в базе данных
Трек 8 нет в базе данных
Трек 9 нет в базе данных
Трек 10 нет в базе данных

Ни одного трека нет в базе AccurateRip

Конец отчёта


Many thanks to the original uploader: ikebana

–––––––––
Nitroflare