Tags
Language
Tags
May 2024
Su Mo Tu We Th Fr Sa
28 29 30 1 2 3 4
5 6 7 8 9 10 11
12 13 14 15 16 17 18
19 20 21 22 23 24 25
26 27 28 29 30 31 1

Fay Claassen - Fay Live (2022)

Posted By: Rtax
Fay Claassen - Fay Live (2022)

Fay Claassen - Fay Live (2022)
EAC Rip | FLAC (tracks, cue, log) - 2.03 GB | MP3 CBR 320 kbps - 923 MB
6:26:05 | Scans Included | Jazz, Vocal Jazz | Label: Challenge Records

"I hope you enjoy listening to these eight concerts as much as we had fun putting them together for you. On the vinyl release we have a selection of songs drawn from the CDs and digital version and some very special bonus tracks, that only appear on the LP's. In 2013 there was for me a very memorable night in a beautiful small Jazz Club in Cologne, Germany, where I got to play a duo concert with the great Michael Abene. From that concert we selected the immortal standard Cole Porter song "You'd Be So Nice To Come Home To".

The Jazz Orchestra Of The Concertgebouw organized in 2016 a tribute concert to our own Europe's First Lady Of Jazz, the legendary Rita Reys. One of her favorite songs was again from Cole Porter, which I did in the famous arrangement of Peter Herbolzheimer, "Love For Sale". The other twospecial bonus tracks we took only on the LP's are with the great Petar Beets Trio with Martijn van Iterson on guitar and Netherland's iconic bass legend, Ruud Jacobs. What a pleasure and treat to have been on tour with this outstanding musicians. I love performing with Big Bands and one of the first Big Bands I worked regularly together with is the "Millennium Jazz Orchestra" of my dear friend and fantastic arranger Joan Reinders. We did a studio album in 2002 and many, many concerts throughout the Netherlands and also in New York. In2019 Joan wrote a wonderful program of all George Gershwin classics and added the famous Matangi String Quartet. It was such a joy to do this program from which we selected "Summertime" and "The Man I Love" as special bonus tracks only for the LP version." - Fay Claassen

In 2022, Dutch jazz vocalist Fay Claassen celebrates a career milestone, 25 years in the music business. To mark this milestone Jazz Impuls in conjunction with Challenge Records will release a special box set comprised of 2 LP’s and 8 CD’s along with an extensive liner notes presented in the accompanying 20 page booklet.
This special release includes more than 8 previously unreleased live concert recordings (1 per CD) ranging from her long term duo with pianist Cor Bakker through to performances with renowned orchestras and big bands such as The Metropole Orchestra and the WDR Big Band to mention just a few. The 2 LP’s included with the set feature a selection of tracks curated from the CD’s as well as 6 Bonus tracks that appear exclusively on the LP’s. This comprehensive project was conceived by Producer Paul Heller, Bob Hagen from the Jazz Impuls foundation and of course Fay herself. The proceeds of this project will go to two charities close to Fay’s heart, “Kika Kinderen Kankervrij” and “Stichting Alzheimer Nederland.
There is little doubt that Fay Claassen has earned her stripes in the Dutch jazz scene as well as building a strong reputation internationally. During her career she has performed throughout Europe with many of the jazz worlds top ensembles such as the Danish Radio Big Band, Brussels Jazz Orchestra, Jazz Orchestra of the Concertgebouw, the Metropole Orkest and the WDR Big Band. The list of jazz legends with whom Fay Claassen has collaborated since the late 1990s reads like the ‘Who’s Who’ of jazz: the legendary Toots Thielemans, American Fusion Jazz Star Mike Stern, Cuban Latin Jazz Star Paquito D’Rivera and some of the most important arrangers of the orchestral Jazz: Bob Brookmeyer, Vince Mendoza and Michael Abene. Her ninth solo album received an “Edison Award” in 2018. In addition she has received the prestigious German “Preis der Deutschen Schallplattenkritik”, a Gold Record Award for her album “Two Portraits of Chet Baker” in addition to the “Chet Baker Award”.

The first CD in the set goes back to 2017 and presents a concert recorded with her band by the Bayerische Rundfunk in Munich with repertoire from her “Luck Child” album. For Fay, Luck Child was a very personal project. She explained “We started working on the studio album right after my daughter Inga was born in 2011 and finished the album in 2015. It was a wonderful time to experiment with different musical ideas without having the pressure of a deadline. Watching Inga grow up in that period had such a strong effect on the music that ended up on that album.”
The second CD in the set is compiled from two concerts that Fay performed with the Metropole Orchestra in 2006 and 2008. When speaking of this set, Fay stated “This really was one of the key moments for me in my development as a singer. Vince Mendoza wrote the beautiful arrangement of ‘Comecar de Novo’. I remember this well as I dared to sing it it in Portuguese.” One of the highlights of this concert was Carlos Azevedo´s amazing composition and arrangement on: ‘Inside the Mirror of the Sun’.

During her career Fay has been a regular guest with the WDR Big Band. The third CD in the set documents a 2011 performance with the WDR Big Band at the Bimhuis in Amsterdam. For this performance the band was conducted by renowned pianist and arranger Michael Abene. “Playing at the Bimhuis is always something special, it has that “Real Jazz” vibe, a perfect setting for this program written by my all-time favourite arranger Michael Abene. During the concert Michael and I did ‘How deep Is The Ocean’ spontaneously as a Piano/Voice Duo.”

For many years Fay has performed in a duo format with pianist Cor Bakker. The forth CD in the set presents a concert Fay and Cor recorded at the Concertgebouw in Amsterdam in 2019. Fay expressed that “Playing with Cor Bakker is like swimming in a warm ocean of musical ideas.” She went on to say “it doesn’t matter if we pick a Pop or Jazz song, or even a beautiful expressive Dutch theatre song. The unique thing about making music with Cor is that we always end up having a lively musical conversation with each other. It feels just so comfortable to be able to say anything we feel and know that we will always support each other’s ideas. There is this mutual trust, we can take any risk and know it will always land safely.”
Fay has always been known for her wide range of repertoire and the firth CD in the set documents this beautifully. In 2019 Fay was approached by producers Roeland Jacobs and Rob van Weelde from Wedgeview Music to tackle some timeless and iconic songs from the seventies. The result was the 2020 release “Close to You” that was nominated for two Edison’s. The concert presented on this disc was the Album Presentation recorded live at the Lantaren Venster in Rotterdam on the 17th of January, 2020.

The sixth CD in the set takes us back to 2003 at the Music Village in Brussels. Fay recalls “When Ivan Paduart asked me to collaborate with him, I found myself in a whole new musical universe, that of Ivan’s! It was also in this period that Fay first met fellow vocalist David Linx with whom she has developed a long term musical relationship with. She went on to say “I remember the concert presented here was one of the first we did and it hit the spot immediately and not to forget we also had Toots Thielemans, Bert Joris and Toon Roos with us. All these years later I still look back on this as one of my musical high points.”

The penultimate CD in the set goes back to 2006 and the “Two Portraits of Chet Baker” project. Fay stated “The Chet Baker project is probably one of the most expansive projects I’ve done and definitely one of the highlights of my 20 year long collaboration with Bob Hagen. It was a great success and in fact, the album went gold in 2013. Between 2005 and 2008 we performed this project so many times playing in many beautiful places including Japan, France and of course all over the Netherlands.” The concert presented on this disc was recorded at the Concertgebouw in Amsterdam and features the legendary drummer John Engels and bassist Hein van de Geyn, who also did the vocal arrangements.
The final CD in the set also documents a performance at the Concertgebouw 2002 and hold a special place in Fay heart, it was the presentation of her debut recording as a band leader. Fay recalled that this concert was “the first time I worked together with Bob Hagen as the producer. It was exciting to suddenly be the band leader after working on so many projects as a band member. Little did I know at that time that I would work together with Bob for more than 20 years.

Tracklist
CD1 - Luck Child Tour: Live in Munich, 2017 {00:48:55}
01. Song of Life (4:53)
02. Blackbird (5:34)
03. Luck Child (7:35)
04. Cinema Paradiso (5:54)
05. In a Sentimental Mood (6:51)
06. One Trick Pony (5:33)
07. Shenandoah (5:29)
08. Finding You (7:06)

CD2 - Live 2006, 2008 {01:16:06}
01. Life as It Is (6:47)
02. Melancholy Blue (6:44)
03. Waterfalls (6:20)
04. Another Lifetime (7:14)
05. The Bridge Between Us (9:57)
06. Inside the Mirror of the Sun (5:26)
07. Pensativa (5:00)
08. Almost Blue (8:30)
09. If You Could See Me Now (6:23)
10. Con Alma (6:11)
11. Comecar de novo (7:34)

CD3 - Live at the Bimhuis, Amsterdam {00:41:19}
01. You Turn Me on Baby (4:46)
02. Be Cool (5:14)
03. A Flower Is a Lovesome Thing (6:52)
04. A Good Man Is Hard to Find (8:48)
05. How Deep Is the Ocean (7:20)
06. Tea for Two (8:19)

CD4 - Live in Amsterdam {00:39:19}
01. Cinema Paradiso (5:58)
02. Throw It Away (4:40)
03. Zon in Scheveningen (2:17)
04. Zonder jou (3:52)
05. Finding You (4:23)
06. Freedom Medley (5:41)
07. Je begint van voren af aan (3:15)
08. Het wonder (4:50)
09. Keep Me in Your Dreams (4:23)

CD5 - Close to You: Live in Rotterdam {00:48:57}
01. Sailing (4:57)
02. Close to You (5:29)
03. One Trick Pony (6:34)
04. Killing Me Softly (4:32)
05. Spinning Wheel (3:38)
06. If You Leave Me Now (4:10)
07. Got to Get You into My Life (3:19)
08. I Can't Make You Love Me (5:09)
09. One Day I'll Fly Away (5:53)
10. Fool on the Hill (5:16)

CD6 - Live in Brussels {00:39:05}
01. Life as It Is (6:21)
02. For the Time Being (7:46)
03. Another Lifetime (6:57)
04. Firm Roots (6:48)
05. Isabelle (6:52)
06. Lush Life (4:21)

CD7 - Remembering Chet Baker: Live in Amsterdam {00:50:36}
01. Line for Lyons (4:12)
02. Swinghouse (3:18)
03. Poinciana (6:14)
04. Frenesi (4:56)
05. The Touch of Your Lips (4:28)
06. My Funny Valentine (6:37)
07. Look for the Silver Lining (4:31)
08. The Thrill Is Gone (4:10)
09. But Not for Me (6:29)
10. Almost Blue (5:41)

CD8 - With a Song in My Heart: Live in Amsterdam {00:41:48}
01. With a Song in My Heart (7:18)
02. He Was Too Good to Me (4:41)
03. Cancao no paiol em Curitiba (6:24)
04. Everything I Love (7:32)
05. This Is New (5:56)
06. For All We Know (5:26)
07. Once Upon a Summertime (4:31)
Exact Audio Copy V1.3 from 2. September 2016

EAC extraction logfile from 8. April 2022, 19:39

Fay Claassen / Live In Munich 2017

Used drive : HL-DT-STBD-RE BH16NS55 Adapter: 1 ID: 0

Read mode : Secure
Utilize accurate stream : Yes
Defeat audio cache : Yes
Make use of C2 pointers : No

Read offset correction : 6
Overread into Lead-In and Lead-Out : No
Fill up missing offset samples with silence : Yes
Delete leading and trailing silent blocks : No
Null samples used in CRC calculations : Yes
Used interface : Native Win32 interface for Win NT & 2000
Gap handling : Appended to previous track

Used output format : User Defined Encoder
Selected bitrate : 1024 kBit/s
Quality : High
Add ID3 tag : No
Command line compressor : C:\Program Files (x86)\Exact Audio Copy\Flac\flac.exe
Additional command line options : -8 -V -T "ARTIST=%artist%" -T "TITLE=%title%" -T "ALBUM=%albumtitle%" -T "DATE=%year%" -T "TRACKNUMBER=%tracknr%" -T "GENRE=%genre%" -T "PERFORMER=%albuminterpret%" -T "COMPOSER=%composer%" %haslyrics%–tag-from-file=LYRICS="%lyricsfile%"%haslyrics% -T "ALBUMARTIST=%albumartist%" -T "DISCNUMBER=%cdnumber%" -T "TOTALDISCS=%totalcds%" -T "TOTALTRACKS=%numtracks%" -T "COMMENT=%comment%" %source% -o %dest%


TOC of the extracted CD

Track | Start | Length | Start sector | End sector
––––––––––––––––––––––––––––-
1 | 0:00.00 | 4:52.59 | 0 | 21958
2 | 4:52.59 | 5:33.43 | 21959 | 46976
3 | 10:26.27 | 7:34.53 | 46977 | 81079
4 | 18:01.05 | 5:54.23 | 81080 | 107652
5 | 23:55.28 | 6:51.24 | 107653 | 138501
6 | 30:46.52 | 5:32.54 | 138502 | 163455
7 | 36:19.31 | 5:29.32 | 163456 | 188162
8 | 41:48.63 | 7:05.40 | 188163 | 220077


Track 1

Filename D:\#cdr\#wav+flac\#New\Fay Claassen - Fay Live\cd 1\01. Fay Claassen - Song Of Life.wav

Pre-gap length 0:00:02.00

Peak level 64.1 %
Extraction speed 3.8 X
Track quality 99.9 %
Test CRC 7E1C0B8F
Copy CRC 7E1C0B8F
Track not present in AccurateRip database
Copy OK

Track 2

Filename D:\#cdr\#wav+flac\#New\Fay Claassen - Fay Live\cd 1\02. Fay Claassen - Blackbird.wav

Peak level 74.7 %
Extraction speed 5.1 X
Track quality 100.0 %
Test CRC 39ED290B
Copy CRC 39ED290B
Track not present in AccurateRip database
Copy OK

Track 3

Filename D:\#cdr\#wav+flac\#New\Fay Claassen - Fay Live\cd 1\03. Fay Claassen - Luck Child.wav

Peak level 64.5 %
Extraction speed 6.0 X
Track quality 100.0 %
Test CRC 7D919420
Copy CRC 7D919420
Track not present in AccurateRip database
Copy OK

Track 4

Filename D:\#cdr\#wav+flac\#New\Fay Claassen - Fay Live\cd 1\04. Fay Claassen - Cinéma Paradiso.wav

Peak level 48.7 %
Extraction speed 6.4 X
Track quality 100.0 %
Test CRC 5B76894D
Copy CRC 5B76894D
Track not present in AccurateRip database
Copy OK

Track 5

Filename D:\#cdr\#wav+flac\#New\Fay Claassen - Fay Live\cd 1\05. Fay Claassen - In A Sentimental Mood.wav

Peak level 59.9 %
Extraction speed 6.3 X
Track quality 99.9 %
Test CRC 58FCDD05
Copy CRC 58FCDD05
Track not present in AccurateRip database
Copy OK

Track 6

Filename D:\#cdr\#wav+flac\#New\Fay Claassen - Fay Live\cd 1\06. Fay Claassen - One Trick Pony.wav

Peak level 70.1 %
Extraction speed 7.3 X
Track quality 100.0 %
Test CRC 50F05607
Copy CRC 50F05607
Track not present in AccurateRip database
Copy OK

Track 7

Filename D:\#cdr\#wav+flac\#New\Fay Claassen - Fay Live\cd 1\07. Fay Claassen - Shenandoah.wav

Peak level 49.2 %
Extraction speed 7.7 X
Track quality 100.0 %
Test CRC 553C6E54
Copy CRC 553C6E54
Track not present in AccurateRip database
Copy OK

Track 8

Filename D:\#cdr\#wav+flac\#New\Fay Claassen - Fay Live\cd 1\08. Fay Claassen - Finding You.wav

Peak level 80.8 %
Extraction speed 8.3 X
Track quality 100.0 %
Test CRC 95C7443D
Copy CRC 95C7443D
Track not present in AccurateRip database
Copy OK


None of the tracks are present in the AccurateRip database

No errors occurred

End of status report

–– CUETools DB Plugin V2.1.6

[CTDB TOCID: Zf16b2ZgVQvUVVzlfhC_VMUHqX4-] disk not present in database
Submit result: Zf16b2ZgVQvUVVzlfhC_VMUHqX4- has been uploaded


==== Log checksum F25889DB37449E9AE14331326F51F36DB76ED19EBF86A1521B2B0FA6B3623E3A ====


Exact Audio Copy V1.3 from 2. September 2016

EAC extraction logfile from 8. April 2022, 20:06

Fay Claassen / Live 2006, 2008

Used drive : HL-DT-STBD-RE BH16NS55 Adapter: 1 ID: 0

Read mode : Secure
Utilize accurate stream : Yes
Defeat audio cache : Yes
Make use of C2 pointers : No

Read offset correction : 6
Overread into Lead-In and Lead-Out : No
Fill up missing offset samples with silence : Yes
Delete leading and trailing silent blocks : No
Null samples used in CRC calculations : Yes
Used interface : Native Win32 interface for Win NT & 2000
Gap handling : Appended to previous track

Used output format : User Defined Encoder
Selected bitrate : 1024 kBit/s
Quality : High
Add ID3 tag : No
Command line compressor : C:\Program Files (x86)\Exact Audio Copy\Flac\flac.exe
Additional command line options : -8 -V -T "ARTIST=%artist%" -T "TITLE=%title%" -T "ALBUM=%albumtitle%" -T "DATE=%year%" -T "TRACKNUMBER=%tracknr%" -T "GENRE=%genre%" -T "PERFORMER=%albuminterpret%" -T "COMPOSER=%composer%" %haslyrics%–tag-from-file=LYRICS="%lyricsfile%"%haslyrics% -T "ALBUMARTIST=%albumartist%" -T "DISCNUMBER=%cdnumber%" -T "TOTALDISCS=%totalcds%" -T "TOTALTRACKS=%numtracks%" -T "COMMENT=%comment%" %source% -o %dest%


TOC of the extracted CD

Track | Start | Length | Start sector | End sector
––––––––––––––––––––––––––––-
1 | 0:00.00 | 6:47.32 | 0 | 30556
2 | 6:47.32 | 6:43.63 | 30557 | 60844
3 | 13:31.20 | 6:19.66 | 60845 | 89335
4 | 19:51.11 | 7:13.45 | 89336 | 121855
5 | 27:04.56 | 9:56.73 | 121856 | 166628
6 | 37:01.54 | 5:25.55 | 166629 | 191058
7 | 42:27.34 | 5:00.37 | 191059 | 213595
8 | 47:27.71 | 8:30.21 | 213596 | 251866
9 | 55:58.17 | 6:22.52 | 251867 | 280568
10 | 62:20.69 | 6:11.21 | 280569 | 308414
11 | 68:32.15 | 7:33.52 | 308415 | 342441


Track 1

Filename D:\#cdr\#wav+flac\#New\Fay Claassen - Fay Live\cd 2\01. Fay Claassen - Life As It Is.wav

Pre-gap length 0:00:02.00

Peak level 97.8 %
Extraction speed 5.2 X
Track quality 100.0 %
Test CRC C51099F1
Copy CRC C51099F1
Track not present in AccurateRip database
Copy OK

Track 2

Filename D:\#cdr\#wav+flac\#New\Fay Claassen - Fay Live\cd 2\02. Fay Claassen - Melancholy Blue.wav

Peak level 95.3 %
Extraction speed 6.0 X
Track quality 100.0 %
Test CRC F43D3188
Copy CRC F43D3188
Track not present in AccurateRip database
Copy OK

Track 3

Filename D:\#cdr\#wav+flac\#New\Fay Claassen - Fay Live\cd 2\03. Fay Claassen - Waterfalls.wav

Peak level 97.8 %
Extraction speed 6.5 X
Track quality 100.0 %
Test CRC AFE6F2FD
Copy CRC AFE6F2FD
Track not present in AccurateRip database
Copy OK

Track 4

Filename D:\#cdr\#wav+flac\#New\Fay Claassen - Fay Live\cd 2\04. Fay Claassen - Another Lifetime.wav

Peak level 97.7 %
Extraction speed 6.4 X
Track quality 99.9 %
Test CRC 2B8BF69F
Copy CRC 2B8BF69F
Track not present in AccurateRip database
Copy OK

Track 5

Filename D:\#cdr\#wav+flac\#New\Fay Claassen - Fay Live\cd 2\05. Fay Claassen - The Bridge Between Us.wav

Peak level 97.8 %
Extraction speed 7.9 X
Track quality 100.0 %
Test CRC BF13FB98
Copy CRC BF13FB98
Track not present in AccurateRip database
Copy OK

Track 6

Filename D:\#cdr\#wav+flac\#New\Fay Claassen - Fay Live\cd 2\06. Fay Claassen - Inside The Mirror Of The Sun.wav

Peak level 72.3 %
Extraction speed 8.1 X
Track quality 100.0 %
Test CRC 31A1A531
Copy CRC 31A1A531
Track not present in AccurateRip database
Copy OK

Track 7

Filename D:\#cdr\#wav+flac\#New\Fay Claassen - Fay Live\cd 2\07. Fay Claassen - Pensativa.wav

Peak level 88.8 %
Extraction speed 8.3 X
Track quality 100.0 %
Test CRC 0160E124
Copy CRC 0160E124
Track not present in AccurateRip database
Copy OK

Track 8

Filename D:\#cdr\#wav+flac\#New\Fay Claassen - Fay Live\cd 2\08. Fay Claassen - Almost Blue.wav

Peak level 90.6 %
Extraction speed 8.3 X
Track quality 99.9 %
Test CRC 2843A217
Copy CRC 2843A217
Track not present in AccurateRip database
Copy OK

Track 9

Filename D:\#cdr\#wav+flac\#New\Fay Claassen - Fay Live\cd 2\09. Fay Claassen - If You Could See Me Now.wav

Peak level 80.8 %
Extraction speed 9.4 X
Track quality 100.0 %
Test CRC 015B30DF
Copy CRC 015B30DF
Track not present in AccurateRip database
Copy OK

Track 10

Filename D:\#cdr\#wav+flac\#New\Fay Claassen - Fay Live\cd 2\10. Fay Claassen - Con Alma.wav

Peak level 83.6 %
Extraction speed 9.8 X
Track quality 100.0 %
Test CRC 840D2AAC
Copy CRC 840D2AAC
Track not present in AccurateRip database
Copy OK

Track 11

Filename D:\#cdr\#wav+flac\#New\Fay Claassen - Fay Live\cd 2\11. Fay Claassen - Começar De Novo.wav

Peak level 79.3 %
Extraction speed 10.2 X
Track quality 100.0 %
Test CRC E821E415
Copy CRC E821E415
Track not present in AccurateRip database
Copy OK


None of the tracks are present in the AccurateRip database

No errors occurred

End of status report

–– CUETools DB Plugin V2.1.6

[CTDB TOCID: 8WD_fnFeA2GyOB_5yN1h5.WhlDc-] disk not present in database
Submit result: 8WD_fnFeA2GyOB_5yN1h5.WhlDc- has been uploaded


==== Log checksum 3FBE93E795D226BBE1167E693E6928060A9B0EA60289E5245B436E30FEF2AF2A ====


Exact Audio Copy V1.3 from 2. September 2016

EAC extraction logfile from 8. April 2022, 21:05

Fay Claassen / Close To You (Live In Rotterdam)

Used drive : HL-DT-STBD-RE BH16NS55 Adapter: 1 ID: 0

Read mode : Secure
Utilize accurate stream : Yes
Defeat audio cache : Yes
Make use of C2 pointers : No

Read offset correction : 6
Overread into Lead-In and Lead-Out : No
Fill up missing offset samples with silence : Yes
Delete leading and trailing silent blocks : No
Null samples used in CRC calculations : Yes
Used interface : Native Win32 interface for Win NT & 2000
Gap handling : Appended to previous track

Used output format : User Defined Encoder
Selected bitrate : 1024 kBit/s
Quality : High
Add ID3 tag : No
Command line compressor : C:\Program Files (x86)\Exact Audio Copy\Flac\flac.exe
Additional command line options : -8 -V -T "ARTIST=%artist%" -T "TITLE=%title%" -T "ALBUM=%albumtitle%" -T "DATE=%year%" -T "TRACKNUMBER=%tracknr%" -T "GENRE=%genre%" -T "PERFORMER=%albuminterpret%" -T "COMPOSER=%composer%" %haslyrics%–tag-from-file=LYRICS="%lyricsfile%"%haslyrics% -T "ALBUMARTIST=%albumartist%" -T "DISCNUMBER=%cdnumber%" -T "TOTALDISCS=%totalcds%" -T "TOTALTRACKS=%numtracks%" -T "COMMENT=%comment%" %source% -o %dest%


TOC of the extracted CD

Track | Start | Length | Start sector | End sector
––––––––––––––––––––––––––––-
1 | 0:00.00 | 4:57.11 | 0 | 22285
2 | 4:57.11 | 5:29.34 | 22286 | 46994
3 | 10:26.45 | 6:34.24 | 46995 | 76568
4 | 17:00.69 | 4:31.63 | 76569 | 96956
5 | 21:32.57 | 3:37.44 | 96957 | 113275
6 | 25:10.26 | 4:10.37 | 113276 | 132062
7 | 29:20.63 | 3:19.22 | 132063 | 147009
8 | 32:40.10 | 5:09.04 | 147010 | 170188
9 | 37:49.14 | 5:52.74 | 170189 | 196662
10 | 43:42.13 | 5:16.35 | 196663 | 220397


Track 1

Filename D:\#cdr\#wav+flac\#New\Fay Claassen - Fay Live\cd 5\01. Fay Claassen - Sailing.wav

Pre-gap length 0:00:02.00

Peak level 74.5 %
Extraction speed 3.9 X
Track quality 99.9 %
Test CRC 7D66B785
Copy CRC 7D66B785
Track not present in AccurateRip database
Copy OK

Track 2

Filename D:\#cdr\#wav+flac\#New\Fay Claassen - Fay Live\cd 5\02. Fay Claassen - Close To You.wav

Peak level 68.5 %
Extraction speed 5.2 X
Track quality 100.0 %
Test CRC ABD08E49
Copy CRC ABD08E49
Track not present in AccurateRip database
Copy OK

Track 3

Filename D:\#cdr\#wav+flac\#New\Fay Claassen - Fay Live\cd 5\03. Fay Claassen - One Trick Pony.wav

Peak level 96.5 %
Extraction speed 5.8 X
Track quality 100.0 %
Test CRC 91204147
Copy CRC 91204147
Track not present in AccurateRip database
Copy OK

Track 4

Filename D:\#cdr\#wav+flac\#New\Fay Claassen - Fay Live\cd 5\04. Fay Claassen - Killing Me Softly.wav

Peak level 94.6 %
Extraction speed 6.1 X
Track quality 100.0 %
Test CRC D705B3F4
Copy CRC D705B3F4
Track not present in AccurateRip database
Copy OK

Track 5

Filename D:\#cdr\#wav+flac\#New\Fay Claassen - Fay Live\cd 5\05. Fay Claassen - Spinning Wheel.wav

Peak level 96.0 %
Extraction speed 6.3 X
Track quality 100.0 %
Test CRC 91B5607E
Copy CRC 91B5607E
Track not present in AccurateRip database
Copy OK

Track 6

Filename D:\#cdr\#wav+flac\#New\Fay Claassen - Fay Live\cd 5\06. Fay Claassen - If You Leave Me Now.wav

Peak level 76.0 %
Extraction speed 6.7 X
Track quality 100.0 %
Test CRC 063840D3
Copy CRC 063840D3
Track not present in AccurateRip database
Copy OK

Track 7

Filename D:\#cdr\#wav+flac\#New\Fay Claassen - Fay Live\cd 5\07. Fay Claassen - Got To Get You Into My Life.wav

Peak level 96.3 %
Extraction speed 6.8 X
Track quality 100.0 %
Test CRC FFE68619
Copy CRC FFE68619
Track not present in AccurateRip database
Copy OK

Track 8

Filename D:\#cdr\#wav+flac\#New\Fay Claassen - Fay Live\cd 5\08. Fay Claassen - I Can'T Make You Love Me.wav

Peak level 90.9 %
Extraction speed 6.4 X
Track quality 99.9 %
Test CRC 8471D117
Copy CRC 8471D117
Track not present in AccurateRip database
Copy OK

Track 9

Filename D:\#cdr\#wav+flac\#New\Fay Claassen - Fay Live\cd 5\09. Fay Claassen - One Day I'll Fly Away.wav

Peak level 93.8 %
Extraction speed 7.8 X
Track quality 100.0 %
Test CRC D555D1F6
Copy CRC D555D1F6
Track not present in AccurateRip database
Copy OK

Track 10

Filename D:\#cdr\#wav+flac\#New\Fay Claassen - Fay Live\cd 5\10. Fay Claassen - Fool On The Hill.wav

Peak level 95.9 %
Extraction speed 8.1 X
Track quality 100.0 %
Test CRC 09A7E602
Copy CRC 09A7E602
Track not present in AccurateRip database
Copy OK


None of the tracks are present in the AccurateRip database

No errors occurred

End of status report

–– CUETools DB Plugin V2.1.6

[CTDB TOCID: kqMJFkPOtBq6nDnQP3ZoMbVVqfY-] disk not present in database
Submit result: kqMJFkPOtBq6nDnQP3ZoMbVVqfY- has been uploaded


==== Log checksum C046764FCE68C2B850D5AA5E65E068B06B946EB6E796D67EA4B1453EEB32412D ====


Exact Audio Copy V1.3 from 2. September 2016

EAC extraction logfile from 8. April 2022, 22:03

Fay Claassen / Live In Brussels

Used drive : HL-DT-STBD-RE BH16NS55 Adapter: 1 ID: 0

Read mode : Secure
Utilize accurate stream : Yes
Defeat audio cache : Yes
Make use of C2 pointers : No

Read offset correction : 6
Overread into Lead-In and Lead-Out : No
Fill up missing offset samples with silence : Yes
Delete leading and trailing silent blocks : No
Null samples used in CRC calculations : Yes
Used interface : Native Win32 interface for Win NT & 2000
Gap handling : Appended to previous track

Used output format : User Defined Encoder
Selected bitrate : 1024 kBit/s
Quality : High
Add ID3 tag : No
Command line compressor : C:\Program Files (x86)\Exact Audio Copy\Flac\flac.exe
Additional command line options : -8 -V -T "ARTIST=%artist%" -T "TITLE=%title%" -T "ALBUM=%albumtitle%" -T "DATE=%year%" -T "TRACKNUMBER=%tracknr%" -T "GENRE=%genre%" -T "PERFORMER=%albuminterpret%" -T "COMPOSER=%composer%" %haslyrics%–tag-from-file=LYRICS="%lyricsfile%"%haslyrics% -T "ALBUMARTIST=%albumartist%" -T "DISCNUMBER=%cdnumber%" -T "TOTALDISCS=%totalcds%" -T "TOTALTRACKS=%numtracks%" -T "COMMENT=%comment%" %source% -o %dest%


TOC of the extracted CD

Track | Start | Length | Start sector | End sector
––––––––––––––––––––––––––––-
1 | 0:00.00 | 6:20.58 | 0 | 28557
2 | 6:20.58 | 7:46.01 | 28558 | 63508
3 | 14:06.59 | 6:57.08 | 63509 | 94791
4 | 21:03.67 | 6:48.07 | 94792 | 125398
5 | 27:51.74 | 6:51.74 | 125399 | 156297
6 | 34:43.73 | 4:20.56 | 156298 | 175853


Track 1

Filename D:\#cdr\#wav+flac\#New\Fay Claassen - Fay Live\cd 6\01. Fay Claassen - Life As It Is.wav

Pre-gap length 0:00:02.00

Peak level 97.5 %
Extraction speed 1.1 X
Track quality 99.9 %
Test CRC E96670F4
Copy CRC E96670F4
Track not present in AccurateRip database
Copy OK

Track 2

Filename D:\#cdr\#wav+flac\#New\Fay Claassen - Fay Live\cd 6\02. Fay Claassen - For The Time Being.wav

Peak level 95.4 %
Extraction speed 1.3 X
Track quality 100.0 %
Test CRC 9EA8BF64
Copy CRC 9EA8BF64
Track not present in AccurateRip database
Copy OK

Track 3

Filename D:\#cdr\#wav+flac\#New\Fay Claassen - Fay Live\cd 6\03. Fay Claassen - Another Lifetime.wav

Peak level 95.5 %
Extraction speed 1.5 X
Track quality 100.0 %
Test CRC 0AC0DA28
Copy CRC 0AC0DA28
Track not present in AccurateRip database
Copy OK

Track 4

Filename D:\#cdr\#wav+flac\#New\Fay Claassen - Fay Live\cd 6\04. Fay Claassen - Firm Roots.wav

Peak level 97.6 %
Extraction speed 1.7 X
Track quality 100.0 %
Test CRC 1A4CCD1C
Copy CRC 1A4CCD1C
Track not present in AccurateRip database
Copy OK

Track 5

Filename D:\#cdr\#wav+flac\#New\Fay Claassen - Fay Live\cd 6\05. Fay Claassen - Isabelle.wav

Peak level 96.1 %
Extraction speed 1.7 X
Track quality 99.9 %
Test CRC D1B887CC
Copy CRC D1B887CC
Track not present in AccurateRip database
Copy OK

Track 6

Filename D:\#cdr\#wav+flac\#New\Fay Claassen - Fay Live\cd 6\06. Fay Claassen - Lush Life.wav

Peak level 96.8 %
Extraction speed 1.8 X
Track quality 100.0 %
Test CRC 06BF4E67
Copy CRC 06BF4E67
Track not present in AccurateRip database
Copy OK


None of the tracks are present in the AccurateRip database

No errors occurred

End of status report

–– CUETools DB Plugin V2.1.6

[CTDB TOCID: 9jdvFqhSHMSPAfVe1KWtSxvoC.0-] disk not present in database
Submit result: 9jdvFqhSHMSPAfVe1KWtSxvoC.0- has been uploaded


==== Log checksum 7DAC4BBCD0EC983BFFF29F095A1CB1D60341D7E2E3C84A79206E242E8C081FC7 ====