Subcategories

Finch - Mythology (2013) [3CD Box Set, Pseudonym Records, CDP-1107]

Posted By: v3122
Finch - Mythology (2013) [3CD Box Set, Pseudonym Records, CDP-1107]

Finch - Mythology (2013)
EAC Rip | Flac(Image) + Cue + Log & iPod M4A(Tracks) & MP3 CBR 320Kbps
Symphonic Prog | ~ 1462 or 1473 or 541 Mb | Covers and Booklet(300dpi, jpg) Included
3CD | Pseudonym Records, CDP-1107

2012 Triple Disc Set of all 3 Studio Albums with 12 Bonus Tracks from Original Masters in Deluxe Digi-Pak with 20-Pages of Rare Photos & memorabilia!

Founded in 1974 and derived from the legendary group Q65, FINCH is still regarded as one of the most leading of the second generation of Dutch instrumental symphonic Prog bands. Complex and harmonic orientated long compositions with lots of space for guitar and synthesizer fills take up three albums and one seven inch single.
The ‘live’ reputation of FINCH is often especially remembered as legendary - 'Nuff said for those who were eyewitness to these events. Others can now enjoy ‘Mythology’, a 26 track Deluxe Triple Disc set that not only re-launches their three studio-albums: ‘Glory Of The Inner Force’ (1975), ‘Beyond Expression’ (1976) & ‘Galleons Of Passion’ (1977) and their ‘Colossus’ 7" single, but also presents three recently unearthed pieces that were recorded by Dutch radio station VPRO: ‘Paradoxical Moods’, ‘Pisces‘ and ‘Register Magister’ which all captured FINCH on stage shortly after the release of their debut album, featuring the first definitive line up of: Joop Van Nimwegen (guitar), Peter Vink (bass), Cleem Determeijer (keyboards) and Beer Klaasse (drums).
The recordings were made in December 1975 in De Tagrijn in Hilversum. Also included is: ‘Necronomicon’, a ‘live’-only track recorded in late 1976 in Berkel en Rodenrijs. The set is completed by eight demos from the pre-production of the 3rd FINCH album: ‘Galleons Of Passion’.

The 20-Page Booklet in this Remastered 3CD Package is completed with the FINCH story and features exclusive interviews with the band members, rare pictures and memorabilia.

‘Mythology’ is released on 28th January 2013.

~ cd-services
Finch - Mythology (2013) [3CD Box Set, Pseudonym Records, CDP-1107]

The foundation of Dutch progrock band FINCH was laid by bass player Peter Vink and drummer Beer Klaasse (both ex-Q65 and The KJOE). They were eager to play progressive music: Peter was impressed by the symphonic rock of YES and BEER by the improvised rock of MAHAVISHNU ORCHESTRA and CREAM. After some sessions and failed efforts to find a good singer, the new band switched to instrumental music with this line-up: Peter Vink, Beer Klaasse, the 19 year old "guitar virtuoso" Joop van Nimwegen and keyboard player Paul Vink. With two Vink's in the band the name became FINCH, the English translation from this Dutch name. The EMI sub-label Negram was willing to invest in the new progrock band, in '75 this resulted in the debut-album "Glory of the Inner Force" (worldwide sold 20.000 copies). New keyboard player Cleem Determeijer's interplay with guitarist Joop sounded captivating and the first album was hailed by the music press. The single "Colossus" ('75) wasn't successful but it's now a hugh collector's item. In '76 the second album "Beyond Expression" was released, it was acclaimed as Album of the week by radio and tv broadcasting company Veronica and known music magazines were very positive. The future looked bright for FINCH: sold oud concerts, worldwide sales (15.000 copies) and in Japan FINCH became almost as popular as other Dutch progrock bands FOCUS and EARTH & FIRE! Unfortunately Cleem was no longer able to combine the music with his classical study, he was replaced by Ad Wammes and, due to musical disagreement, Hans Borsboom replaced Beer Klaasse. This new FINCH line-up released the third album entitled "Galleons of Passion" in '77, it was not received very well though the sales flagged around the 11.000 copies. It turned out to be the band's swansong until in '99 the Dutch record company Pseudonym Records released a 2-CD, including fine demos of the "Galleons of Passion" album and exciting live material from '76.

The first LP "Glory of the Inner Force" contains four melodic and often swinging compositions with strong echoes from YES. The keyboards sound tasteful (Hammond organ and Mellotron), the guitarwork is great with passionate solos and the rhythm-section plays solid (a grunting Rickenbacker bass). The second album "Beyond Expression" sound more original, inventive and dynamic with furious guitarplay and bombastic keyboards in four captivating and compelling tracks. A splendid album, a bit underrated because of the attention for the other Dutch progrock bands EARTH & FIRE, KAYAK and FOCUS. The third album "Galleons of Passion" is more in the vein of mid-GENESIS and sound pleasant but less captivating and contrasting. The 2-CD "The Making of…Galleons of passion/Stage" '76" is mainly interesting because of the live-material: it's layered with magnificent electric guitarplay (Jan Akkerman once told he was very impressed by Joop!) and great solos from Ad's newly purchased Minimoog synthesizer. The live-CD contains the previously unreleased track "Necronomicon" (over 15 minutes), a 'typically Seventies live progrock composition' with lots of solos on guitar, keyboards and bass.

~ progarchives
Tracklist CD1:

1. Register Magister (9:18)
2. Bridge To Alice (13:10)
3. Pisces (9:27)
4. Paradoxical Moods (10:41)
5. Colossus – Part I (3:28)
6. Colossus – Part II (3:36)
7. Beyond The Bizarre (14:24)
8. Scars On The Ego (8:51)

Tracks 1-6: ‘Glory Of The Inner Force’ 1975 / Tracks 7-8: ‘Beyond Expression’ 1976

Exact Audio Copy V1.0 beta 3 from 29. August 2011

EAC extraction logfile from 1. February 2013, 17:38

Finch / Mythology Disc1

Used drive : ATAPI iHAS324 Y Adapter: 4 ID: 0

Read mode : Secure
Utilize accurate stream : Yes
Defeat audio cache : Yes
Make use of C2 pointers : No

Read offset correction : 48
Overread into Lead-In and Lead-Out : No
Fill up missing offset samples with silence : Yes
Delete leading and trailing silent blocks : No
Null samples used in CRC calculations : Yes
Used interface : Native Win32 interface for Win NT & 2000
Gap handling : Appended to previous track

Used output format : User Defined Encoder
Selected bitrate : 896 kBit/s
Quality : High
Add ID3 tag : No
Command line compressor : C:\Program Files\Exact Audio Copy\flac.exe
Additional command line options : -8 -V -T "ARTIST=%artist%" -T "TITLE=%title%" -T "ALBUM=%albumtitle%" -T "DATE=%year%" -T "TRACKNUMBER=%tracknr%" -T "GENRE=%genre%" -T "PERFORMER=%albuminterpret%" -T "COMPOSER=%composer%" %haslyrics%–tag-from-file=LYRICS="%lyricsfile%"%haslyrics% -T "ALBUMARTIST=%albumartist%" -T "DISCNUMBER=%cdnumber%" -T "TOTALDISCS=%totalcds%" -T "TOTALTRACKS=%numtracks%" -T "COMMENT=%comment%" %source% -o %dest%


TOC of the extracted CD

Track | Start | Length | Start sector | End sector
––––––––––––––––––––––––––––-
1 | 0:00.00 | 9:20.10 | 0 | 42009
2 | 9:20.10 | 13:11.35 | 42010 | 101369
3 | 22:31.45 | 9:29.01 | 101370 | 144045
4 | 32:00.46 | 10:43.07 | 144046 | 192277
5 | 42:43.53 | 3:28.27 | 192278 | 207904
6 | 46:12.05 | 3:37.39 | 207905 | 224218
7 | 49:49.44 | 14:25.13 | 224219 | 289106
8 | 64:14.57 | 8:51.17 | 289107 | 328948


Track 1

Filename C:\EAC\01 - Register Magister.wav

Pre-gap length 0:00:02.00

Peak level 96.3 %
Extraction speed 3.0 X
Track quality 100.0 %
Test CRC B3DFD353
Copy CRC B3DFD353
Track not present in AccurateRip database
Copy OK

Track 2

Filename C:\EAC\02 - A Bridge To Alice.wav

Pre-gap length 0:00:01.56

Peak level 96.2 %
Extraction speed 3.5 X
Track quality 99.9 %
Test CRC 6667F775
Copy CRC 6667F775
Track not present in AccurateRip database
Copy OK

Track 3

Filename C:\EAC\03 - Pisces.wav

Pre-gap length 0:00:01.58

Peak level 95.0 %
Extraction speed 4.0 X
Track quality 99.9 %
Test CRC C6B65CA0
Copy CRC C6B65CA0
Track not present in AccurateRip database
Copy OK

Track 4

Filename C:\EAC\04 - Paradoxical Moods.wav

Pre-gap length 0:00:01.58

Peak level 97.6 %
Extraction speed 4.4 X
Track quality 99.9 %
Test CRC B10B7443
Copy CRC B10B7443
Track not present in AccurateRip database
Copy OK

Track 5

Filename C:\EAC\05 - Colossus – part I.wav

Pre-gap length 0:00:01.55

Peak level 97.1 %
Extraction speed 4.4 X
Track quality 100.0 %
Test CRC F485E6AD
Copy CRC F485E6AD
Track not present in AccurateRip database
Copy OK

Track 6

Filename C:\EAC\06 - Colossus – part II.wav

Peak level 85.3 %
Extraction speed 4.6 X
Track quality 100.0 %
Test CRC 94F15F22
Copy CRC 94F15F22
Track not present in AccurateRip database
Copy OK

Track 7

Filename C:\EAC\07 - Beyond The Bizarre.wav

Pre-gap length 0:00:01.54

Peak level 95.7 %
Extraction speed 5.3 X
Track quality 99.9 %
Test CRC 19B36DFB
Copy CRC 19B36DFB
Track not present in AccurateRip database
Copy OK

Track 8

Filename C:\EAC\08 - Scars On The Ego.wav

Pre-gap length 0:00:01.43

Peak level 96.0 %
Extraction speed 5.4 X
Track quality 99.9 %
Test CRC 751F15B8
Copy CRC 751F15B8
Track not present in AccurateRip database
Copy OK


None of the tracks are present in the AccurateRip database

No errors occurred

End of status report

==== Log checksum 9BCEDFBD5345230CD875D051594E8959FC0247D540110777F916A644B253BCD9 ====

foobar2000 1.1.18 / Dynamic Range Meter 1.1.1
log date: 2013-02-10 19:25:07

––––––––––––––––––––––––––––––––––––––––
Analyzed: Finch / Mythology Disc1
––––––––––––––––––––––––––––––––––––––––

DR Peak RMS Duration Track
––––––––––––––––––––––––––––––––––––––––
DR11 -0.32 dB -12.87 dB 9:20 01-Register Magister
DR12 -0.34 dB -14.64 dB 13:11 02-A Bridge To Alice
DR12 -0.44 dB -14.69 dB 9:29 03-Pisces
DR11 -0.21 dB -13.39 dB 10:43 04-Paradoxical Moods
DR12 -0.25 dB -13.81 dB 3:28 05-Colossus . part I
DR11 -1.38 dB -14.46 dB 3:38 06-Colossus . part II
DR11 -0.38 dB -13.99 dB 14:25 07-Beyond The Bizarre
DR12 -0.35 dB -14.62 dB 8:51 08-Scars On The Ego
––––––––––––––––––––––––––––––––––––––––

Number of tracks: 8
Official DR value: DR11

Samplerate: 44100 Hz
Channels: 2
Bits per sample: 16
Bitrate: 859 kbps
Codec: FLAC

Tracklist CD2:

1. Passion Condensed (20:06)
2. With Love As The Motive (9:20)
a. Impulse
b. Reaching
c. Sinful Delight?
3. As One (4:45)
4. Reconciling (8:29)
5. Remembering The Future (4:22)
6. Unspoken Is The Word (7:55)
7. Register Magister [live - 1975] (9:29) * Previously Unreleased Bonus Track *
8. Paradoxical Moods [live - 1975] (11:05) * Previously Unreleased Bonus Track *

Track 1: ‘Beyond Expression’ 1976 / Tracks 2-6: ‘Galleons Of Passion’ 1977

Exact Audio Copy V1.0 beta 3 from 29. August 2011

EAC extraction logfile from 1. February 2013, 18:24

Finch / Mythology Disc2

Used drive : ATAPI iHAS324 Y Adapter: 4 ID: 0

Read mode : Secure
Utilize accurate stream : Yes
Defeat audio cache : Yes
Make use of C2 pointers : No

Read offset correction : 48
Overread into Lead-In and Lead-Out : No
Fill up missing offset samples with silence : Yes
Delete leading and trailing silent blocks : No
Null samples used in CRC calculations : Yes
Used interface : Native Win32 interface for Win NT & 2000
Gap handling : Appended to previous track

Used output format : User Defined Encoder
Selected bitrate : 896 kBit/s
Quality : High
Add ID3 tag : No
Command line compressor : C:\Program Files\Exact Audio Copy\flac.exe
Additional command line options : -8 -V -T "ARTIST=%artist%" -T "TITLE=%title%" -T "ALBUM=%albumtitle%" -T "DATE=%year%" -T "TRACKNUMBER=%tracknr%" -T "GENRE=%genre%" -T "PERFORMER=%albuminterpret%" -T "COMPOSER=%composer%" %haslyrics%–tag-from-file=LYRICS="%lyricsfile%"%haslyrics% -T "ALBUMARTIST=%albumartist%" -T "DISCNUMBER=%cdnumber%" -T "TOTALDISCS=%totalcds%" -T "TOTALTRACKS=%numtracks%" -T "COMMENT=%comment%" %source% -o %dest%


TOC of the extracted CD

Track | Start | Length | Start sector | End sector
––––––––––––––––––––––––––––-
1 | 0:00.00 | 20:05.63 | 0 | 90437
2 | 20:05.63 | 9:19.53 | 90438 | 132415
3 | 29:25.41 | 4:46.28 | 132416 | 153893
4 | 34:11.69 | 8:30.50 | 153894 | 192193
5 | 42:42.44 | 4:23.55 | 192194 | 211973
6 | 47:06.24 | 7:57.48 | 211974 | 247796
7 | 55:03.72 | 9:23.34 | 247797 | 290055
8 | 64:27.31 | 11:05.08 | 290056 | 339938


Track 1

Filename C:\EAC\01 - A Passion Condensed.wav

Pre-gap length 0:00:02.00

Peak level 93.9 %
Extraction speed 3.3 X
Track quality 99.9 %
Test CRC 6D3F7CE5
Copy CRC 6D3F7CE5
Track not present in AccurateRip database
Copy OK

Track 2

Filename C:\EAC\02 - With Love As The Motive.wav

Peak level 97.5 %
Extraction speed 3.8 X
Track quality 99.9 %
Test CRC E322501C
Copy CRC E322501C
Track not present in AccurateRip database
Copy OK

Track 3

Filename C:\EAC\03 - As One.wav

Peak level 97.5 %
Extraction speed 4.1 X
Track quality 100.0 %
Test CRC 5AF44A8D
Copy CRC 5AF44A8D
Track not present in AccurateRip database
Copy OK

Track 4

Filename C:\EAC\04 - Reconciling.wav

Pre-gap length 0:00:01.57

Peak level 96.3 %
Extraction speed 4.6 X
Track quality 100.0 %
Test CRC 33E5E67C
Copy CRC 33E5E67C
Track not present in AccurateRip database
Copy OK

Track 5

Filename C:\EAC\05 - Remembering The Future.wav

Pre-gap length 0:00:01.55

Peak level 97.2 %
Extraction speed 4.6 X
Track quality 100.0 %
Test CRC 059260B0
Copy CRC 059260B0
Track not present in AccurateRip database
Copy OK

Track 6

Filename C:\EAC\06 - Unspoken Is The Word.wav

Pre-gap length 0:00:01.57

Peak level 96.9 %
Extraction speed 5.1 X
Track quality 100.0 %
Test CRC 9A5EADD9
Copy CRC 9A5EADD9
Track not present in AccurateRip database
Copy OK

Track 7

Filename C:\EAC\07 - Register Magister (live).wav

Pre-gap length 0:00:02.42

Peak level 97.5 %
Extraction speed 5.5 X
Track quality 100.0 %
Test CRC 3E5CBCE9
Copy CRC 3E5CBCE9
Track not present in AccurateRip database
Copy OK

Track 8

Filename C:\EAC\08 - Paradoxical Moods (live).wav

Peak level 97.5 %
Extraction speed 5.9 X
Track quality 100.0 %
Test CRC 389D73D6
Copy CRC 389D73D6
Track not present in AccurateRip database
Copy OK


None of the tracks are present in the AccurateRip database

No errors occurred

End of status report

==== Log checksum 051196F838300A04B34C3C6CCE54DC3D85FDF69ED6C56E1729377253A7EFF1F2 ====

foobar2000 1.1.18 / Dynamic Range Meter 1.1.1
log date: 2013-02-10 19:25:36

––––––––––––––––––––––––––––––––––––––––
Analyzed: Finch / Mythology Disc2
––––––––––––––––––––––––––––––––––––––––

DR Peak RMS Duration Track
––––––––––––––––––––––––––––––––––––––––
DR11 -0.54 dB -14.33 dB 20:06 01-A Passion Condensed
DR11 -0.21 dB -14.63 dB 9:20 02-With Love As The Motive
DR12 -0.22 dB -14.90 dB 4:46 03-As One
DR11 -0.32 dB -12.89 dB 8:31 04-Reconciling
DR12 -0.25 dB -13.98 dB 4:24 05-Remembering The Future
DR11 -0.27 dB -13.47 dB 7:58 06-Unspoken Is The Word
DR11 -0.21 dB -12.69 dB 9:23 07-Register Magister (live)
DR11 -0.22 dB -13.39 dB 11:05 08-Paradoxical Moods (live)
––––––––––––––––––––––––––––––––––––––––

Number of tracks: 8
Official DR value: DR11

Samplerate: 44100 Hz
Channels: 2
Bits per sample: 16
Bitrate: 873 kbps
Codec: FLAC

Tracklist CD3:

1. Pisces [live - 1975] (10:44) * Previously Unreleased Bonus Track *
2. Necronomicon [live - 1976] (17:48) * Bonus Track *
3. Unspoken Is The Word [demo] (7:49) * Bonus Track *
4. Phases [demo] (5:32) * Bonus Track *
5. As One [demo] (4:07) * Bonus Track *
6. With Love As The Motive [demo] (9:02) * Bonus Track *
a. Impulse
b. Reaching
c. Sinful Delight?
7. Dreamer [demo] (4:46) * Bonus Track *
8. Reconciling [demo] (8:34) * Bonus Track *
9. Night Walker [demo] (3:04) * Bonus Track *
10. Remembering The Future [demo] (5:01) * Bonus Track *

All Bonus material / Demos are from the ‘Galleons Of Passion’ sessions

Exact Audio Copy V1.0 beta 3 from 29. August 2011

EAC extraction logfile from 1. February 2013, 19:08

Finch / Mythology Disc3

Used drive : ATAPI iHAS324 Y Adapter: 4 ID: 0

Read mode : Secure
Utilize accurate stream : Yes
Defeat audio cache : Yes
Make use of C2 pointers : No

Read offset correction : 48
Overread into Lead-In and Lead-Out : No
Fill up missing offset samples with silence : Yes
Delete leading and trailing silent blocks : No
Null samples used in CRC calculations : Yes
Used interface : Native Win32 interface for Win NT & 2000
Gap handling : Appended to previous track

Used output format : User Defined Encoder
Selected bitrate : 896 kBit/s
Quality : High
Add ID3 tag : No
Command line compressor : C:\Program Files\Exact Audio Copy\flac.exe
Additional command line options : -8 -V -T "ARTIST=%artist%" -T "TITLE=%title%" -T "ALBUM=%albumtitle%" -T "DATE=%year%" -T "TRACKNUMBER=%tracknr%" -T "GENRE=%genre%" -T "PERFORMER=%albuminterpret%" -T "COMPOSER=%composer%" %haslyrics%–tag-from-file=LYRICS="%lyricsfile%"%haslyrics% -T "ALBUMARTIST=%albumartist%" -T "DISCNUMBER=%cdnumber%" -T "TOTALDISCS=%totalcds%" -T "TOTALTRACKS=%numtracks%" -T "COMMENT=%comment%" %source% -o %dest%


TOC of the extracted CD

Track | Start | Length | Start sector | End sector
––––––––––––––––––––––––––––-
1 | 0:00.00 | 10:44.21 | 0 | 48320
2 | 10:44.21 | 17:50.09 | 48321 | 128579
3 | 28:34.30 | 7:51.15 | 128580 | 163919
4 | 36:25.45 | 5:34.06 | 163920 | 188975
5 | 41:59.51 | 4:08.52 | 188976 | 207627
6 | 46:08.28 | 9:03.29 | 207628 | 248381
7 | 55:11.57 | 4:47.64 | 248382 | 269970
8 | 59:59.46 | 8:35.69 | 269971 | 308664
9 | 68:35.40 | 3:05.57 | 308665 | 322596
10 | 71:41.22 | 5:01.25 | 322597 | 345196


Track 1

Filename C:\EAC\01 - Pisces (live).wav

Pre-gap length 0:00:02.00

Peak level 97.6 %
Extraction speed 3.0 X
Track quality 100.0 %
Test CRC C97741C8
Copy CRC C97741C8
Track not present in AccurateRip database
Copy OK

Track 2

Filename C:\EAC\02 - Necronomicon (live).wav

Peak level 95.9 %
Extraction speed 3.9 X
Track quality 100.0 %
Test CRC D50F660F
Copy CRC D50F660F
Track not present in AccurateRip database
Copy OK

Track 3

Filename C:\EAC\03 - Unspoken Is The Word (demo).wav

Pre-gap length 0:00:01.58

Peak level 96.5 %
Extraction speed 4.4 X
Track quality 100.0 %
Test CRC 95CEB4AF
Copy CRC 95CEB4AF
Track not present in AccurateRip database
Copy OK

Track 4

Filename C:\EAC\04 - Phases (demo).wav

Pre-gap length 0:00:01.56

Peak level 96.5 %
Extraction speed 4.5 X
Track quality 100.0 %
Test CRC EB76A280
Copy CRC EB76A280
Track not present in AccurateRip database
Copy OK

Track 5

Filename C:\EAC\05 - As One (demo).wav

Pre-gap length 0:00:01.55

Peak level 97.6 %
Extraction speed 4.5 X
Track quality 100.0 %
Test CRC 4820BBC7
Copy CRC 4820BBC7
Track not present in AccurateRip database
Copy OK

Track 6

Filename C:\EAC\06 - With Love As The Motive (demo).wav

Pre-gap length 0:00:01.57

Peak level 96.5 %
Extraction speed 5.1 X
Track quality 100.0 %
Test CRC BCBC8AB9
Copy CRC BCBC8AB9
Track not present in AccurateRip database
Copy OK

Track 7

Filename C:\EAC\07 - Dreamer (demo).wav

Pre-gap length 0:00:01.42

Peak level 96.5 %
Extraction speed 4.5 X
Track quality 99.9 %
Test CRC 74292D9E
Copy CRC 74292D9E
Track not present in AccurateRip database
Copy OK

Track 8

Filename C:\EAC\08 - Reconciling (demo).wav

Pre-gap length 0:00:01.42

Peak level 96.5 %
Extraction speed 5.2 X
Track quality 99.9 %
Test CRC 0D579F32
Copy CRC 0D579F32
Track not present in AccurateRip database
Copy OK

Track 9

Filename C:\EAC\09 - Night Walker (demo).wav

Pre-gap length 0:00:01.42

Peak level 96.5 %
Extraction speed 5.1 X
Track quality 100.0 %
Test CRC B817E95F
Copy CRC B817E95F
Track not present in AccurateRip database
Copy OK

Track 10

Filename C:\EAC\10 - Remembering The Future (demo).wav

Pre-gap length 0:00:01.41

Peak level 96.5 %
Extraction speed 5.6 X
Track quality 100.0 %
Test CRC 71BCB6AE
Copy CRC 71BCB6AE
Track not present in AccurateRip database
Copy OK


None of the tracks are present in the AccurateRip database

No errors occurred

End of status report

==== Log checksum 0ABD99C45CEB8572C2F1A2D96B386720C3B7CA1F57034C955D0AED23F5A4B08C ====

foobar2000 1.1.18 / Dynamic Range Meter 1.1.1
log date: 2013-02-10 19:26:11

––––––––––––––––––––––––––––––––––––––––
Analyzed: Finch / Mythology Disc3
––––––––––––––––––––––––––––––––––––––––

DR Peak RMS Duration Track
––––––––––––––––––––––––––––––––––––––––
DR11 -0.21 dB -13.91 dB 10:44 01-Pisces (live)
DR11 -0.36 dB -13.34 dB 17:50 02-Necronomicon (live)
DR11 -0.31 dB -13.65 dB 7:51 03-Unspoken Is The Word (demo)
DR10 -0.31 dB -12.94 dB 5:34 04-Phases (demo)
DR12 -0.21 dB -15.58 dB 4:09 05-As One (demo)
DR12 -0.31 dB -14.61 dB 9:03 06-With Love As The Motive (demo)
DR12 -0.31 dB -14.17 dB 4:48 07-Dreamer (demo)
DR10 -0.31 dB -11.75 dB 8:36 08-Reconciling (demo)
DR12 -0.31 dB -13.62 dB 3:06 09-Night Walker (demo)
DR11 -0.31 dB -13.13 dB 5:01 10-Remembering The Future (demo)
––––––––––––––––––––––––––––––––––––––––

Number of tracks: 10
Official DR value: DR11

Samplerate: 44100 Hz
Channels: 2
Bits per sample: 16
Bitrate: 896 kbps
Codec: FLAC

Finch - Mythology (2013) [3CD Box Set, Pseudonym Records, CDP-1107]

All thanks go to kotetsu29292929

Download Finch - Mythology (2013):