Tags
Language
Tags

Fish - Bouillabaisse: The Best Of Fish (2005) 2CDs [Re-Up]

Posted By: Designol
Fish - Bouillabaisse: The Best Of Fish (2005) 2CDs [Re-Up]

Fish - Bouillabaisse: The Best Of Fish (2005) 2CDs
EAC | FLAC | Tracks (Cue&Log) ~ 961 Gb | Mp3 (CBR320) ~ 330 Mb | Scans ~ 265 Mb
Label: Snapper Music | # SMADD922 | Time: 02:23:42
Art Rock, Prog-Rock, Classic Rock, Pop Rock

Two CD set of Bouillasbaisse by Fish who first came to prominence as the front man for British progressive rock band Marillion. This double CD covers the career of Fish including three tracks from his Marillion days (Kayleigh, Lavender and Incommunicado) up to his studio album Field of Crows. Key tracks included here are 'Big Wedge', 'A Gentleman's Excuse M' and the duet with Sam Brown'Just Good Friends'. This compilation is released as Fish embarks on the second leg of his 13th Star tour. It is a perfect primer for the career of an artist who retains a massive following and continues to add to an already substantial catalogue of music. Fish recorded four studio albums with Marillion and he performed at many concerts between the years 1981 and 1989.

This double disc by the enigmatic Fish – aka Derek William Dick from Edinburgh, Scotland – is exactly the perfect kind of constructed best-of for a performer who is as theatrical, dramatic, and utterly exposed as his lyrics, through all of his musical phases. Divided thematically between ballads and harder tracks, Bouillabaise showcases Fish the poet on "Balladeer" (disc one) and the rock singer on "Rocketeer" (disc two). Each disc includes moments from his years fronting Marillion. The ballads on disc one include "Kayleigh," from Misplaced Childhood, as well as "A Gentleman's Excuse Me," from Vigil in a Wilderness of Mirrors. But the finest moments occur in his duets, with the beguiling and sublimely talented Sam Brown on "Shot the Craw," from 2004's Field of Crows, and "Scattering the Crows." Then there's "Incomplete" with Elizabeth Troy Antwi, from 1999's Raingods with Zippos. "Tara" is also here as well as an edited version of "Raw Meat," from Suits in 1994, and thankfully, his wondrous cover of Sandy Denny's "Solo" from Songs from the Mirror in 1993. The combination of Fish's lyrics in these songs and the grain of his completely vulnerable and bewildered voice makes him a singular talent. In these, the protagonist, right or wrong, has his heart torn and bleeding all over his delivery. On "Rocketeer," the angrier side of the singer comes through. Check "Incommunicado," from Marillion's Clutching at Straws, or "Long Cold Day," from Fellini Days. Or the truly amazing suit "Plague of Ghosts" – in six parts from Raingods with Zippos. The performer can be funky, a raging messianic prophet, a confused wailing voice in the desert, a megalomaniacal streetwise punk, or simply a man who takes the world and its workings with a huge boulder of salt. But his persona can also be an uplifting moment of sanity in a confusing, violent world – check "Brother 52." The other revealing thing abut this collection is how Fish continually surrounds himself with musicians of the highest caliber, capable of hard rock, prog rock, funk, and of course the kind of swirling theatrical sound that can support a performer as over the edge as the subject of this retrospective. For those who have been wondering about Fish, or for those who have forgotten him, Bouillabaise makes a startling and demanding case that here is an artist who carries a banner for big rock that has all but been relegated to the dustbin. Fish, in his way, is certainly in the company of Peter Gabriel and Bruce Springsteen. Fish makes records that become movies in the mind, big statements about whatever he chooses, because of his utterly and shamanistically convincing ability as the singer and songwriter who conceives and weaves them.

Review by Thom Jurek, Allmusic.com

Fish - Bouillabaisse: The Best Of Fish (2005) 2CDs [Re-Up]



Tracklist:

CD1:

01. Just Good Friends (04:01)
02. Shot The Crow (04:00)
03. A Gentleman's Excuse Me (04:17)
04. Kayleigh (03:38)
05. Solo (04:08)
06. Incomplete (03:43)
07. The Company (04:05)
08. Fortunes Of War (05:05)
09. Our Smile (04:17)
10. Lavender (03:42)
11. Lady Let It Lie (04:08)
12. Cliche (07:05)
13. Scattering Crows (05:08)
14. Tara (04:06)
15. Caledonia (04:19)
16. Raw Meat (05:13)

CD2:

01. Big Wedge (04:36)
02. Credo (04:03)
03. Incommunicado (03:56)
04. Goldfish And Clowns (04:11)
05. Long Cold Day (05:35)
06. Brother 52 (03:58)
07. Clock Moves Sideways (07:02)
08. The Perception Of Johnny Punter (08:37)
09. Moving Targets (05:46)
10. Plague Of Ghosts - (I) Old Haunts (03:12)
11. Plague Of Ghosts - (II) Digging Deep (06:48)
12. Plague Of Ghosts - (III) Chocolate Frogs (04:04)
13. Plague Of Ghosts - (IV) Waving At Stars (03:12)
14. Plague Of Ghosts - (V) Raingods Dancing (04:16)
15. Plague Of Ghosts - (VI) Wake Up Call (Make It Happen) (03:18)


Exact Audio Copy V0.99 prebeta 4 from 23. January 2008

EAC extraction logfile from 6. June 2009, 17:42

Fish / Bouillabaisse - The Best Of Fish - Disc 1 Balladeer

Used drive : HL-DT-STDVDRAM GSA-T20N Adapter: 1 ID: 0

Read mode : Secure
Utilize accurate stream : Yes
Defeat audio cache : Yes
Make use of C2 pointers : No

Read offset correction : 667
Overread into Lead-In and Lead-Out : No
Fill up missing offset samples with silence : Yes
Delete leading and trailing silent blocks : No
Null samples used in CRC calculations : Yes
Used interface : Native Win32 interface for Win NT & 2000
Gap handling : Appended to previous track

Used output format : User Defined Encoder
Selected bitrate : 1024 kBit/s
Quality : High
Add ID3 tag : No
Command line compressor : C:\Program Files\FLAC\flac.exe
Additional command line options : -8 -V -T "ARTIST=%a" -T "TITLE=%t" -T "ALBUM=%g" -T "DATE=%y" -T "TRACKNUMBER=%n" -T "GENRE=%m" -T "COMMENT=EAC FLAC -8" %s


TOC of the extracted CD

Track | Start | Length | Start sector | End sector
––––––––––––––––––––––––––––-
1 | 0:00.00 | 4:01.10 | 0 | 18084
2 | 4:01.10 | 4:00.16 | 18085 | 36100
3 | 8:01.26 | 4:17.14 | 36101 | 55389
4 | 12:18.40 | 3:38.37 | 55390 | 71776
5 | 15:57.02 | 4:08.23 | 71777 | 90399
6 | 20:05.25 | 3:43.72 | 90400 | 107196
7 | 23:49.22 | 4:05.24 | 107197 | 125595
8 | 27:54.46 | 5:05.09 | 125596 | 148479
9 | 32:59.55 | 4:17.65 | 148480 | 167819
10 | 37:17.45 | 3:42.38 | 167820 | 184507
11 | 41:00.08 | 4:08.31 | 184508 | 203138
12 | 45:08.39 | 7:05.52 | 203139 | 235065
13 | 52:14.16 | 5:08.51 | 235066 | 258216
14 | 57:22.67 | 4:06.22 | 258217 | 276688
15 | 61:29.14 | 4:19.38 | 276689 | 296151
16 | 65:48.52 | 5:13.53 | 296152 | 319679


Track 1

Filename C:\Fish - Bouillabaisse (2005) [FLAC] {Snapper, SMADD922}\CD 1 Balladeer\01 - Just Good Friends.wav

Pre-gap length 0:00:02.00

Peak level 98.9 %
Track quality 100.0 %
Test CRC 51C743BC
Copy CRC 51C743BC
Accurately ripped (confidence 10) [ECB416A6]
Copy OK

Track 2

Filename C:\Fish - Bouillabaisse (2005) [FLAC] {Snapper, SMADD922}\CD 1 Balladeer\02 - Shot The Crow.wav

Pre-gap length 0:00:00.17

Peak level 100.0 %
Track quality 100.0 %
Test CRC 4F4B61A1
Copy CRC 4F4B61A1
Accurately ripped (confidence 10) [1699DE07]
Copy OK

Track 3

Filename C:\Fish - Bouillabaisse (2005) [FLAC] {Snapper, SMADD922}\CD 1 Balladeer\03 - A Gentleman's Excuse Me.wav

Pre-gap length 0:00:00.64

Peak level 100.0 %
Track quality 100.0 %
Test CRC A23FEE32
Copy CRC A23FEE32
Accurately ripped (confidence 10) [C3BA964D]
Copy OK

Track 4

Filename C:\Fish - Bouillabaisse (2005) [FLAC] {Snapper, SMADD922}\CD 1 Balladeer\04 - Kayleigh.wav

Pre-gap length 0:00:01.80

Peak level 98.0 %
Track quality 99.9 %
Test CRC 3FA3FE38
Copy CRC 3FA3FE38
Accurately ripped (confidence 10) [20228B2E]
Copy OK

Track 5

Filename C:\Fish - Bouillabaisse (2005) [FLAC] {Snapper, SMADD922}\CD 1 Balladeer\05 - Solo.wav

Pre-gap length 0:00:04.12

Peak level 100.0 %
Track quality 100.0 %
Test CRC D4094FD6
Copy CRC D4094FD6
Accurately ripped (confidence 10) [5BDEBC26]
Copy OK

Track 6

Filename C:\Fish - Bouillabaisse (2005) [FLAC] {Snapper, SMADD922}\CD 1 Balladeer\06 - Incomplete.wav

Pre-gap length 0:00:01.36

Peak level 100.0 %
Track quality 100.0 %
Test CRC 392FD23D
Copy CRC 392FD23D
Accurately ripped (confidence 10) [A1E8B76E]
Copy OK

Track 7

Filename C:\Fish - Bouillabaisse (2005) [FLAC] {Snapper, SMADD922}\CD 1 Balladeer\07 - The Company.wav

Pre-gap length 0:00:01.01

Peak level 98.2 %
Track quality 100.0 %
Test CRC FC94D408
Copy CRC FC94D408
Accurately ripped (confidence 10) [B2D0F612]
Copy OK

Track 8

Filename C:\Fish - Bouillabaisse (2005) [FLAC] {Snapper, SMADD922}\CD 1 Balladeer\08 - Fortunes Of War.wav

Pre-gap length 0:00:01.58

Peak level 98.0 %
Track quality 100.0 %
Test CRC 323AF676
Copy CRC 323AF676
Accurately ripped (confidence 10) [AD2517C2]
Copy OK

Track 9

Filename C:\Fish - Bouillabaisse (2005) [FLAC] {Snapper, SMADD922}\CD 1 Balladeer\09 - Our Smile.wav

Peak level 99.4 %
Track quality 100.0 %
Test CRC B9011DB9
Copy CRC B9011DB9
Accurately ripped (confidence 10) [BA0ED9F0]
Copy OK

Track 10

Filename C:\Fish - Bouillabaisse (2005) [FLAC] {Snapper, SMADD922}\CD 1 Balladeer\10 - Lavender.wav

Pre-gap length 0:00:02.56

Peak level 98.0 %
Track quality 99.9 %
Test CRC 287219D1
Copy CRC 287219D1
Accurately ripped (confidence 10) [534B4489]
Copy OK

Track 11

Filename C:\Fish - Bouillabaisse (2005) [FLAC] {Snapper, SMADD922}\CD 1 Balladeer\11 - Lady Let It Lie.wav

Pre-gap length 0:00:01.82

Peak level 100.0 %
Track quality 100.0 %
Test CRC C1DAE5DA
Copy CRC C1DAE5DA
Accurately ripped (confidence 10) [0C73EBD6]
Copy OK

Track 12

Filename C:\Fish - Bouillabaisse (2005) [FLAC] {Snapper, SMADD922}\CD 1 Balladeer\12 - Cliche.wav

Pre-gap length 0:00:00.58

Peak level 100.0 %
Track quality 99.9 %
Test CRC 00E2CB5E
Copy CRC 00E2CB5E
Accurately ripped (confidence 10) [0FB6BE25]
Copy OK

Track 13

Filename C:\Fish - Bouillabaisse (2005) [FLAC] {Snapper, SMADD922}\CD 1 Balladeer\13 - Scattering Crows.wav

Pre-gap length 0:00:00.82

Peak level 100.0 %
Track quality 100.0 %
Test CRC D7688D24
Copy CRC D7688D24
Accurately ripped (confidence 10) [A7568F53]
Copy OK

Track 14

Filename C:\Fish - Bouillabaisse (2005) [FLAC] {Snapper, SMADD922}\CD 1 Balladeer\14 - Tara.wav

Pre-gap length 0:00:00.90

Peak level 98.0 %
Track quality 100.0 %
Test CRC 0C390A61
Copy CRC 0C390A61
Accurately ripped (confidence 10) [0B1C49A8]
Copy OK

Track 15

Filename C:\Fish - Bouillabaisse (2005) [FLAC] {Snapper, SMADD922}\CD 1 Balladeer\15 - Caledonia.wav

Pre-gap length 0:00:03.58

Peak level 100.0 %
Track quality 100.0 %
Test CRC 5160BC26
Copy CRC 5160BC26
Accurately ripped (confidence 10) [CFAADB93]
Copy OK

Track 16

Filename C:\Fish - Bouillabaisse (2005) [FLAC] {Snapper, SMADD922}\CD 1 Balladeer\16 - Raw Meat.wav

Pre-gap length 0:00:02.01

Peak level 99.9 %
Track quality 100.0 %
Test CRC 552B5B74
Copy CRC 552B5B74
Accurately ripped (confidence 9) [9F584EDD]
Copy OK


All tracks accurately ripped

No errors occurred

End of status report

foobar2000 1.2 / Dynamic Range Meter 1.1.1
log date: 2013-03-17 06:31:26

––––––––––––––––––––––––––––––––––––––––
Analyzed: Fish / Bouillabaisse - The Best Of Fish - Disc 1 Balladeer
––––––––––––––––––––––––––––––––––––––––

DR Peak RMS Duration Track
––––––––––––––––––––––––––––––––––––––––
DR9 -0.09 dB -10.70 dB 4:01 01-Just Good Friends
DR7 0.00 dB -9.30 dB 4:00 02- Shot The Crow
DR8 0.00 dB -12.51 dB 4:17 03-A Gentleman's Excuse Me
DR9 -0.18 dB -10.66 dB 3:38 04-Kayleigh
DR7 0.00 dB -10.96 dB 4:08 05-Solo
DR9 0.00 dB -11.08 dB 3:44 06-Incomplete
DR10 -0.15 dB -12.54 dB 4:05 07-The Company
DR12 -0.17 dB -14.42 dB 5:05 08-Fortunes Of War
DR11 -0.05 dB -12.02 dB 4:18 09-Our Smile
DR8 -0.17 dB -10.74 dB 3:43 10-Lavender
DR9 0.00 dB -11.70 dB 4:08 11-Lady Let It Lie
DR9 0.00 dB -10.75 dB 7:06 12-Cliche
DR8 0.00 dB -10.90 dB 5:09 13-Scattering Crows
DR11 -0.17 dB -13.47 dB 4:06 14-Tara
DR8 0.00 dB -10.85 dB 4:20 15-Caledonia
DR10 0.00 dB -12.78 dB 5:14 16-Raw Meat
––––––––––––––––––––––––––––––––––––––––

Number of tracks: 16
Official DR value: DR9

Samplerate: 44100 Hz
Channels: 2
Bits per sample: 16
Bitrate: 891 kbps
Codec: FLAC
================================================================================


Exact Audio Copy V0.99 prebeta 4 from 23. January 2008

EAC extraction logfile from 6. June 2009, 18:24

Fish / Bouillabaisse - The Best Of Fish - Disc 2 Rocketeer

Used drive : HL-DT-STDVDRAM GSA-T20N Adapter: 1 ID: 0

Read mode : Secure
Utilize accurate stream : Yes
Defeat audio cache : Yes
Make use of C2 pointers : No

Read offset correction : 667
Overread into Lead-In and Lead-Out : No
Fill up missing offset samples with silence : Yes
Delete leading and trailing silent blocks : No
Null samples used in CRC calculations : Yes
Used interface : Native Win32 interface for Win NT & 2000
Gap handling : Appended to previous track

Used output format : User Defined Encoder
Selected bitrate : 1024 kBit/s
Quality : High
Add ID3 tag : No
Command line compressor : C:\Program Files\FLAC\flac.exe
Additional command line options : -8 -V -T "ARTIST=%a" -T "TITLE=%t" -T "ALBUM=%g" -T "DATE=%y" -T "TRACKNUMBER=%n" -T "GENRE=%m" -T "COMMENT=EAC FLAC -8" %s


TOC of the extracted CD

Track | Start | Length | Start sector | End sector
––––––––––––––––––––––––––––-
1 | 0:01.52 | 4:36.24 | 127 | 20850
2 | 4:38.01 | 4:03.26 | 20851 | 39101
3 | 8:41.27 | 3:56.05 | 39102 | 56806
4 | 12:37.32 | 4:11.57 | 56807 | 75688
5 | 16:49.14 | 5:35.36 | 75689 | 100849
6 | 22:24.50 | 3:58.29 | 100850 | 118728
7 | 26:23.04 | 7:02.66 | 118729 | 150444
8 | 33:25.70 | 8:37.13 | 150445 | 189232
9 | 42:03.08 | 5:46.39 | 189233 | 215221
10 | 47:49.47 | 3:12.37 | 215222 | 229658
11 | 51:02.09 | 6:48.72 | 229659 | 260330
12 | 57:51.06 | 4:04.22 | 260331 | 278652
13 | 61:55.28 | 3:12.00 | 278653 | 293052
14 | 65:07.28 | 4:16.09 | 293053 | 312261
15 | 69:23.37 | 3:18.09 | 312262 | 327120


Track 1

Filename C:\Fish - Bouillabaisse (2005) [FLAC] {Snapper, SMADD922}\CD 2 Rocketeer\01 - Big Wedge.wav

Pre-gap length 0:00:03.69

Peak level 100.0 %
Track quality 100.0 %
Test CRC A51A18BE
Copy CRC A51A18BE
Accurately ripped (confidence 8) [C6BED59C]
Copy OK

Track 2

Filename C:\Fish - Bouillabaisse (2005) [FLAC] {Snapper, SMADD922}\CD 2 Rocketeer\02 - Credo.wav

Pre-gap length 0:00:00.50

Peak level 100.0 %
Track quality 100.0 %
Test CRC 88BC2707
Copy CRC 88BC2707
Accurately ripped (confidence 8) [939030A2]
Copy OK

Track 3

Filename C:\Fish - Bouillabaisse (2005) [FLAC] {Snapper, SMADD922}\CD 2 Rocketeer\03 - Incommunicado.wav

Pre-gap length 0:00:00.14

Peak level 98.6 %
Track quality 100.0 %
Test CRC CCD6CA31
Copy CRC CCD6CA31
Accurately ripped (confidence 8) [64713145]
Copy OK

Track 4

Filename C:\Fish - Bouillabaisse (2005) [FLAC] {Snapper, SMADD922}\CD 2 Rocketeer\04 - Goldfish And Clowns.wav

Pre-gap length 0:00:00.21

Peak level 100.0 %
Track quality 100.0 %
Test CRC E149A491
Copy CRC E149A491
Accurately ripped (confidence 8) [2560195F]
Copy OK

Track 5

Filename C:\Fish - Bouillabaisse (2005) [FLAC] {Snapper, SMADD922}\CD 2 Rocketeer\05 - Long Cold Day.wav

Pre-gap length 0:00:00.38

Peak level 100.0 %
Track quality 100.0 %
Test CRC B771F45F
Copy CRC B771F45F
Accurately ripped (confidence 8) [5F12B34D]
Copy OK

Track 6

Filename C:\Fish - Bouillabaisse (2005) [FLAC] {Snapper, SMADD922}\CD 2 Rocketeer\06 - Brother 52.wav

Pre-gap length 0:00:02.12

Peak level 98.0 %
Track quality 99.9 %
Test CRC C53A7941
Copy CRC C53A7941
Accurately ripped (confidence 8) [4B1AE601]
Copy OK

Track 7

Filename C:\Fish - Bouillabaisse (2005) [FLAC] {Snapper, SMADD922}\CD 2 Rocketeer\07 - Clock Moves Sideways.wav

Pre-gap length 0:00:03.26

Peak level 100.0 %
Track quality 100.0 %
Test CRC 6586B81B
Copy CRC 6586B81B
Accurately ripped (confidence 8) [A6243A4E]
Copy OK

Track 8

Filename C:\Fish - Bouillabaisse (2005) [FLAC] {Snapper, SMADD922}\CD 2 Rocketeer\08 - The Perception Of Johnny Punter.wav

Pre-gap length 0:00:03.26

Peak level 98.0 %
Track quality 100.0 %
Test CRC 804D6750
Copy CRC 804D6750
Accurately ripped (confidence 8) [2499F920]
Copy OK

Track 9

Filename C:\Fish - Bouillabaisse (2005) [FLAC] {Snapper, SMADD922}\CD 2 Rocketeer\09 - Moving Targets.wav

Pre-gap length 0:00:00.53

Peak level 100.0 %
Track quality 100.0 %
Test CRC A726D062
Copy CRC A726D062
Accurately ripped (confidence 8) [9DE6FC67]
Copy OK

Track 10

Filename C:\Fish - Bouillabaisse (2005) [FLAC] {Snapper, SMADD922}\CD 2 Rocketeer\10 - Plague Of Ghosts - (I) Old Haunts.wav

Pre-gap length 0:00:01.69

Peak level 56.2 %
Track quality 100.0 %
Test CRC CE6A051C
Copy CRC CE6A051C
Accurately ripped (confidence 8) [3143B0F5]
Copy OK

Track 11

Filename C:\Fish - Bouillabaisse (2005) [FLAC] {Snapper, SMADD922}\CD 2 Rocketeer\11 - Plague Of Ghosts - (II) Digging Deep.wav

Peak level 100.0 %
Track quality 100.0 %
Test CRC 7F4817E3
Copy CRC 7F4817E3
Accurately ripped (confidence 8) [4E054439]
Copy OK

Track 12

Filename C:\Fish - Bouillabaisse (2005) [FLAC] {Snapper, SMADD922}\CD 2 Rocketeer\12 - Plague Of Ghosts - (III) Chocolate Frogs.wav

Peak level 98.2 %
Track quality 100.0 %
Test CRC 6684AC99
Copy CRC 6684AC99
Accurately ripped (confidence 8) [4F0620D6]
Copy OK

Track 13

Filename C:\Fish - Bouillabaisse (2005) [FLAC] {Snapper, SMADD922}\CD 2 Rocketeer\13 - Plague Of Ghosts - (IV) Waving At Stars.wav

Peak level 100.0 %
Track quality 100.0 %
Test CRC 627B574E
Copy CRC 627B574E
Accurately ripped (confidence 8) [CE7F5158]
Copy OK

Track 14

Filename C:\Fish - Bouillabaisse (2005) [FLAC] {Snapper, SMADD922}\CD 2 Rocketeer\14 - Plague Of Ghosts - (V) Raingods Dancing.wav

Peak level 100.0 %
Track quality 100.0 %
Test CRC 3ABB1CA2
Copy CRC 3ABB1CA2
Accurately ripped (confidence 8) [AC551BA2]
Copy OK

Track 15

Filename C:\Fish - Bouillabaisse (2005) [FLAC] {Snapper, SMADD922}\CD 2 Rocketeer\15 - Plague Of Ghosts - (VI) Wake Up Call (Make It Happen).wav

Peak level 100.0 %
Track quality 100.0 %
Test CRC 85A3627C
Copy CRC 85A3627C
Accurately ripped (confidence 8) [45E535CC]
Copy OK


All tracks accurately ripped

No errors occurred

End of status report

foobar2000 1.2 / Dynamic Range Meter 1.1.1
log date: 2013-03-17 06:31:48

––––––––––––––––––––––––––––––––––––––––
Analyzed: Fish / Bouillabaisse - The Best Of Fish - Disc 2 Rocketeer
––––––––––––––––––––––––––––––––––––––––

DR Peak RMS Duration Track
––––––––––––––––––––––––––––––––––––––––
DR9 0.00 dB -10.01 dB 4:36 01-Big Wedge
DR9 0.00 dB -11.28 dB 4:03 02-Credo
DR9 -0.12 dB -11.12 dB 3:56 03-Incommunicado
DR8 0.00 dB -10.70 dB 4:12 04-Goldfish And Clowns
DR9 0.00 dB -12.12 dB 5:35 05-Long Cold Day
DR8 -0.17 dB -9.70 dB 3:58 06-Brother 52
DR9 0.00 dB -10.37 dB 7:03 07-Clock Moves Sideways
DR8 -0.17 dB -10.46 dB 8:37 08-The Perception Of Johnny Punter
DR7 0.00 dB -8.36 dB 5:47 09-Moving Targets
DR12 -4.99 dB -21.61 dB 3:12 10-Plague Of Ghosts - (I) Old Haunts
DR7 0.00 dB -8.01 dB 6:49 11-Plague Of Ghosts - (II) Digging Deep
DR8 -0.15 dB -9.81 dB 4:04 12-Plague Of Ghosts - (III) Chocolate Frogs
DR5 0.00 dB -6.68 dB 3:12 13-Plague Of Ghosts - (IV) Waving At Stars
DR8 0.00 dB -9.71 dB 4:16 14-Plague Of Ghosts - (V) Raingods Dancing
DR8 0.00 dB -11.31 dB 3:18 15-Plague Of Ghosts - (VI) Wake Up Call (Make It Happen)
––––––––––––––––––––––––––––––––––––––––

Number of tracks: 15
Official DR value: DR8

Samplerate: 44100 Hz
Channels: 2
Bits per sample: 16
Bitrate: 901 kbps
Codec: FLAC
================================================================================

Fish - Bouillabaisse: The Best Of Fish (2005) 2CDs [Re-Up]

Fish - Bouillabaisse: The Best Of Fish (2005) 2CDs [Re-Up]

All thanks to original releaser - yorrik90

More interesting music in My Blog