Tags
Language
Tags
June 2024
Su Mo Tu We Th Fr Sa
26 27 28 29 30 31 1
2 3 4 5 6 7 8
9 10 11 12 13 14 15
16 17 18 19 20 21 22
23 24 25 26 27 28 29
30 1 2 3 4 5 6

Flash And The Pan - Collection (1990) [Re-Up]

Posted By: Designol
Flash And The Pan - Collection (1990) [Re-Up]

Flash And The Pan - Collection (1990)
EAC | FLAC | Tracks (Cue&Log) ~ 435 Mb | Mp3 (CBR320) ~ 183 Mb | Scans included
New Wave, Contemporary Pop/Rock | Label: Epic | # EPC 466950 2 | Time: 01:05:29

The best-known alter ego of the Harry Vanda/George Young songwriting team (the creative force behind the Easybeats), Flash and the Pan began simply as a between-production project in 1976. By 1979, the project had turned out a novelty hit with the single "Hey St. Peter." A second single, "Down Among the Dead," also became a hit throughout Australia and Europe, inspiring the release of the album Flash and the Pan. American radio began playing import copies which led to a deal with Epic Records. The album would soon reach the Top 100 in the U.S. despite the lack of a supporting tour. They released two more albums with some minor success in the U.K., but failed to make much impact due to the part-time nature of the project.

Chris Woodstra, Allmusic.com

Obviously, "Hey St Peter" is here, as are the lesser (in America, anyway) singles "Yesterday's Gone" and "Down Among the Dead Men." Depending on your taste in new wave, these are the best tracks here, but Harry Vanda and George Young were professional songwriters, so there are also nuggets like "Media Man" and "Hey Jimmy," which sounds like Cake meeting Gary Wilson in a dark alley. Hits Collection will be essential for only the most ardent fan, if only because no one else will want to pay the steep import price. Another way to go would be the Renaissance reissue of the group's first two albums, Flash and the Pan/Lights in the Night. It includes most of their highlights, and will serve the casual listener well.

Review by Johnny Loftus, Allmusic.com

Flash And The Pan - Collection (1990) [Re-Up]



Tracklist:

01. Hey, St. Peter (04:23)
02. Yesterday's Gone (05:04)
03. Waiting For A Train (Single Mix) (03:44)
04. Walking In The Rain (03:29)
05. Something About You (03:27)
06. Media Man (Single Mix) (03:36)
07. Hey Jimmy (03:17)
08. Money Don't Lie (Single Mix) (04:06)
09. Down Among The Dead Man (04:49)
10. Early Morning Wake Up Call (04:09)
11. Restless (03:46)
12. Ayla (Single Mix) (04:29)
13. Where Were You (03:23)
14. Midnight Man (04:57)
15. Welcome To The Universe (Single Mix) (08:42)


Exact Audio Copy V1.0 beta 4 from 7. December 2014

EAC extraction logfile from 14. August 2015, 21:43

Flash And The Pan / Collection

Used drive : TSSTcorpCDDVDW SH-224DB Adapter: 1 ID: 0

Read mode : Secure
Utilize accurate stream : Yes
Defeat audio cache : Yes
Make use of C2 pointers : No

Read offset correction : 6
Overread into Lead-In and Lead-Out : No
Fill up missing offset samples with silence : Yes
Delete leading and trailing silent blocks : No
Null samples used in CRC calculations : Yes
Used interface : Native Win32 interface for Win NT & 2000
Gap handling : Appended to previous track

Used output format : User Defined Encoder
Selected bitrate : 896 kBit/s
Quality : High
Add ID3 tag : No
Command line compressor : C:\Program Files\Exact Audio Copy\Flac\flac.exe
Additional command line options : -6 -V -T "ARTIST=%artist%" -T "TITLE=%title%" -T "ALBUM=%albumtitle%" -T "DATE=%year%" -T "TRACKNUMBER=%tracknr%" -T "GENRE=%genre%" -T "COMMENT=%comment%" %source% -o %dest%


TOC of the extracted CD

Track | Start | Length | Start sector | End sector
––––––––––––––––––––––––––––-
1 | 0:00.00 | 4:23.67 | 0 | 19791
2 | 4:23.67 | 5:04.25 | 19792 | 42616
3 | 9:28.17 | 3:44.40 | 42617 | 59456
4 | 13:12.57 | 3:29.05 | 59457 | 75136
5 | 16:41.62 | 3:27.60 | 75137 | 90721
6 | 20:09.47 | 3:36.68 | 90722 | 106989
7 | 23:46.40 | 3:17.17 | 106990 | 121781
8 | 27:03.57 | 4:06.13 | 121782 | 140244
9 | 31:09.70 | 4:49.12 | 140245 | 161931
10 | 35:59.07 | 4:09.63 | 161932 | 180669
11 | 40:08.70 | 3:46.55 | 180670 | 197674
12 | 43:55.50 | 4:29.32 | 197675 | 217881
13 | 48:25.07 | 3:23.73 | 217882 | 233179
14 | 51:49.05 | 4:57.12 | 233180 | 255466
15 | 56:46.17 | 8:42.50 | 255467 | 294666


Track 1

Filename C:\New Folder\01 - Hey, St. Peter.wav

Pre-gap length 0:00:02.00

Peak level 97.7 %
Extraction speed 1.8 X
Track quality 100.0 %
Test CRC B51085EF
Copy CRC B51085EF
Accurately ripped (confidence 50) [7B1A2E1F] (AR v2)
Copy OK

Track 2

Filename C:\New Folder\02 - Yesterday's Gone.wav

Pre-gap length 0:00:01.62

Peak level 89.1 %
Extraction speed 2.1 X
Track quality 100.0 %
Test CRC 592DD3CF
Copy CRC 592DD3CF
Accurately ripped (confidence 49) [0138E06D] (AR v2)
Copy OK

Track 3

Filename C:\New Folder\03 - Waiting For A Train (Single Mix).wav

Pre-gap length 0:00:01.15

Peak level 91.4 %
Extraction speed 2.2 X
Track quality 100.0 %
Test CRC 56C89FA1
Copy CRC 56C89FA1
Accurately ripped (confidence 51) [F10D4D46] (AR v2)
Copy OK

Track 4

Filename C:\New Folder\04 - Walking In The Rain.wav

Peak level 80.1 %
Extraction speed 2.3 X
Track quality 100.0 %
Test CRC 69F9D93B
Copy CRC 69F9D93B
Accurately ripped (confidence 51) [14B52EFB] (AR v2)
Copy OK

Track 5

Filename C:\New Folder\05 - Something About You.wav

Pre-gap length 0:00:01.70

Peak level 92.8 %
Extraction speed 2.0 X
Track quality 99.9 %
Test CRC ECD33D89
Copy CRC ECD33D89
Accurately ripped (confidence 50) [D055D518] (AR v2)
Copy OK

Track 6

Filename C:\New Folder\06 - Media Man (Single Mix).wav

Pre-gap length 0:00:01.20

Peak level 96.0 %
Extraction speed 2.6 X
Track quality 100.0 %
Test CRC A39F065D
Copy CRC A39F065D
Accurately ripped (confidence 51) [8D23BDD3] (AR v2)
Copy OK

Track 7

Filename C:\New Folder\07 - Hey Jimmy.wav

Pre-gap length 0:00:01.43

Peak level 93.3 %
Extraction speed 2.1 X
Track quality 99.9 %
Test CRC BE1AE076
Copy CRC BE1AE076
Accurately ripped (confidence 48) [70253500] (AR v2)
Copy OK

Track 8

Filename C:\New Folder\08 - Money Don't Lie (Single Mix).wav

Pre-gap length 0:00:02.55

Peak level 95.5 %
Extraction speed 2.8 X
Track quality 100.0 %
Test CRC D31A30AE
Copy CRC D31A30AE
Accurately ripped (confidence 51) [842A4302] (AR v2)
Copy OK

Track 9

Filename C:\New Folder\09 - Down Among The Dead Man.wav

Pre-gap length 0:00:02.15

Peak level 99.4 %
Extraction speed 2.5 X
Track quality 99.9 %
Test CRC 3FD2AB99
Copy CRC 3FD2AB99
Accurately ripped (confidence 51) [809E08CA] (AR v2)
Copy OK

Track 10

Filename C:\New Folder\10 - Early Morning Wake Up Call.wav

Pre-gap length 0:00:01.60

Peak level 95.5 %
Extraction speed 3.1 X
Track quality 100.0 %
Test CRC D5A6BF47
Copy CRC D5A6BF47
Accurately ripped (confidence 51) [615DA471] (AR v2)
Copy OK

Track 11

Filename C:\New Folder\11 - Restless.wav

Pre-gap length 0:00:01.60

Peak level 91.7 %
Extraction speed 2.5 X
Track quality 99.9 %
Test CRC 582396D7
Copy CRC 582396D7
Accurately ripped (confidence 51) [894655B8] (AR v2)
Copy OK

Track 12

Filename C:\New Folder\12 - Ayla (Single Mix).wav

Pre-gap length 0:00:01.33

Peak level 95.7 %
Extraction speed 3.4 X
Track quality 100.0 %
Test CRC 98E0BDDA
Copy CRC 98E0BDDA
Accurately ripped (confidence 51) [C8E02CBD] (AR v2)
Copy OK

Track 13

Filename C:\New Folder\13 - Where Were You.wav

Pre-gap length 0:00:01.37

Peak level 79.4 %
Extraction speed 3.3 X
Track quality 100.0 %
Test CRC 27EDF7C9
Copy CRC 27EDF7C9
Accurately ripped (confidence 51) [054ACA85] (AR v2)
Copy OK

Track 14

Filename C:\New Folder\14 - Midnight Man.wav

Pre-gap length 0:00:01.30

Peak level 97.7 %
Extraction speed 2.9 X
Track quality 99.9 %
Test CRC E1B713ED
Copy CRC E1B713ED
Accurately ripped (confidence 51) [928CCA8D] (AR v2)
Copy OK

Track 15

Filename C:\New Folder\15 - Welcome To The Universe (Single Mix).wav

Pre-gap length 0:00:01.52

Peak level 91.8 %
Extraction speed 4.0 X
Track quality 100.0 %
Test CRC 90F1AB64
Copy CRC 90F1AB64
Accurately ripped (confidence 48) [C21888BA] (AR v2)
Copy OK


All tracks accurately ripped

No errors occurred

End of status report

–– CUETools DB Plugin V2.1.4

[CTDB TOCID: Yi4BiihkPQT4dit243U3uOZWA8M-] found
Submit result: Yi4BiihkPQT4dit243U3uOZWA8M- has been confirmed
Track | CTDB Status
1 | (83/84) Accurately ripped
2 | (82/84) Accurately ripped
3 | (83/84) Accurately ripped
4 | (83/84) Accurately ripped
5 | (84/84) Accurately ripped
6 | (83/84) Accurately ripped
7 | (84/84) Accurately ripped
8 | (83/84) Accurately ripped
9 | (82/84) Accurately ripped
10 | (83/84) Accurately ripped
11 | (83/84) Accurately ripped
12 | (82/84) Accurately ripped
13 | (82/84) Accurately ripped
14 | (82/84) Accurately ripped
15 | (79/84) Accurately ripped, or (2/84) differs in 178 samples @00:16:72


==== Log checksum DD9CE7A0B2B64F8FB034630BDBC2A19B98818D72971A7956178AED6150A73180 ====

foobar2000 1.2 / Dynamic Range Meter 1.1.1
log date: 2015-08-18 21:08:21

––––––––––––––––––––––––––––––––––––––––
Analyzed: Flash And The Pan / Collection
––––––––––––––––––––––––––––––––––––––––

DR Peak RMS Duration Track
––––––––––––––––––––––––––––––––––––––––
DR13 -0.20 dB -15.51 dB 4:24 01-Hey, St. Peter
DR13 -1.00 dB -16.23 dB 5:04 02-Yesterday's Gone
DR13 -0.78 dB -15.79 dB 3:45 03-Waiting For A Train (Single Mix)
DR12 -1.92 dB -15.69 dB 3:29 04-Walking In The Rain
DR14 -0.65 dB -17.01 dB 3:28 05-Something About You
DR12 -0.35 dB -14.86 dB 3:37 06-Media Man (Single Mix)
DR13 -0.60 dB -15.90 dB 3:17 07-Hey Jimmy
DR14 -0.40 dB -15.91 dB 4:06 08-Money Don't Lie (Single Mix)
DR12 -0.05 dB -14.63 dB 4:49 09-Down Among The Dead Man
DR12 -0.40 dB -13.95 dB 4:10 10-Early Morning Wake Up Call
DR11 -0.75 dB -13.81 dB 3:47 11-Restless
DR16 -0.38 dB -19.66 dB 4:29 12-Ayla (Single Mix)
DR11 -2.00 dB -14.97 dB 3:24 13-Where Were You
DR13 -0.20 dB -14.88 dB 4:57 14-Midnight Man
DR12 -0.74 dB -16.09 dB 8:43 15-Welcome To The Universe (Single Mix)
––––––––––––––––––––––––––––––––––––––––

Number of tracks: 15
Official DR value: DR13

Samplerate: 44100 Hz
Channels: 2
Bits per sample: 16
Bitrate: 892 kbps
Codec: FLAC
================================================================================

Flash And The Pan - Collection (1990) [Re-Up]

Flash And The Pan - Collection (1990) [Re-Up]

All thanks to original releaser - alekow

More interesting music in My Blog