Tags
Language
Tags

Florilegium - Fatale Flame: Music from 18th Century France: Montéclair, Morel, Naudot, Leclair, Rameau (2000)

Posted By: ArlegZ
Florilegium - Fatale Flame: Music from 18th Century France: Montéclair, Morel, Naudot, Leclair, Rameau (2000)

Florilegium - Fatale Flame: Music from 18th Century France: Montéclair, Morel, Naudot, Leclair, Rameau (2000)
EAC | FLAC | Image (Cue & Log) ~ 346 Mb | Total time: 63:48 | Scans included
Classical | Label: Channel Classics | # CCS 16898 | Recorded: 2000

While the music offered in this recording spans only thirty-two years, it best exemplifies the development of French musical style and taste in the eighteenth century. By the middle of the century the unification of both the Italian and French styles of music composition termed by Franois Couperin as les gots-runis had been realised. This disc of chamber music modestly charts the journey through this change from Montclair and Morel through Leclair and Naudot to Rameau.

Performer:
Florilegium

Track List:
Michel Pignolet de Montéclair (1667-1737)
Cantate Le Dèpit gènèreux Livre I No.IV
01. -
02. Air
03. Recitatif - Vivement
04. Tendre
05. Recitatif
06. Gaiement
Jacques Moral (c.1700-1740)
07. Chaconne in G major - Chaconne In G Major
Jacques-Christophe Naudot (c.1690 - 1762)
Caprice Op.VII in D major
08. Lentement-Lour-Vivement-Gracieusement-Legerement-Sarabande
09. Tambourin I & II
10. Menuet I & II
11. Chaconne
Jean-Marie Leclair (1697-1764)
Trio Sonata in D major Op.II no.VIII
12. Adagio
13. Allegro
14. Sarabanda
15. Allegro
Jean-Phillppe Rameau (1683-1764)
Pièces de clavecin en concerts Cinquième Concert
16. La Forqueray
17. La Cupis
18. La Marais
Michel Pignolet de Montéclair
Cantata La Bergère Livre III No.V
19. Tres Lentement
20. Recitatif
21. Lentement
22. Sommeil


Exact Audio Copy V1.3 from 2. September 2016

EAC extraction logfile from 19. May 2019, 20:29

Florilegium / Fatale Flame

Used drive : ASUS SDRW-08U7M-U Adapter: 1 ID: 0

Read mode : Secure
Utilize accurate stream : Yes
Defeat audio cache : Yes
Make use of C2 pointers : No

Read offset correction : 6
Overread into Lead-In and Lead-Out : No
Fill up missing offset samples with silence : Yes
Delete leading and trailing silent blocks : No
Null samples used in CRC calculations : Yes
Used interface : Native Win32 interface for Win NT & 2000

Used output format : User Defined Encoder
Selected bitrate : 128 kBit/s
Quality : High
Add ID3 tag : No
Command line compressor : C:\Program Files (x86)\Exact Audio Copy\Flac\flac.exe
Additional command line options : -V -8 -T "Date=%year%" -T "Genre=%genre%" %source%


TOC of the extracted CD

Track | Start | Length | Start sector | End sector
––––––––––––––––––––––––––––-
1 | 0:00.00 | 2:03.62 | 0 | 9286
2 | 2:03.62 | 3:49.03 | 9287 | 26464
3 | 5:52.65 | 1:03.47 | 26465 | 31236
4 | 6:56.37 | 3:13.28 | 31237 | 45739
5 | 10:09.65 | 0:51.55 | 45740 | 49619
6 | 11:01.45 | 3:43.32 | 49620 | 66376
7 | 14:45.02 | 6:11.30 | 66377 | 94231
8 | 20:56.32 | 3:37.03 | 94232 | 110509
9 | 24:33.35 | 1:17.25 | 110510 | 116309
10 | 25:50.60 | 2:32.17 | 116310 | 127726
11 | 28:23.02 | 2:15.15 | 127727 | 137866
12 | 30:38.17 | 1:53.15 | 137867 | 146356
13 | 32:31.32 | 2:10.15 | 146357 | 156121
14 | 34:41.47 | 3:34.50 | 156122 | 172221
15 | 38:16.22 | 2:52.15 | 172222 | 185136
16 | 41:08.37 | 4:45.60 | 185137 | 206571
17 | 45:54.22 | 6:05.73 | 206572 | 234019
18 | 52:00.20 | 2:49.05 | 234020 | 246699
19 | 54:49.25 | 2:20.05 | 246700 | 257204
20 | 57:09.30 | 0:55.40 | 257205 | 261369
21 | 58:04.70 | 1:47.67 | 261370 | 269461
22 | 59:52.62 | 3:26.55 | 269462 | 284966


Range status and errors

Selected range

Filename C:\temp\CCs 16898 - Fatale Flame - Florilegium - 2000\Fatale Flame.wav

Peak level 100.0 %
Extraction speed 4.8 X
Range quality 100.0 %
Test CRC D3CAAB79
Copy CRC D3CAAB79
Copy OK

No errors occurred


AccurateRip summary

Track 1 not present in database
Track 2 not present in database
Track 3 not present in database
Track 4 not present in database
Track 5 not present in database
Track 6 not present in database
Track 7 not present in database
Track 8 not present in database
Track 9 not present in database
Track 10 not present in database
Track 11 not present in database
Track 12 not present in database
Track 13 not present in database
Track 14 not present in database
Track 15 not present in database
Track 16 not present in database
Track 17 not present in database
Track 18 not present in database
Track 19 not present in database
Track 20 not present in database
Track 21 not present in database
Track 22 not present in database

None of the tracks are present in the AccurateRip database

End of status report

==== Log checksum 1D21F934BC1DA27CE4140B85CF6F90805E81F084E662AF6775B37EE4DC836F8D ====

Florilegium - Fatale Flame: Music from 18th Century France: Montéclair, Morel, Naudot, Leclair, Rameau (2000)

Thanks to the original releaser