Tags
Language
Tags

Food (Iain Ballamy, Arve Henriksen, Mats Eilertsen, Thomas Stronen) - Food (1999) [Re-Up]

Posted By: Designol
Food (Iain Ballamy, Arve Henriksen, Mats Eilertsen, Thomas Stronen) - Food (1999) [Re-Up]

Food (Iain Ballamy, Arve Henriksen, Mats Eilertsen, Thomas Strønen) - Food (1999)
EAC | FLAC | Image (Cue&Log) ~ 260 Mb | Mp3 (CBR320) ~ 123 Mb | Scans ~ 118 Mb
Contemporary Jazz, Free Improvisation, Avant-Garde | Label: Feral | # ASFA 101 | 00:51:23

There have been countless attempts to counteract the inherently boring nature of the CD as an artefact and the approach adopted by Feral shapes up better than some on the strength of this first release, which takes some excellent music by saxophonist Iain Ballamy (in the company of three young Norwegian musicians) and packages it with a set of intriguing print artworks by Dave McKean in an elegant library case. On the other hand, we may now be so accustomed to the blandness of the format that any attempt to escape it seems like a distraction. While debating this, it's important not to forget to play the disc, which is quite remarkable and a far cry from Ballamy's formative years in the sprawling bloke-jazz outfit Loose Tubes. Recorded live at the Molde Jazz Festival in 1998, it's astounding that this music seems to date from the very beginning of Ballamy's association with these musicians, given their obvious level of empathy. From the murky, almost amusical groans and splashes of the opening track to the spitfire neo-bop and loping freedom which emerges as the performance progresses, this captivating, intense music defies you to stop listening.

Review by Roger Thomas, Amazon.co.uk

Food at Allmusic
Food at Wiki

Personnel:
Iain Ballamy - saxophones
Arve Henriksen - trumpets, vocals, electronics
Mats Eilertsen - double bass
Thomas Strønen - drums, percussion

Recorded at the Molde International Jazz Festival, 1998

Tracklist:

01. Mister Train (03:39)
02. Restless (07:30)
03. Strange Burn (08:58)
04. Three Minute Snack (03:05)
05. Murring in Bann (05:30)
06. A (07:52)
07. Stille Veg (04:48)
08. My Old Engine (04:05)
09. Rat on Stilts III (04:01)
10. Mister Train (01:53)


Exact Audio Copy V1.0 beta 3 from 29. August 2011

Отчёт EAC об извлечении, выполненном 23. января 2016, 13:38

Iain Bellamy / Food

Дисковод: HL-DT-STDVDRWBD CT40N Adapter: 0 ID: 0

Режим чтения : Достоверность
Использование точного потока : Да
Отключение кэша аудио : Да
Использование указателей C2 : Нет

Коррекция смещения при чтении : 102
Способность читать области Lead-in и Lead-out : Нет
Заполнение пропущенных сэмплов тишиной : Да
Удаление блоков с тишиной в начале и конце : Нет
При вычислениях CRC использовались нулевые сэмплы : Да
Интерфейс : Встроенный Win32-интерфейс для Win NT/2000

Выходной формат : Внутренние WAV-операции
Формат сэмплов : 44.100 Гц; 16 бит; стерео


TOC извлечённого CD

Трек | Старт | Длительность | Начальный сектор | Конечный сектор
––––––––––––––––––––––––––––––––––-
1 | 0:00.00 | 3:39.00 | 0 | 16424
2 | 3:39.00 | 7:30.00 | 16425 | 50174
3 | 11:09.00 | 8:58.72 | 50175 | 90596
4 | 20:07.72 | 3:05.20 | 90597 | 104491
5 | 23:13.17 | 5:30.58 | 104492 | 129299
6 | 28:44.00 | 7:52.00 | 129300 | 164699
7 | 36:36.00 | 4:48.00 | 164700 | 186299
8 | 41:24.00 | 4:05.00 | 186300 | 204674
9 | 45:29.00 | 4:01.00 | 204675 | 222749
10 | 49:30.00 | 1:53.32 | 222750 | 231256


Характеристики диапазона извлечения и сообщения об ошибках

Выбранный диапазон

Имя файла C:\Users\Dell\Documents\Downloads\FOOD\Iain Bellamy - Food.wav

Пиковый уровень 94.4 %
Скорость извлечения 4.0 X
Качество диапазона 99.9 %
CRC копии 434B554D
Копирование… OK

Ошибок не произошло


AccurateRip: сводка

Трек 1 : извлечено точно (доверие 2) [312F5F6C] (AR v1)
Трек 2 : извлечено точно (доверие 2) [97B0E378] (AR v1)
Трек 3 : извлечено точно (доверие 2) [2A659318] (AR v1)
Трек 4 : извлечено точно (доверие 2) [C6E8786F] (AR v1)
Трек 5 : извлечено точно (доверие 2) [FFFFD555] (AR v1)
Трек 6 : извлечено точно (доверие 2) [512606BB] (AR v1)
Трек 7 : извлечено точно (доверие 2) [01959E86] (AR v1)
Трек 8 : извлечено точно (доверие 2) [99323630] (AR v1)
Трек 9 : извлечено точно (доверие 2) [FEC7A67C] (AR v1)
Трек 10 : извлечено точно (доверие 2) [A125AE8F] (AR v1)

Все треки извлечены точно

Конец отчёта

==== Контрольная сумма отчёта ACA76A834A2C622FCC7DD945B108B3F606A21B61CFA3CA7C1F53E909A1881B13 ====

foobar2000 1.2 / Dynamic Range Meter 1.1.1
log date: 2017-01-27 20:26:00

––––––––––––––––––––––––––––––––––––––––
Analyzed: Iain Ballamy / Food
––––––––––––––––––––––––––––––––––––––––

DR Peak RMS Duration Track
––––––––––––––––––––––––––––––––––––––––
DR15 -2.50 dB -22.28 dB 3:39 01-Mister Train
DR15 -0.50 dB -20.27 dB 7:30 02-Restless
DR13 -0.50 dB -17.78 dB 8:59 03-Strange Burn
DR15 -0.50 dB -20.04 dB 3:05 04-Three Minute Snack
DR18 -2.09 dB -25.97 dB 5:31 05-Murring in Bann
DR14 -0.50 dB -19.41 dB 7:52 06-A
DR13 -0.50 dB -18.45 dB 4:48 07-Stille Veg
DR12 -0.50 dB -14.99 dB 4:05 08-My Old Engine
DR10 -0.50 dB -14.66 dB 4:01 09-Rat on Stilts III
DR13 -4.12 dB -22.55 dB 1:53 10-Mister Train
––––––––––––––––––––––––––––––––––––––––

Number of tracks: 10
Official DR value: DR14

Samplerate: 44100 Hz
Channels: 2
Bits per sample: 16
Bitrate: 674 kbps
Codec: FLAC
================================================================================

Food (Iain Ballamy, Arve Henriksen, Mats Eilertsen, Thomas Stronen) - Food (1999) [Re-Up]

All thanks to original releaser - gold62

More interesting music in My Blog