Subcategories

Freddie Jackson - Here It Is (1994) {RCA}

Posted By: tiburon
Freddie Jackson - Here It Is (1994) {RCA}

Freddie Jackson - Here It Is (1994) {RCA}
EAC 1.0b1 | FLAC tracks level 8 | Cue+Log+M3u | Full Scans 300dpi | 354MB + 5% Recovery
MP3 CBR 320 Kbps | 124MB + 5% Recovery
Genre: Soul, Funk

After several years of R&B success but no crossover hits, vocalist Freddie Jackson left Capitol for RCA late in 1993. His RCA debut has several excellent performances, but unfortunately, there's no single standout cut. There are brilliantly sung numbers, ("Come Home II U," "I Love," "My Family") but there's no track that can stand alongside "Rock Me Tonight," "Nice And Slow" or any of a half-dozen other past Jackson hits. Jackson merits pop attention more than many others with a much larger profile.
Track List
01. Was It Something (5:14)
02. Come Home II U (5:47)
03. Here It Is (4:51)
04. How Does It Feel (4:36)
05. Giving My Love to You (4:48)
06. Paradise (4:50)
07. Make Love Easy (5:33)
08. Addictive 2 Touch (5:49)
09. I Love (5:13)
10. My Family (5:57)


Exact Audio Copy V1.0 beta 1 from 15. November 2010

EAC extraction logfile from 21. August 2012, 11:06

Freddie Jackson / Here It Is

Used drive : Optiarc DVD RW AD-7200A Adapter: 0 ID: 0

Read mode : Secure
Utilize accurate stream : Yes
Defeat audio cache : Yes
Make use of C2 pointers : No

Read offset correction : 48
Overread into Lead-In and Lead-Out : No
Fill up missing offset samples with silence : Yes
Delete leading and trailing silent blocks : No
Null samples used in CRC calculations : Yes
Used interface : Native Win32 interface for Win NT & 2000
Gap handling : Appended to previous track

Used output format : User Defined Encoder
Selected bitrate : 768 kBit/s
Quality : High
Add ID3 tag : No
Command line compressor : C:\Program Files\Exact Audio Copy\Flac\flac.exe
Additional command line options : -8 -V -T "ARTIST=%a" -T "TITLE=%t" -T "ALBUM=%g" -T "DATE=%y" -T "TRACKNUMBER=%n" -T "TOTALTRACKS=%x" -T "GENRE=%m" -T "ALBUMARTIST=%v" -T "ALBUM ARTIST=%v" -T "COMMENT=EAC Secure Mode, Test & Copy, AccurateRip, FLAC -8" %s


TOC of the extracted CD

Track | Start | Length | Start sector | End sector
––––––––––––––––––––––––––––-
1 | 0:00.00 | 5:14.25 | 0 | 23574
2 | 5:14.25 | 5:47.37 | 23575 | 49636
3 | 11:01.62 | 4:51.28 | 49637 | 71489
4 | 15:53.15 | 4:35.45 | 71490 | 92159
5 | 20:28.60 | 4:47.47 | 92160 | 113731
6 | 25:16.32 | 4:49.48 | 113732 | 135454
7 | 30:06.05 | 5:32.60 | 135455 | 160414
8 | 35:38.65 | 5:48.55 | 160415 | 186569
9 | 41:27.45 | 5:13.05 | 186570 | 210049
10 | 46:40.50 | 5:57.12 | 210050 | 236836


Track 1

Filename E:\Freddie Jackson - Here It Is (1994) [FLAC] {RCA, 07863 66318-2, USA, 1994}\01 - Was It Something.wav

Pre-gap length 0:00:02.00

Peak level 100.0 %
Extraction speed 2.4 X
Track quality 100.0 %
Test CRC 00143454
Copy CRC 00143454
Accurately ripped (confidence 2) [78616232]
Copy OK

Track 2

Filename E:\Freddie Jackson - Here It Is (1994) [FLAC] {RCA, 07863 66318-2, USA, 1994}\02 - Come Home II U.wav

Peak level 100.0 %
Extraction speed 2.9 X
Track quality 100.0 %
Test CRC 42ED7CA3
Copy CRC 42ED7CA3
Accurately ripped (confidence 2) [99615085]
Copy OK

Track 3

Filename E:\Freddie Jackson - Here It Is (1994) [FLAC] {RCA, 07863 66318-2, USA, 1994}\03 - Here It Is.wav

Peak level 99.9 %
Extraction speed 3.1 X
Track quality 100.0 %
Test CRC D5D21C54
Copy CRC D5D21C54
Cannot be verified as accurate (confidence 3) [D06C4FC2], AccurateRip returned [E2B7CBAB]
Copy OK

Track 4

Filename E:\Freddie Jackson - Here It Is (1994) [FLAC] {RCA, 07863 66318-2, USA, 1994}\04 - How Does It Feel.wav

Peak level 99.9 %
Extraction speed 2.9 X
Track quality 99.9 %
Test CRC 14C55ED6
Copy CRC 14C55ED6
Accurately ripped (confidence 2) [F8BA0D26]
Copy OK

Track 5

Filename E:\Freddie Jackson - Here It Is (1994) [FLAC] {RCA, 07863 66318-2, USA, 1994}\05 - Giving My Love to You.wav

Peak level 99.9 %
Extraction speed 3.6 X
Track quality 100.0 %
Test CRC 3897B18C
Copy CRC 3897B18C
Accurately ripped (confidence 2) [E6517874]
Copy OK

Track 6

Filename E:\Freddie Jackson - Here It Is (1994) [FLAC] {RCA, 07863 66318-2, USA, 1994}\06 - Paradise.wav

Peak level 99.9 %
Extraction speed 3.8 X
Track quality 100.0 %
Test CRC 73308D2A
Copy CRC 73308D2A
Accurately ripped (confidence 2) [7F70146E]
Copy OK

Track 7

Filename E:\Freddie Jackson - Here It Is (1994) [FLAC] {RCA, 07863 66318-2, USA, 1994}\07 - Make Love Easy.wav

Peak level 99.9 %
Extraction speed 4.1 X
Track quality 100.0 %
Test CRC D58C906B
Copy CRC D58C906B
Accurately ripped (confidence 2) [6428687F]
Copy OK

Track 8

Filename E:\Freddie Jackson - Here It Is (1994) [FLAC] {RCA, 07863 66318-2, USA, 1994}\08 - Addictive 2 Touch.wav

Pre-gap length 0:00:00.77

Peak level 100.0 %
Extraction speed 4.3 X
Track quality 100.0 %
Test CRC A9F95C59
Copy CRC A9F95C59
Accurately ripped (confidence 2) [1DAA20EA]
Copy OK

Track 9

Filename E:\Freddie Jackson - Here It Is (1994) [FLAC] {RCA, 07863 66318-2, USA, 1994}\09 - I Love.wav

Peak level 99.9 %
Extraction speed 4.4 X
Track quality 100.0 %
Test CRC D950B318
Copy CRC D950B318
Accurately ripped (confidence 2) [056C6813]
Copy OK

Track 10

Filename E:\Freddie Jackson - Here It Is (1994) [FLAC] {RCA, 07863 66318-2, USA, 1994}\10 - My Family.wav

Peak level 97.7 %
Extraction speed 4.7 X
Track quality 100.0 %
Test CRC 2FC012A0
Copy CRC 2FC012A0
Accurately ripped (confidence 2) [191263F9]
Copy OK


9 track(s) accurately ripped
1 track(s) could not be verified as accurate

Some tracks could not be verified as accurate

No errors occurred

End of status report

==== Log checksum 2855AB39E5975F6D82C2E86BA9533C0DB681E16B23B0BEA46341ACC1C2CA9FE0 ====

Freddie Jackson - Here It Is (1994) {RCA}
Freddie Jackson - Here It Is (1994) {RCA}


Thanks to the original ripper