Tags
Language
Tags

Front Line Assembly: Discograpy & Video. Part 01 (1987-1992)

Posted By: v3122
Front Line Assembly: Discograpy & Video. Part 01 (1987-1992)

Front Line Assembly: Discograpy & Video. Part 01 (1987-1992)
EAC | Flac(Image) + Cue + Log & MP3 CBR 320Kbps
15CD | Label: various | ~ 4275 or 1590 Mb | Artwork(jpg) -> 48 Mb
Electronic, Industrial, EBM

Front Line Assembly (FLA) is a Canadian electro-industrial band formed by Bill Leeb in 1986 after leaving Skinny Puppy. FLA has developed its own sound incorporating elements of electronic body music (EBM) and electro-industrial. The band's membership has rotated through the years, including Michael Balch, Rhys Fulber, and Chris Peterson, all of whom are associated with several other acts.

Since their inception, the group have produced over a dozen studio albums and EPs, several of which have charted on Billboard's Top Dance/Electronic Album chart. The albums Tactical Neural Implant and Hard Wired are two of the group's most successful records, the former being considered a classic among industrial music fans. They have also produced soundtracks for video games such as Quake III: Team Arena (a collaboration with Sonic Mayhem) and AirMech.

Over the years, the band's name has sometimes been published as "Front Line Assembly" and sometimes as "Frontline Assembly". The former spelling is the most common, and the band's members have stated that the version with three separate words is preferred…

~ wiki
Front Line Assembly: Discograpy & Video. Part 01 (1987-1992)

Front Line Assembly: Discograpy & Video. Part 01 (1987-1992):

Front Line Assembly: Discograpy & Video. Part 01 (1987-1992)

Tracklist CD01. 1987 - The Initial Command [KK, TMD9175]:

01. The State (06:16)
02. Insanity Lurks Nearby (06:04)
03. Casualties (04:47)
04. Ausgang Zum Himmel (07:14)
05. Nine Times (06:30)
06. Black March (06:03)
07. No Control (06:40)
08. Slaughter House (05:15)

Exact Audio Copy V1.0 beta 2 from 29. April 2011

EAC extraction logfile from 19. August 2011, 8:16

Front Line Assembly / The Initial Command

Used drive : LITE-ON DVDRW LH-20A1L Adapter: 5 ID: 0

Read mode : Secure
Utilize accurate stream : Yes
Defeat audio cache : Yes
Make use of C2 pointers : No

Read offset correction : 6
Overread into Lead-In and Lead-Out : No
Fill up missing offset samples with silence : Yes
Delete leading and trailing silent blocks : No
Null samples used in CRC calculations : Yes
Used interface : Installed external ASPI interface

Used output format : Internal WAV Routines
Sample format : 44.100 Hz; 16 Bit; Stereo


TOC of the extracted CD

Track | Start | Length | Start sector | End sector
––––––––––––––––––––––––––––-
1 | 0:00.00 | 6:17.32 | 0 | 28306
2 | 6:17.32 | 6:03.45 | 28307 | 55576
3 | 12:21.02 | 4:46.55 | 55577 | 77081
4 | 17:07.57 | 7:15.68 | 77082 | 109774
5 | 24:23.50 | 6:30.62 | 109775 | 139086
6 | 30:54.37 | 6:02.60 | 139087 | 166296
7 | 36:57.22 | 6:40.25 | 166297 | 196321
8 | 43:37.47 | 5:12.15 | 196322 | 219736


Range status and errors

Selected range

Filename Z:\data\mp3\Seeding Archive\Front Line Assembly\1987-The Initial Command\initialcommand.wav

Peak level 93.1 %
Extraction speed 7.5 X
Range quality 100.0 %
Test CRC 5BACE25F
Copy CRC 5BACE25F
Copy OK

No errors occurred


AccurateRip summary

Track 1 accurately ripped (confidence 7) [C69633B8] (AR v1)
Track 2 accurately ripped (confidence 7) [1968BCAB] (AR v1)
Track 3 accurately ripped (confidence 7) [0EA761B2] (AR v1)
Track 4 accurately ripped (confidence 7) [DCE00A1F] (AR v1)
Track 5 accurately ripped (confidence 7) [025CA1AF] (AR v1)
Track 6 accurately ripped (confidence 7) [AD680D39] (AR v1)
Track 7 accurately ripped (confidence 7) [18BDFA16] (AR v1)
Track 8 accurately ripped (confidence 7) [208E480E] (AR v1)

All tracks accurately ripped

End of status report


Front Line Assembly: Discograpy & Video. Part 01 (1987-1992)

Tracklist CD02. 1987 - The Initial Command [1997, Cleopatra CLP0062-2, RM]:

01. Complexity (07:41)
02. Intelligence Dream (06:14)
03. The State (06:23)
04. Insanity Lurks Nearby (06:03)
05. Casualties (04:48)
06. Ausgang Zum Himmel (07:14)
07. Nine Times (06:30)
08. Black March (06:04)
09. No Control (06:39)
10. Slaughterhouse (05:15)

Exact Audio Copy V1.0 beta 2 from 29. April 2011

EAC extraction logfile from 17. August 2011, 22:09

Front Line Assembly / The Initial Command [Remaster]

Used drive : PLEXTOR CD-R PX-240A Adapter: 1 ID: 0

Read mode : Secure
Utilize accurate stream : Yes
Defeat audio cache : Yes
Make use of C2 pointers : No

Read offset correction : 6
Overread into Lead-In and Lead-Out : No
Fill up missing offset samples with silence : Yes
Delete leading and trailing silent blocks : No
Null samples used in CRC calculations : Yes
Used interface : Installed external ASPI interface

Used output format : Internal WAV Routines
Sample format : 44.100 Hz; 16 Bit; Stereo


TOC of the extracted CD

Track | Start | Length | Start sector | End sector
––––––––––––––––––––––––––––-
1 | 0:00.50 | 7:48.10 | 50 | 35159
2 | 7:48.60 | 6:12.20 | 35160 | 63079
3 | 14:01.05 | 6:17.35 | 63080 | 91389
4 | 20:18.40 | 6:03.40 | 91390 | 118654
5 | 26:22.05 | 4:46.45 | 118655 | 140149
6 | 31:08.50 | 7:16.00 | 140150 | 172849
7 | 38:24.50 | 6:30.60 | 172850 | 202159
8 | 44:55.35 | 6:02.65 | 202160 | 229374
9 | 50:58.25 | 6:40.25 | 229375 | 259399
10 | 57:38.50 | 5:12.10 | 259400 | 282809


Range status and errors

Selected range

Filename Z:\data\mp3\Seeding Archive\Front Line Assembly\1987-The Initial Command [Cleopatra Reissue 1997]\initial.wav

Peak level 100.0 %
Extraction speed 7.9 X
Range quality 100.0 %
Test CRC 034E4F52
Copy CRC 034E4F52
Copy OK

No errors occurred


AccurateRip summary

Track 1 accurately ripped (confidence 9) [7AC0D1E4] (AR v1)
Track 2 accurately ripped (confidence 9) [B987C733] (AR v1)
Track 3 accurately ripped (confidence 8) [35859E43] (AR v1)
Track 4 accurately ripped (confidence 9) [59511B0F] (AR v1)
Track 5 accurately ripped (confidence 9) [C6E3931F] (AR v1)
Track 6 accurately ripped (confidence 9) [2EEB3FC8] (AR v1)
Track 7 accurately ripped (confidence 9) [3FBA7E71] (AR v1)
Track 8 accurately ripped (confidence 9) [09773DD6] (AR v1)
Track 9 accurately ripped (confidence 9) [803235B0] (AR v1)
Track 10 accurately ripped (confidence 6) [126E9963] (AR v1)

All tracks accurately ripped

End of status report


Front Line Assembly: Discograpy & Video. Part 01 (1987-1992)

Tracklist CD03. 1988 - Convergence [Wax Trax! WAXCD 048]:

01. Lurid Sensation (04:00)
02. Obsession (04:02)
03. Controversy (05:20)
04. Right Hand Of Heaven (05:49)
05. Conflict (05:59)
06. Solitude Of Confinement (06:35)
07. Body Count (04:15)
08. Die-Sect (04:43)
09. Headcase Fargone (04:28)
10. Collision (04:48)
11. Concussion (04:11)
12. On The Cross (05:50)
13. Dark Dreams (06:10)
14. Thewrack Part I (03:19)

Exact Audio Copy V1.0 beta 2 from 29. April 2011

EAC extraction logfile from 19. August 2011, 10:04

Front Line Assembly / Convergence

Used drive : PLEXTOR CD-R PX-240A Adapter: 1 ID: 0

Read mode : Secure
Utilize accurate stream : Yes
Defeat audio cache : Yes
Make use of C2 pointers : No

Read offset correction : 6
Overread into Lead-In and Lead-Out : No
Fill up missing offset samples with silence : Yes
Delete leading and trailing silent blocks : No
Null samples used in CRC calculations : Yes
Used interface : Installed external ASPI interface

Used output format : Internal WAV Routines
Sample format : 44.100 Hz; 16 Bit; Stereo


TOC of the extracted CD

Track | Start | Length | Start sector | End sector
––––––––––––––––––––––––––––-
1 | 0:00.33 | 4:00.00 | 33 | 18032
2 | 4:00.33 | 4:02.57 | 18033 | 36239
3 | 8:03.15 | 5:19.63 | 36240 | 60227
4 | 13:23.03 | 5:49.22 | 60228 | 86424
5 | 19:12.25 | 5:59.05 | 86425 | 113354
6 | 25:11.30 | 6:35.03 | 113355 | 142982
7 | 31:46.33 | 4:16.37 | 142983 | 162219
8 | 36:02.70 | 4:41.00 | 162220 | 183294
9 | 40:43.70 | 4:28.70 | 183295 | 203464
10 | 45:12.65 | 4:46.65 | 203465 | 224979
11 | 49:59.55 | 4:13.50 | 224980 | 244004
12 | 54:13.30 | 5:48.25 | 244005 | 270129
13 | 60:01.55 | 6:09.03 | 270130 | 297807
14 | 66:10.58 | 3:18.65 | 297808 | 312722


Range status and errors

Selected range

Filename Z:\data\mp3\Seeding Archive\Front Line Assembly\1988-Convergence\convergence.wav

Peak level 96.3 %
Extraction speed 8.7 X
Range quality 99.9 %
Test CRC 67E208AA
Copy CRC 67E208AA
Copy OK

No errors occurred


AccurateRip summary

Track 1 accurately ripped (confidence 2) [A89945A1] (AR v2)
Track 2 accurately ripped (confidence 2) [879AD044] (AR v2)
Track 3 accurately ripped (confidence 2) [C35B0CA0] (AR v2)
Track 4 accurately ripped (confidence 2) [7FBF091C] (AR v2)
Track 5 accurately ripped (confidence 2) [1283815C] (AR v2)
Track 6 accurately ripped (confidence 2) [C015E96F] (AR v2)
Track 7 accurately ripped (confidence 2) [76B1BB01] (AR v2)
Track 8 accurately ripped (confidence 2) [F7F0320B] (AR v2)
Track 9 accurately ripped (confidence 2) [81B82396] (AR v2)
Track 10 accurately ripped (confidence 2) [FB573B05] (AR v2)
Track 11 accurately ripped (confidence 2) [8BD805A5] (AR v2)
Track 12 accurately ripped (confidence 2) [34E2C865] (AR v2)
Track 13 accurately ripped (confidence 2) [7E13A9AE] (AR v2)
Track 14 accurately ripped (confidence 2) [EE66B870] (AR v2)

All tracks accurately ripped

End of status report


Front Line Assembly: Discograpy & Video. Part 01 (1987-1992)

Tracklist CD04. 1988 - State Of Mind [Third Mind, TMD9176]:

01. First Reprisal (05:21)
02. Consequence (05:39)
03. Burnt Soul (02:44)
04. Testimony (05:28)
05. Landslide (04:47)
06. Terminal Power (05:49)
07. Malignant Fracture (04:19)
08. Eastern Voices (05:30)
09. Resistance (04:09)
10. Sustain Upright (05:10)
11. No Tomorrow (04:48)
12. And They Shall Bow (04:34)

Exact Audio Copy V1.0 beta 1 from 15. November 2010

EAC extraction logfile from 7. February 2011, 23:39

Front Line Assembly / State Of Mind

Used drive : PLEXTOR CD-R PX-240A Adapter: 1 ID: 1

Read mode : Secure
Utilize accurate stream : Yes
Defeat audio cache : Yes
Make use of C2 pointers : No

Read offset correction : 6
Overread into Lead-In and Lead-Out : No
Fill up missing offset samples with silence : Yes
Delete leading and trailing silent blocks : No
Null samples used in CRC calculations : Yes
Used interface : Installed external ASPI interface

Used output format : Internal WAV Routines
Sample format : 44.100 Hz; 16 Bit; Stereo


TOC of the extracted CD

Track | Start | Length | Start sector | End sector
––––––––––––––––––––––––––––-
1 | 0:00.00 | 5:23.02 | 0 | 24226
2 | 5:23.02 | 5:38.03 | 24227 | 49579
3 | 11:01.05 | 2:44.70 | 49580 | 61949
4 | 13:46.00 | 5:28.15 | 61950 | 86564
5 | 19:14.15 | 4:46.10 | 86565 | 108024
6 | 24:00.25 | 5:50.30 | 108025 | 134304
7 | 29:50.55 | 4:18.50 | 134305 | 153704
8 | 34:09.30 | 5:29.45 | 153705 | 178424
9 | 39:39.00 | 4:10.37 | 178425 | 197211
10 | 43:49.37 | 5:08.70 | 197212 | 220381
11 | 48:58.32 | 4:48.45 | 220382 | 242026
12 | 53:47.02 | 4:31.00 | 242027 | 262351


Range status and errors

Selected range

Filename Z:\data\mp3\Seeding Archive\Front Line Assembly\1988-State Of Mind\state.wav

Peak level 97.6 %
Extraction speed 0.7 X
Range quality 100.0 %
Test CRC 82ADD455
Copy CRC 82ADD455
Copy OK

No errors occurred


AccurateRip summary

Track 1 accurately ripped (confidence 9) [5489C037]
Track 2 accurately ripped (confidence 9) [716777E9]
Track 3 accurately ripped (confidence 9) [32202A3A]
Track 4 accurately ripped (confidence 8) [E351D521]
Track 5 accurately ripped (confidence 8) [71B16025]
Track 6 accurately ripped (confidence 8) [E9A2BB2E]
Track 7 accurately ripped (confidence 9) [E51EE117]
Track 8 accurately ripped (confidence 9) [87C0A6BE]
Track 9 accurately ripped (confidence 9) [D7708292]
Track 10 accurately ripped (confidence 8) [FFEE62B5]
Track 11 accurately ripped (confidence 8) [F074663C]
Track 12 accurately ripped (confidence 7) [D244BDF7]

All tracks accurately ripped

End of status report


Front Line Assembly: Discograpy & Video. Part 01 (1987-1992)

Tracklist CD05. 1988 - State of Mind [1996, Cleopatra CLP 9735-2]:

01. Inside Out (04:17)
02. First Reprisal (05:22)
03. Consequence (05:39)
04. Burnt Soul (02:44)
05. Testimony (05:28)
06. Landslide (04:47)
07. Terminal Power (05:50)
08. Malignant Fracture (04:17)
09. Eastern Voices (05:28)
10. Resistance (04:09)
11. Sustain Upright (05:08)
12. No Tomorrow (04:47)
13. And They Shall Bow (04:33)

Exact Audio Copy V1.0 beta 2 from 29. April 2011

EAC extraction logfile from 18. August 2011, 23:37

Front Line Assembly / State of Mind [Reissue]

Used drive : PLEXTOR CD-R PX-240A Adapter: 1 ID: 0

Read mode : Secure
Utilize accurate stream : Yes
Defeat audio cache : Yes
Make use of C2 pointers : No

Read offset correction : 6
Overread into Lead-In and Lead-Out : No
Fill up missing offset samples with silence : Yes
Delete leading and trailing silent blocks : No
Null samples used in CRC calculations : Yes
Used interface : Installed external ASPI interface

Used output format : Internal WAV Routines
Sample format : 44.100 Hz; 16 Bit; Stereo


TOC of the extracted CD

Track | Start | Length | Start sector | End sector
––––––––––––––––––––––––––––-
1 | 0:00.50 | 4:16.70 | 50 | 19319
2 | 4:17.45 | 5:22.00 | 19320 | 43469
3 | 9:39.45 | 5:38.15 | 43470 | 68834
4 | 15:17.60 | 2:44.10 | 68835 | 81144
5 | 18:01.70 | 5:27.50 | 81145 | 105719
6 | 23:29.45 | 4:46.55 | 105720 | 127224
7 | 28:16.25 | 5:50.15 | 127225 | 153489
8 | 34:06.40 | 4:16.60 | 153490 | 172749
9 | 38:23.25 | 5:28.40 | 172750 | 197389
10 | 43:51.65 | 4:09.05 | 197390 | 216069
11 | 48:00.70 | 5:08.05 | 216070 | 239174
12 | 53:09.00 | 4:46.60 | 239175 | 260684
13 | 57:55.60 | 4:32.00 | 260685 | 281084


Range status and errors

Selected range

Filename Z:\data\mp3\Seeding Archive\Front Line Assembly\1988-State Of Mind [Cleopatra Reissue 1996]\stateofmind.wav

Peak level 100.0 %
Extraction speed 8.7 X
Range quality 100.0 %
Test CRC ED5C82F8
Copy CRC ED5C82F8
Copy OK

No errors occurred


AccurateRip summary

Track 1 accurately ripped (confidence 19) [C5D0FFCF] (AR v1)
Track 2 accurately ripped (confidence 19) [5C4EAB0B] (AR v1)
Track 3 accurately ripped (confidence 18) [4B0EA0CB] (AR v1)
Track 4 accurately ripped (confidence 18) [8318EC42] (AR v1)
Track 5 accurately ripped (confidence 18) [5EFA7171] (AR v1)
Track 6 accurately ripped (confidence 18) [E8D1757B] (AR v1)
Track 7 accurately ripped (confidence 18) [1A242A1F] (AR v1)
Track 8 accurately ripped (confidence 18) [2559F3AE] (AR v1)
Track 9 accurately ripped (confidence 18) [A197A54C] (AR v1)
Track 10 accurately ripped (confidence 18) [FDE4DD25] (AR v1)
Track 11 accurately ripped (confidence 18) [3A329185] (AR v1)
Track 12 accurately ripped (confidence 18) [862B3466] (AR v1)
Track 13 accurately ripped (confidence 18) [7DAE1034] (AR v1)

All tracks accurately ripped

End of status report


Front Line Assembly: Discograpy & Video. Part 01 (1987-1992)

Tracklist CD06. 1989 - Digital Tension Dementia [Wax Trax! WAXCD 060]:

01. Digital Tension Dementia (07:13)
02. Vexation (08:26)
03. Big Money (04:22)

Exact Audio Copy V1.0 beta 2 from 29. April 2011

EAC extraction logfile from 19. August 2011, 11:14

Front Line Assembly / Digital Tension Dementia

Used drive : LITE-ON DVDRW LH-20A1L Adapter: 5 ID: 0

Read mode : Secure
Utilize accurate stream : Yes
Defeat audio cache : Yes
Make use of C2 pointers : No

Read offset correction : 6
Overread into Lead-In and Lead-Out : No
Fill up missing offset samples with silence : Yes
Delete leading and trailing silent blocks : No
Null samples used in CRC calculations : Yes
Used interface : Installed external ASPI interface

Used output format : Internal WAV Routines
Sample format : 44.100 Hz; 16 Bit; Stereo


TOC of the extracted CD

Track | Start | Length | Start sector | End sector
––––––––––––––––––––––––––––-
1 | 0:00.00 | 7:13.62 | 0 | 32536
2 | 7:13.62 | 8:25.65 | 32537 | 70476
3 | 15:39.52 | 4:21.05 | 70477 | 90056


Range status and errors

Selected range

Filename Z:\data\mp3\Seeding Archive\Front Line Assembly\1989-Digital Tension Dementia\dementia.wav

Peak level 100.0 %
Extraction speed 2.3 X
Range quality 100.0 %
Test CRC DCC5628D
Copy CRC DCC5628D
Copy OK

No errors occurred


AccurateRip summary

Track 1 accurately ripped (confidence 10) [6651F9EE] (AR v1)
Track 2 accurately ripped (confidence 9) [31D7EA7B] (AR v1)
Track 3 accurately ripped (confidence 10) [A2C69904] (AR v1)

All tracks accurately ripped

End of status report


Front Line Assembly: Discograpy & Video. Part 01 (1987-1992)

Tracklist CD07. 1989 - Gashed Senses & Crossfire [Roadrunner RR 9115-2]:

01. No Limit (04:55)
02. Antisocial (04:33)
03. Hypocrisy (03:49)
04. Shutdown (05:27)
05. Prayer (03:33)
06. Digital Tension Dementia (04:51)
07. Big Money (04:15)
08. Bloodsport (05:57)
09. Foolsgame (03:39)
10. Sedation (03:58)

Exact Audio Copy V1.0 beta 2 from 29. April 2011

EAC extraction logfile from 19. August 2011, 7:59

Front Line Assembly / Gashed Senses & Crossfire

Used drive : LITE-ON DVDRW LH-20A1L Adapter: 5 ID: 0

Read mode : Secure
Utilize accurate stream : Yes
Defeat audio cache : Yes
Make use of C2 pointers : No

Read offset correction : 6
Overread into Lead-In and Lead-Out : No
Fill up missing offset samples with silence : Yes
Delete leading and trailing silent blocks : No
Null samples used in CRC calculations : Yes
Used interface : Installed external ASPI interface

Used output format : Internal WAV Routines
Sample format : 44.100 Hz; 16 Bit; Stereo


TOC of the extracted CD

Track | Start | Length | Start sector | End sector
––––––––––––––––––––––––––––-
1 | 0:00.00 | 4:54.67 | 0 | 22116
2 | 4:54.67 | 4:33.03 | 22117 | 42594
3 | 9:27.70 | 3:49.25 | 42595 | 59794
4 | 13:17.20 | 5:28.55 | 59795 | 84449
5 | 18:46.00 | 3:34.15 | 84450 | 100514
6 | 22:20.15 | 4:47.70 | 100515 | 122109
7 | 27:08.10 | 4:15.32 | 122110 | 141266
8 | 31:23.42 | 5:56.70 | 141267 | 168036
9 | 37:20.37 | 3:38.63 | 168037 | 184449
10 | 40:59.25 | 3:58.25 | 184450 | 202324


Range status and errors

Selected range

Filename Z:\data\mp3\Seeding Archive\Front Line Assembly\1989-Gashed Senses And Crossfire\gashed.wav

Peak level 100.0 %
Extraction speed 7.4 X
Range quality 100.0 %
Test CRC 1B4EE581
Copy CRC 1B4EE581
Copy OK

No errors occurred


AccurateRip summary

Track 1 accurately ripped (confidence 1) [052891DD] (AR v1)
Track 2 accurately ripped (confidence 1) [C85C7FBC] (AR v1)
Track 3 accurately ripped (confidence 1) [0F62F932] (AR v1)
Track 4 accurately ripped (confidence 1) [C4FE595E] (AR v1)
Track 5 accurately ripped (confidence 1) [06E413A4] (AR v1)
Track 6 accurately ripped (confidence 1) [78137AB4] (AR v1)
Track 7 accurately ripped (confidence 1) [7A1D06B2] (AR v1)
Track 8 accurately ripped (confidence 1) [88F47457] (AR v1)
Track 9 accurately ripped (confidence 1) [00D82335] (AR v1)
Track 10 accurately ripped (confidence 1) [1676B653] (AR v1)

All tracks accurately ripped

End of status report


Front Line Assembly: Discograpy & Video. Part 01 (1987-1992)

Tracklist CD08. 1989 - No Limit [Wax Trax! WAXCD 9087]:

01. No Limit (Damaged Goods Remix) (07:39)
02. Lethal Compound (Harmful If Swallowed Remix) (11:14)
03. No Limit (Spontaneous Combustion Mix) (05:31)

Exact Audio Copy V1.0 beta 2 from 29. April 2011

EAC extraction logfile from 19. August 2011, 8:16

Front Line Assembly / No Limit

Used drive : PLEXTOR DVDR PX-760A Adapter: 1 ID: 1

Read mode : Secure
Utilize accurate stream : Yes
Defeat audio cache : Yes
Make use of C2 pointers : No

Read offset correction : 30
Overread into Lead-In and Lead-Out : No
Fill up missing offset samples with silence : Yes
Delete leading and trailing silent blocks : No
Null samples used in CRC calculations : Yes
Used interface : Installed external ASPI interface

Used output format : Internal WAV Routines
Sample format : 44.100 Hz; 16 Bit; Stereo


TOC of the extracted CD

Track | Start | Length | Start sector | End sector
––––––––––––––––––––––––––––-
1 | 0:00.00 | 7:41.07 | 0 | 34581
2 | 7:41.07 | 11:14.48 | 34582 | 85179
3 | 18:55.55 | 5:29.07 | 85180 | 109861


Range status and errors

Selected range

Filename Z:\data\mp3\Seeding Archive\Front Line Assembly\1989-No Limit\nolimit.wav

Peak level 100.0 %
Extraction speed 6.3 X
Range quality 100.0 %
Test CRC 3137F91C
Copy CRC 3137F91C
Copy OK

No errors occurred


AccurateRip summary

Track 1 accurately ripped (confidence 8) [F1C7FE18] (AR v1)
Track 2 accurately ripped (confidence 8) [3C4CA2BD] (AR v1)
Track 3 accurately ripped (confidence 8) [958D1C94] (AR v1)

All tracks accurately ripped

End of status report


Front Line Assembly: Discograpy & Video. Part 01 (1987-1992)

Tracklist CD09. 1990 - Caustic Grip [Wax Trax! _ TVT, TVT 7146]:

01. Resist (05:27)
02. Victim (05:07)
03. Overkill (05:25)
04. Forge (04:22)
05. Provision (06:11)
06. Force Fed (04:42)
07. Iceolate (05:17)
08. Threshold (05:13)
09. Mental Distortion (06:52)
10. The Chair (03:30)

Exact Audio Copy V1.0 beta 2 from 29. April 2011

EAC extraction logfile from 19. August 2011, 7:59

Front Line Assembly / Caustic Grip

Used drive : PLEXTOR CD-R PX-240A Adapter: 1 ID: 0

Read mode : Secure
Utilize accurate stream : Yes
Defeat audio cache : Yes
Make use of C2 pointers : No

Read offset correction : 6
Overread into Lead-In and Lead-Out : No
Fill up missing offset samples with silence : Yes
Delete leading and trailing silent blocks : No
Null samples used in CRC calculations : Yes
Used interface : Installed external ASPI interface

Used output format : Internal WAV Routines
Sample format : 44.100 Hz; 16 Bit; Stereo


TOC of the extracted CD

Track | Start | Length | Start sector | End sector
––––––––––––––––––––––––––––-
1 | 0:00.33 | 5:26.12 | 33 | 24494
2 | 5:26.45 | 5:07.08 | 24495 | 47527
3 | 10:33.53 | 5:25.15 | 47528 | 71917
4 | 15:58.68 | 4:22.00 | 71918 | 91567
5 | 20:20.68 | 6:11.07 | 91568 | 119399
6 | 26:32.00 | 4:42.48 | 119400 | 140597
7 | 31:14.48 | 5:16.17 | 140598 | 164314
8 | 36:30.65 | 5:14.30 | 164315 | 187894
9 | 41:45.20 | 6:52.03 | 187895 | 218797
10 | 48:37.23 | 3:29.05 | 218798 | 234477


Range status and errors

Selected range

Filename Z:\data\mp3\Seeding Archive\Front Line Assembly\1990-Caustic Grip\causticgrip.wav

Peak level 100.0 %
Extraction speed 6.9 X
Range quality 100.0 %
Test CRC A99A688E
Copy CRC A99A688E
Copy OK

No errors occurred


AccurateRip summary

Track 1 accurately ripped (confidence 5) [DA1D10DD] (AR v1)
Track 2 accurately ripped (confidence 5) [A4475802] (AR v1)
Track 3 accurately ripped (confidence 5) [4591E80F] (AR v1)
Track 4 accurately ripped (confidence 5) [9C5E43D7] (AR v1)
Track 5 accurately ripped (confidence 5) [34997C7D] (AR v1)
Track 6 accurately ripped (confidence 5) [2580ABEC] (AR v1)
Track 7 accurately ripped (confidence 5) [AF64D7A2] (AR v1)
Track 8 accurately ripped (confidence 6) [331034F7] (AR v1)
Track 9 accurately ripped (confidence 5) [AF8FD54A] (AR v1)
Track 10 accurately ripped (confidence 5) [A90394D7] (AR v1)

All tracks accurately ripped

End of status report


Front Line Assembly: Discograpy & Video. Part 01 (1987-1992)

Tracklist CD10. 1990 - Iceolate [Wax Trax! WAXCDS 9137]:

01. Iceolate (06:31)
02. Mental Distortion (06:55)
03. Iceolate (Dub Mix) (04:59)

Exact Audio Copy V1.0 beta 2 from 29. April 2011

EAC extraction logfile from 19. August 2011, 18:47

Front Line Assembly / Iceolate

Used drive : PLEXTOR DVDR PX-760A Adapter: 1 ID: 1

Read mode : Secure
Utilize accurate stream : Yes
Defeat audio cache : Yes
Make use of C2 pointers : No

Read offset correction : 30
Overread into Lead-In and Lead-Out : No
Fill up missing offset samples with silence : Yes
Delete leading and trailing silent blocks : No
Null samples used in CRC calculations : Yes
Used interface : Installed external ASPI interface

Used output format : Internal WAV Routines
Sample format : 44.100 Hz; 16 Bit; Stereo


TOC of the extracted CD

Track | Start | Length | Start sector | End sector
––––––––––––––––––––––––––––-
1 | 0:00.32 | 6:34.23 | 32 | 29604
2 | 6:34.55 | 6:51.47 | 29605 | 60476
3 | 13:26.27 | 4:58.38 | 60477 | 82864


Range status and errors

Selected range

Filename Z:\data\mp3\Seeding Archive\Front Line Assembly\1990-Iceolate\iceolate.wav

Peak level 100.0 %
Extraction speed 5.8 X
Range quality 99.9 %
Test CRC 05DE19E2
Copy CRC 05DE19E2
Copy OK

No errors occurred


AccurateRip summary

Track 1 accurately ripped (confidence 6) [2C82EBBE] (AR v1)
Track 2 accurately ripped (confidence 6) [79F51767] (AR v1)
Track 3 accurately ripped (confidence 6) [F67B3C86] (AR v1)

All tracks accurately ripped

End of status report


Front Line Assembly: Discograpy & Video. Part 01 (1987-1992)

Tracklist CD11. 1990 - Provision [Third Mind TMSCD 57]:

01. Provision (06:30)
02. Overkill (Surge Mix) (06:39)

Exact Audio Copy V1.0 beta 2 from 29. April 2011

EAC extraction logfile from 19. August 2011, 0:42

Front Line Assembly / Provision

Used drive : PLEXTOR DVDR PX-760A Adapter: 1 ID: 1

Read mode : Secure
Utilize accurate stream : Yes
Defeat audio cache : Yes
Make use of C2 pointers : No

Read offset correction : 30
Overread into Lead-In and Lead-Out : No
Fill up missing offset samples with silence : Yes
Delete leading and trailing silent blocks : No
Null samples used in CRC calculations : Yes
Used interface : Installed external ASPI interface

Used output format : Internal WAV Routines
Sample format : 44.100 Hz; 16 Bit; Stereo


TOC of the extracted CD

Track | Start | Length | Start sector | End sector
––––––––––––––––––––––––––––-
1 | 0:00.00 | 6:32.27 | 0 | 29426
2 | 6:32.27 | 6:36.13 | 29427 | 59139


Range status and errors

Selected range

Filename Z:\data\mp3\Seeding Archive\Front Line Assembly\1990-Provision\provision.wav

Peak level 98.8 %
Extraction speed 5.6 X
Range quality 99.9 %
Test CRC 78370EC5
Copy CRC 78370EC5
Copy OK

No errors occurred


AccurateRip summary

Track 1 accurately ripped (confidence 3) [E1BF99F4] (AR v1)
Track 2 accurately ripped (confidence 3) [13EC4043] (AR v1)

All tracks accurately ripped

End of status report


Front Line Assembly: Discograpy & Video. Part 01 (1987-1992)

Tracklist CD12. 1991 - Virus [Wax Trax! _ TVT, TVT 8647]:

01. Virus (05:48)
02. Virus (Aggro Mix) (05:37)
03. Resist (Dislocated Mix) (05:33)

Exact Audio Copy V1.0 beta 2 from 29. April 2011

EAC extraction logfile from 19. August 2011, 18:47

Front Line Assembly / Virus

Used drive : PLEXTOR CD-R PX-240A Adapter: 1 ID: 0

Read mode : Secure
Utilize accurate stream : Yes
Defeat audio cache : Yes
Make use of C2 pointers : No

Read offset correction : 6
Overread into Lead-In and Lead-Out : No
Fill up missing offset samples with silence : Yes
Delete leading and trailing silent blocks : No
Null samples used in CRC calculations : Yes
Used interface : Installed external ASPI interface

Used output format : Internal WAV Routines
Sample format : 44.100 Hz; 16 Bit; Stereo


TOC of the extracted CD

Track | Start | Length | Start sector | End sector
––––––––––––––––––––––––––––-
1 | 0:00.32 | 5:50.13 | 32 | 26294
2 | 5:50.45 | 5:37.20 | 26295 | 51589
3 | 11:27.65 | 5:29.47 | 51590 | 76311


Range status and errors

Selected range

Filename Z:\data\mp3\Seeding Archive\Front Line Assembly\1991-Virus\virus.wav

Peak level 100.0 %
Extraction speed 5.7 X
Range quality 100.0 %
Test CRC AD9CF768
Copy CRC AD9CF768
Copy OK

No errors occurred


AccurateRip summary

Track 1 accurately ripped (confidence 3) [EE5C46BC] (AR v1)
Track 2 accurately ripped (confidence 3) [F40B3785] (AR v1)
Track 3 accurately ripped (confidence 3) [0E5E4E5B] (AR v1)

All tracks accurately ripped

End of status report


Front Line Assembly: Discograpy & Video. Part 01 (1987-1992)

Tracklist CD13. 1992 - Mindphaser [Third Mind TMD 2402]:

01. Mindphaser (12' Version) (06:43)
02. Mindphaser (Edited Version) (04:29)
03. Toxic (06:06)
04. Mutilate (05:45)

Exact Audio Copy V1.0 beta 2 from 29. April 2011

EAC extraction logfile from 19. August 2011, 0:35

Front Line Assembly / Mindphaser

Used drive : PLEXTOR DVDR PX-760A Adapter: 1 ID: 1

Read mode : Secure
Utilize accurate stream : Yes
Defeat audio cache : Yes
Make use of C2 pointers : No

Read offset correction : 30
Overread into Lead-In and Lead-Out : No
Fill up missing offset samples with silence : Yes
Delete leading and trailing silent blocks : No
Null samples used in CRC calculations : Yes
Used interface : Installed external ASPI interface

Used output format : Internal WAV Routines
Sample format : 44.100 Hz; 16 Bit; Stereo


TOC of the extracted CD

Track | Start | Length | Start sector | End sector
––––––––––––––––––––––––––––-
1 | 0:00.00 | 6:47.05 | 0 | 30529
2 | 6:47.05 | 4:28.42 | 30530 | 50671
3 | 11:15.47 | 6:04.60 | 50672 | 78031
4 | 17:20.32 | 5:43.45 | 78032 | 103801


Range status and errors

Selected range

Filename Z:\data\mp3\Seeding Archive\Front Line Assembly\1992-Mindphaser\mindphaser.wav

Peak level 94.0 %
Extraction speed 5.7 X
Range quality 100.0 %
Test CRC 481E1AFB
Copy CRC 481E1AFB
Copy OK

No errors occurred


AccurateRip summary

Track 1 accurately ripped (confidence 5) [A98861CC] (AR v1)
Track 2 accurately ripped (confidence 5) [028E086A] (AR v1)
Track 3 accurately ripped (confidence 5) [8E19E3D1] (AR v1)
Track 4 accurately ripped (confidence 5) [072DFD6E] (AR v1)

All tracks accurately ripped

End of status report


Front Line Assembly: Discograpy & Video. Part 01 (1987-1992)

Tracklist CD14. 1992 - Tactical Neural Implant [Third Mind TM 9188-2]:

01. Final Impact (06:03)
02. The Blade (05:51)
03. Mindphaser (05:03)
04. Remorse (05:45)
05. Bio-Mechanic (05:27)
06. Outcast (05:23)
07. Gun (06:20)
08. Lifeline (05:11)

Exact Audio Copy V1.0 beta 2 from 29. April 2011

EAC extraction logfile from 17. August 2011, 20:08

Front Line Assembly / Tactical Neural Implant

Used drive : PLEXTOR CD-R PX-240A Adapter: 1 ID: 0

Read mode : Secure
Utilize accurate stream : Yes
Defeat audio cache : Yes
Make use of C2 pointers : No

Read offset correction : 6
Overread into Lead-In and Lead-Out : No
Fill up missing offset samples with silence : Yes
Delete leading and trailing silent blocks : No
Null samples used in CRC calculations : Yes
Used interface : Installed external ASPI interface

Used output format : Internal WAV Routines
Sample format : 44.100 Hz; 16 Bit; Stereo


TOC of the extracted CD

Track | Start | Length | Start sector | End sector
––––––––––––––––––––––––––––-
1 | 0:00.33 | 6:03.45 | 33 | 27302
2 | 6:04.03 | 5:50.57 | 27303 | 53609
3 | 11:54.60 | 5:04.03 | 53610 | 76412
4 | 16:58.63 | 5:46.37 | 76413 | 102399
5 | 22:45.25 | 5:26.08 | 102400 | 126857
6 | 28:11.33 | 5:22.27 | 126858 | 151034
7 | 33:33.60 | 6:22.25 | 151035 | 179709
8 | 39:56.10 | 5:08.23 | 179710 | 202832


Range status and errors

Selected range

Filename Z:\data\mp3\Seeding Archive\Front Line Assembly\1992-Tactical Neural Implant\tactical.wav

Peak level 90.2 %
Extraction speed 3.2 X
Range quality 99.9 %
Test CRC B0A9FCFD
Copy CRC B0A9FCFD
Copy OK

No errors occurred


AccurateRip summary

Track 1 accurately ripped (confidence 3) [A3A15EA1] (AR v2)
Track 2 accurately ripped (confidence 3) [66EBB4BA] (AR v2)
Track 3 accurately ripped (confidence 3) [487C8144] (AR v2)
Track 4 accurately ripped (confidence 3) [46C49946] (AR v2)
Track 5 accurately ripped (confidence 4) [593DF69D] (AR v2)
Track 6 accurately ripped (confidence 3) [F1DE9465] (AR v2)
Track 7 accurately ripped (confidence 3) [219B57D9] (AR v2)
Track 8 accurately ripped (confidence 3) [DAA2C0E1] (AR v2)

All tracks accurately ripped

End of status report


Front Line Assembly: Discograpy & Video. Part 01 (1987-1992)

Tracklist CD15. 1992 - The Blade [Third Mind TM 9119-2, Germany]:

01. The Blade (Technohead) (06:36)
02. Re-animate (05:47)
03. Target (04:54)
04. The Blade (Worldwide Mix) (06:26)
05. The Blade (Pro-Gress Mix) (06:25)
06. Heatwave (05:24)
07. Laughing Pain (05:48)
08. The Blade (Blindfold) (06:35)

Exact Audio Copy V1.0 beta 2 from 29. April 2011

EAC extraction logfile from 19. August 2011, 0:34

Front Line Assembly / The Blade

Used drive : PLEXTOR CD-R PX-240A Adapter: 1 ID: 0

Read mode : Secure
Utilize accurate stream : Yes
Defeat audio cache : Yes
Make use of C2 pointers : No

Read offset correction : 6
Overread into Lead-In and Lead-Out : No
Fill up missing offset samples with silence : Yes
Delete leading and trailing silent blocks : No
Null samples used in CRC calculations : Yes
Used interface : Installed external ASPI interface

Used output format : Internal WAV Routines
Sample format : 44.100 Hz; 16 Bit; Stereo


TOC of the extracted CD

Track | Start | Length | Start sector | End sector
––––––––––––––––––––––––––––-
1 | 0:00.00 | 6:37.57 | 0 | 29831
2 | 6:37.57 | 5:46.30 | 29832 | 55811
3 | 12:24.12 | 4:52.25 | 55812 | 77736
4 | 17:16.37 | 6:27.45 | 77737 | 106806
5 | 23:44.07 | 6:25.08 | 106807 | 135689
6 | 30:09.15 | 5:24.10 | 135690 | 159999
7 | 35:33.25 | 5:45.67 | 160000 | 185941
8 | 41:19.17 | 6:35.28 | 185942 | 215594


Range status and errors

Selected range

Filename Z:\data\mp3\Seeding Archive\Front Line Assembly\1992-The Blade [EP]\blade.wav

Peak level 100.0 %
Extraction speed 7.7 X
Range quality 100.0 %
Test CRC 16CD81E4
Copy CRC 16CD81E4
Copy OK

No errors occurred


AccurateRip summary

Track 1 accurately ripped (confidence 14) [E7C8A230] (AR v1)
Track 2 accurately ripped (confidence 15) [AEB98398] (AR v1)
Track 3 accurately ripped (confidence 15) [61300248] (AR v1)
Track 4 accurately ripped (confidence 14) [1CEFACA2] (AR v1)
Track 5 accurately ripped (confidence 14) [CB28CB20] (AR v1)
Track 6 accurately ripped (confidence 15) [80194978] (AR v1)
Track 7 accurately ripped (confidence 15) [A74D21D3] (AR v1)
Track 8 accurately ripped (confidence 13) [F094D50A] (AR v1)

All tracks accurately ripped

End of status report


All thanks go to the original releasers

Front Line Assembly in my Blog

Download Front Line Assembly: Discograpy & Video. Part 01 (1987-1992):