Subcategories

Gabor Szabo - Femme Fatale (1981) {Mambo Records}

Posted By: tiburon
Gabor Szabo - Femme Fatale (1981) {Mambo Records}

Gabor Szabo - Femme Fatale (1981) {Mambo Records}
EAC 1.1 | FLAC tracks level 8 | Cue+Log+M3U | Full Scans 600dpi | 266MB + 5% Recovery
MP3 CBR 320 Kbps | 144MB + 5% Recovery
Genre: Fusion
Gabor Szabo - Femme Fatale (1981) {Mambo Records}

Released in 1981 on a small Hungarian label, this 1978 session recorded in Hollywood is the guitarist's final record. "Out of the Night" interestingly pairs him with pianist Chick Corea. But the remainder of the record is a standard late-'70s fusion date without Corea, highlighted by the Return to Forever intrigue of "A Thousand Times."
Track List
01. Femme Fatale (Gabor Szabo)
02. Zingaro (A. C. Jobim)
03. Serena (James Harrah)
04. A Thousand Times (Gabor Szabo)
05. Out Of The Night (Gabor Szabo)

musicians
Gábor Szabó - guitar
Chick Corea - piano (track 5)
Leon Bisquera - keyboards
James Harrah - guitar
Abraham Laboriel - bass
David Roney - electric bass
Hugh Moran - drums
Everette Bryson - percussion
Gary Grant, Jerry Hey - trumpet, flugelhorn
William Reichenbach - trombone
Kim Hutchcroft, Larry Williams - reeds
Lawrence Sonderling, Bobby Dubow, Ken Yerke, John Wittenberg, Sheldon Sanov, Carol Shive - violin
Pamela Goldsmith, Arthur Royval, Michael Nowak - viola
Ronald Cooper, Ray Kelley - cello
David Campbell - arranger, conductor

Produced by Gabor Szabo


Exact Audio Copy V1.1 from 23. June 2015

EAC extraction logfile from 20. March 2016, 11:45

Gabor Szabo / Femme Fatale

Used drive : PLEXTOR DVDR PX-L890SA Adapter: 1 ID: 0

Read mode : Secure
Utilize accurate stream : Yes
Defeat audio cache : Yes
Make use of C2 pointers : No

Read offset correction : 6
Overread into Lead-In and Lead-Out : No
Fill up missing offset samples with silence : Yes
Delete leading and trailing silent blocks : No
Null samples used in CRC calculations : Yes
Used interface : Native Win32 interface for Win NT & 2000
Gap handling : Appended to previous track

Used output format : User Defined Encoder
Selected bitrate : 1024 kBit/s
Quality : High
Add ID3 tag : No
Command line compressor : C:\Program Files (x86)\Exact Audio Copy\Flac\flac.exe
Additional command line options : -0 -V -T "ARTIST=%artist%" -T "TITLE=%title%" -T "ALBUM=%albumtitle%" -T "DATE=%year%" -T "TRACKNUMBER=%tracknr%" -T "TOTALTRACKS=%numtracks%" -T "GENRE=%genre%" -T "COMMENT=Naftamusic Release!" %source%


TOC of the extracted CD

Track | Start | Length | Start sector | End sector
––––––––––––––––––––––––––––-
1 | 0:00.00 | 8:13.19 | 0 | 36993
2 | 8:13.19 | 7:08.14 | 36994 | 69107
3 | 15:21.33 | 3:37.34 | 69108 | 85416
4 | 18:58.67 | 9:17.06 | 85417 | 127197
5 | 28:15.73 | 8:07.36 | 127198 | 163758


Track 1

Filename E:\Nafta Releases\Gabor Szabo - Femme Fatale (1981)[FLAC] - Naftamusic\01 - Femme Fatale.wav

Pre-gap length 0:00:02.00

Peak level 100.0 %
Extraction speed 2.1 X
Track quality 100.0 %
Test CRC 0B339ED5
Copy CRC 0B339ED5
Accurately ripped (confidence 1) [B36DE8AA] (AR v2)
Copy OK

Track 2

Filename E:\Nafta Releases\Gabor Szabo - Femme Fatale (1981)[FLAC] - Naftamusic\02 - Zingaro.wav

Pre-gap length 0:00:02.00

Peak level 100.0 %
Extraction speed 2.4 X
Track quality 100.0 %
Test CRC 586290DF
Copy CRC 586290DF
Accurately ripped (confidence 1) [44683F51] (AR v1)
Copy OK

Track 3

Filename E:\Nafta Releases\Gabor Szabo - Femme Fatale (1981)[FLAC] - Naftamusic\03 - Serena.wav

Pre-gap length 0:00:02.00

Peak level 92.4 %
Extraction speed 1.7 X
Track quality 99.9 %
Test CRC B02EF2B4
Copy CRC B02EF2B4
Accurately ripped (confidence 1) [847A7920] (AR v1)
Copy OK

Track 4

Filename E:\Nafta Releases\Gabor Szabo - Femme Fatale (1981)[FLAC] - Naftamusic\04 - A Thousand Times.wav

Pre-gap length 0:00:02.00

Peak level 100.0 %
Extraction speed 2.5 X
Track quality 99.9 %
Test CRC 23223848
Copy CRC 23223848
Accurately ripped (confidence 1) [C4387380] (AR v2)
Copy OK

Track 5

Filename E:\Nafta Releases\Gabor Szabo - Femme Fatale (1981)[FLAC] - Naftamusic\05 - Out Of The Night.wav

Pre-gap length 0:00:02.00

Peak level 99.4 %
Extraction speed 3.2 X
Track quality 100.0 %
Test CRC 8AFD538E
Copy CRC 8AFD538E
Accurately ripped (confidence 1) [5C6B1B4D] (AR v1)
Copy OK


All tracks accurately ripped

No errors occurred

End of status report

==== Log checksum 23608EF4855320E7B8F3A20068461219621245A94443288B697848A59EFE3CE1 ====


––––––––––––––––––––––––––––––––––––––––
Analyzed: Gabor Szabo / Femme Fatale
––––––––––––––––––––––––––––––––––––––––

DR Peak RMS Duration Track
––––––––––––––––––––––––––––––––––––––––
DR11 0.00 dB -14.26 dB 8:13 01-Femme Fatale
DR12 0.00 dB -15.09 dB 7:08 02-Zingaro
DR15 -0.68 dB -19.80 dB 3:37 03-Serena
DR11 0.00 dB -14.30 dB 9:17 04-A Thousand Times
DR12 -0.05 dB -16.16 dB 8:07 05-Out Of The Night
––––––––––––––––––––––––––––––––––––––––

Number of tracks: 5
Official DR value: DR12

Samplerate: 44100 Hz
Channels: 2
Bits per sample: 16
Bitrate: 672 kbps
Codec: FLAC
================================================================================

Gabor Szabo - Femme Fatale (1981) {Mambo Records}
Gabor Szabo - Femme Fatale (1981) {Mambo Records}
Gabor Szabo - Femme Fatale (1981) {Mambo Records}


Thanks to the original ripper