Tags
Language
Tags
July 2024
Su Mo Tu We Th Fr Sa
30 1 2 3 4 5 6
7 8 9 10 11 12 13
14 15 16 17 18 19 20
21 22 23 24 25 26 27
28 29 30 31 1 2 3

Gary Puckett & The Union Gap - A Golden Classics Edition (1997)

Posted By: Rtax
Gary Puckett & The Union Gap - A Golden Classics Edition (1997)

Gary Puckett & The Union Gap - A Golden Classics Edition (1997)
EAC Rip | FLAC (tracks, cue, log) - 466 MB | MP3 CBR 320 kbps - 211 MB
1:16:52 | Scans Included | Pop Rock, Sunshine Pop | Label: Sony Music Special Products

A Golden Classics Edition Review by William Ruhlmann
In essence, Collectables Records' Gary Puckett & the Union Gap compilation A Golden Classics Edition is a two-fer CD combining the group's first two albums, named after its first two singles, Woman, Woman and Young Girl. But the addition at the end of the disc of the next five singles – "Lady Willpower," "Over You," "Don't Give in to Him," "This Girl Is a Woman Now," and "Let's Give Adam and Eve Another Chance" – makes this a more thorough best-of for the group, at a generous 76-minute running time. Gary Puckett & the Union Gap was very much a singles act; the first six of those seven singles, all of which reached the Top 15 and four of which went gold, are all most people know the band for. The full contents of the first two albums suggest that that is all the group should be known for, too. The albums are clearly afterthoughts thrown together to generate some LP sales tied into the hit singles.

They are dominated by covers of hit records that were in the charts at the time: Glen Campbell's "By the Time I Get to Phoenix" and "Dreams of the Everyday Housewife" (although, to be fair, Puckett recorded the latter before Campbell scored a hit with it); Cher's "You Better Sit Down Kids"; Neil Diamond's "Kentucky Woman"; the Bee Gees' "To Love Somebody"; the Beatles' "Lady Madonna"; Petula Clark's "Kiss Me Goodbye"; Bobby Goldsboro's "Honey"; Manfred Mann's "The Mighty Quinn"; and Aretha Franklin's "(Sweet Sweet Baby) Since You've Been Gone." The arrangements ape the hit versions, and Puckett gamely applies his tastefully soulful voice to them. There are also some other songs, all of them forgettable except for a good version of Tim Hardin's "Don't Make Promises." An actual greatest-hits set would probably include Puckett's two solo chart entries and selections from subsequent albums. But this collection really contains all that a '60s music fan would want from Gary Puckett & the Union Gap.

Tracklist
01. Woman, Woman
02. M'lady
03. By The Time I Get To Phoenix
04. Paindrops
05. Believe Me
06. I Want A New Day
07. You Better Sit Down Kids
08. Kentucky Woman
09. My Son
10. To Love Somebody
11. Don't Make Promises
12. Young Girl
13. Lady Madonna
14. Kiss Me Goodbye
15. The Pleasure Of You
16. Dreams Of The Everyday Housewife
17. I'm Losing You
18. Honey (I Miss You)
19. The Mighty Quinn
20. Wait Till The Sun Shines On You
21. (Sweet Sweet Baby) Since You've Been Gone
22. Say You Don't Need Me
23. Don't Give In To Him
24. Lady Willpower
25. Let's Give Adam & Eve Another Chance
26. Over You
27. This Girl Is A Woman Now
Exact Audio Copy V1.3 from 2. September 2016

EAC extraction logfile from 19. August 2019, 10:39

Gary Puckett & The Union Gap / A Golden Classics Edition

Used drive : Optiarc DVD RW AD-7260S Adapter: 1 ID: 0

Read mode : Secure
Utilize accurate stream : Yes
Defeat audio cache : Yes
Make use of C2 pointers : No

Read offset correction : 48
Overread into Lead-In and Lead-Out : No
Fill up missing offset samples with silence : Yes
Delete leading and trailing silent blocks : No
Null samples used in CRC calculations : Yes
Used interface : Native Win32 interface for Win NT & 2000
Gap handling : Appended to previous track

Used output format : User Defined Encoder
Selected bitrate : 1024 kBit/s
Quality : High
Add ID3 tag : No
Command line compressor : C:\Program Files (x86)\Exact Audio Copy\FLAC\FLAC.EXE
Additional command line options : -8 -V -T "ARTIST=%artist%" -T "TITLE=%title%" -T "ALBUM=%albumtitle%" -T "DATE=%year%" -T "TRACKNUMBER=%tracknr%" -T "TOTALTRACKS=%numtracks%" -T "GENRE=%genre%" -T "ALBUMARTIST=%albumartist%" -T "COMPOSER=%composer%" -T "ALBUMCOMPOSER=%albumcomposer%" -T "ALBUM ARTIST=%albumartist%" -T "COMMENT=EAC Secure Mode, Test & Copy, AccurateRip, FLAC -8" %source%


TOC of the extracted CD

Track | Start | Length | Start sector | End sector
––––––––––––––––––––––––––––-
1 | 0:00.00 | 3:15.62 | 0 | 14686
2 | 3:15.62 | 3:21.38 | 14687 | 29799
3 | 6:37.25 | 2:58.25 | 29800 | 43174
4 | 9:35.50 | 2:49.62 | 43175 | 55911
5 | 12:25.37 | 2:03.25 | 55912 | 65161
6 | 14:28.62 | 2:24.38 | 65162 | 75999
7 | 16:53.25 | 4:07.50 | 76000 | 94574
8 | 21:01.00 | 2:33.00 | 94575 | 106049
9 | 23:34.00 | 3:02.62 | 106050 | 119761
10 | 26:36.62 | 2:41.50 | 119762 | 131886
11 | 29:18.37 | 2:32.00 | 131887 | 143286
12 | 31:50.37 | 3:11.38 | 143287 | 157649
13 | 35:02.00 | 2:16.50 | 157650 | 167899
14 | 37:18.50 | 3:37.25 | 167900 | 184199
15 | 40:56.00 | 2:31.12 | 184200 | 195536
16 | 43:27.12 | 2:44.00 | 195537 | 207836
17 | 46:11.12 | 2:33.63 | 207837 | 219374
18 | 48:45.00 | 4:12.12 | 219375 | 238286
19 | 52:57.12 | 2:41.63 | 238287 | 250424
20 | 55:39.00 | 3:06.50 | 250425 | 264424
21 | 58:45.50 | 2:11.25 | 264425 | 274274
22 | 60:57.00 | 2:42.25 | 274275 | 286449
23 | 63:39.25 | 2:17.60 | 286450 | 296784
24 | 65:57.10 | 2:37.40 | 296785 | 308599
25 | 68:34.50 | 2:44.50 | 308600 | 320949
26 | 71:19.25 | 2:21.25 | 320950 | 331549
27 | 73:40.50 | 3:08.40 | 331550 | 345689


Track 1

Filename D:\EAC\Gary Puckett & The Union Gap - A Golden Classics Edition (1997)\01 - Gary Puckett & The Union Gap - Woman, Woman.wav

Pre-gap length 0:00:02.00

Peak level 80.8 %
Extraction speed 2.4 X
Track quality 100.0 %
Test CRC AD31127B
Copy CRC AD31127B
Accurately ripped (confidence 8) [E8B66854] (AR v2)
Copy OK

Track 2

Filename D:\EAC\Gary Puckett & The Union Gap - A Golden Classics Edition (1997)\02 - Gary Puckett & The Union Gap - M'Lady.wav

Pre-gap length 0:00:01.76

Peak level 95.0 %
Extraction speed 2.3 X
Track quality 99.9 %
Test CRC 47CAE803
Copy CRC 47CAE803
Accurately ripped (confidence 8) [583F7E66] (AR v2)
Copy OK

Track 3

Filename D:\EAC\Gary Puckett & The Union Gap - A Golden Classics Edition (1997)\03 - Gary Puckett & The Union Gap - By The Time I Get To Phoenix.wav

Pre-gap length 0:00:02.06

Peak level 69.8 %
Extraction speed 2.8 X
Track quality 100.0 %
Test CRC C889228D
Copy CRC C889228D
Accurately ripped (confidence 8) [3F268233] (AR v2)
Copy OK

Track 4

Filename D:\EAC\Gary Puckett & The Union Gap - A Golden Classics Edition (1997)\04 - Gary Puckett & The Union Gap - Paindrops.wav

Pre-gap length 0:00:01.66

Peak level 95.9 %
Extraction speed 2.9 X
Track quality 100.0 %
Test CRC 6CA8C429
Copy CRC 6CA8C429
Accurately ripped (confidence 8) [7036B297] (AR v2)
Copy OK

Track 5

Filename D:\EAC\Gary Puckett & The Union Gap - A Golden Classics Edition (1997)\05 - Gary Puckett & The Union Gap - Believe Me.wav

Pre-gap length 0:00:01.42

Peak level 74.4 %
Extraction speed 2.8 X
Track quality 100.0 %
Test CRC 1C86C12C
Copy CRC 1C86C12C
Accurately ripped (confidence 8) [35757607] (AR v2)
Copy OK

Track 6

Filename D:\EAC\Gary Puckett & The Union Gap - A Golden Classics Edition (1997)\06 - Gary Puckett & The Union Gap - I Want A New Day.wav

Pre-gap length 0:00:01.69

Peak level 62.3 %
Extraction speed 3.0 X
Track quality 100.0 %
Test CRC AB392D89
Copy CRC AB392D89
Accurately ripped (confidence 8) [9063D775] (AR v2)
Copy OK

Track 7

Filename D:\EAC\Gary Puckett & The Union Gap - A Golden Classics Edition (1997)\07 - Gary Puckett & The Union Gap - You Better Sit Down Kids.wav

Pre-gap length 0:00:02.70

Peak level 72.9 %
Extraction speed 3.0 X
Track quality 99.9 %
Test CRC 272E0E64
Copy CRC 272E0E64
Accurately ripped (confidence 8) [371C7E91] (AR v2)
Copy OK

Track 8

Filename D:\EAC\Gary Puckett & The Union Gap - A Golden Classics Edition (1997)\08 - Gary Puckett & The Union Gap - Kentucky Woman.wav

Pre-gap length 0:00:01.60

Peak level 75.0 %
Extraction speed 3.3 X
Track quality 100.0 %
Test CRC 73041719
Copy CRC 73041719
Accurately ripped (confidence 8) [E2B58D8C] (AR v2)
Copy OK

Track 9

Filename D:\EAC\Gary Puckett & The Union Gap - A Golden Classics Edition (1997)\09 - Gary Puckett & The Union Gap - My Son.wav

Pre-gap length 0:00:01.70

Peak level 59.1 %
Extraction speed 3.5 X
Track quality 100.0 %
Test CRC 1990526B
Copy CRC 1990526B
Accurately ripped (confidence 8) [B758A46F] (AR v2)
Copy OK

Track 10

Filename D:\EAC\Gary Puckett & The Union Gap - A Golden Classics Edition (1997)\10 - Gary Puckett & The Union Gap - To Love Somebody.wav

Pre-gap length 0:00:03.00

Peak level 100.0 %
Extraction speed 3.0 X
Track quality 99.9 %
Test CRC 5BD6587C
Copy CRC 5BD6587C
Accurately ripped (confidence 8) [4AFFEFC9] (AR v2)
Copy OK

Track 11

Filename D:\EAC\Gary Puckett & The Union Gap - A Golden Classics Edition (1997)\11 - Gary Puckett & The Union Gap - Don't Make Promises.wav

Pre-gap length 0:00:02.06

Peak level 100.0 %
Extraction speed 3.6 X
Track quality 100.0 %
Test CRC 679968C4
Copy CRC 679968C4
Accurately ripped (confidence 8) [3BB313E6] (AR v2)
Copy OK

Track 12

Filename D:\EAC\Gary Puckett & The Union Gap - A Golden Classics Edition (1997)\12 - Gary Puckett & The Union Gap - Young Girl.wav

Pre-gap length 0:00:01.62

Peak level 100.0 %
Extraction speed 3.9 X
Track quality 100.0 %
Test CRC 894D3AAB
Copy CRC 894D3AAB
Accurately ripped (confidence 8) [9A849EE9] (AR v2)
Copy OK

Track 13

Filename D:\EAC\Gary Puckett & The Union Gap - A Golden Classics Edition (1997)\13 - Gary Puckett & The Union Gap - Lady Madonna.wav

Pre-gap length 0:00:01.86

Peak level 100.0 %
Extraction speed 3.7 X
Track quality 100.0 %
Test CRC 095FD0D5
Copy CRC 095FD0D5
Accurately ripped (confidence 8) [9EC72001] (AR v2)
Copy OK

Track 14

Filename D:\EAC\Gary Puckett & The Union Gap - A Golden Classics Edition (1997)\14 - Gary Puckett & The Union Gap - Kiss Me Goodbye.wav

Pre-gap length 0:00:01.77

Peak level 78.3 %
Extraction speed 4.1 X
Track quality 100.0 %
Test CRC B5A71F80
Copy CRC B5A71F80
Accurately ripped (confidence 8) [CBD6676D] (AR v2)
Copy OK

Track 15

Filename D:\EAC\Gary Puckett & The Union Gap - A Golden Classics Edition (1997)\15 - Gary Puckett & The Union Gap - The Pleasure Of You.wav

Pre-gap length 0:00:02.30

Peak level 81.3 %
Extraction speed 4.0 X
Track quality 100.0 %
Test CRC 5AC42A76
Copy CRC 5AC42A76
Accurately ripped (confidence 8) [593D6F5A] (AR v2)
Copy OK

Track 16

Filename D:\EAC\Gary Puckett & The Union Gap - A Golden Classics Edition (1997)\16 - Gary Puckett & The Union Gap - Dreams Of The Everyday Housewife.wav

Pre-gap length 0:00:02.29

Peak level 79.7 %
Extraction speed 3.5 X
Track quality 99.9 %
Test CRC 77AC0B9B
Copy CRC 77AC0B9B
Accurately ripped (confidence 8) [F33C0443] (AR v2)
Copy OK

Track 17

Filename D:\EAC\Gary Puckett & The Union Gap - A Golden Classics Edition (1997)\17 - Gary Puckett & The Union Gap - I'm Losing You.wav

Pre-gap length 0:00:02.02

Peak level 93.1 %
Extraction speed 4.2 X
Track quality 100.0 %
Test CRC BFDB7475
Copy CRC BFDB7475
Accurately ripped (confidence 8) [FFFC7C63] (AR v2)
Copy OK

Track 18

Filename D:\EAC\Gary Puckett & The Union Gap - A Golden Classics Edition (1997)\18 - Gary Puckett & The Union Gap - Honey (I Miss You).wav

Pre-gap length 0:00:02.44

Peak level 100.0 %
Extraction speed 4.7 X
Track quality 100.0 %
Test CRC 57656577
Copy CRC 57656577
Accurately ripped (confidence 8) [3255E89B] (AR v2)
Copy OK

Track 19

Filename D:\EAC\Gary Puckett & The Union Gap - A Golden Classics Edition (1997)\19 - Gary Puckett & The Union Gap - The Mighty Quinn.wav

Pre-gap length 0:00:01.60

Peak level 86.8 %
Extraction speed 4.5 X
Track quality 100.0 %
Test CRC 5FCDBAE4
Copy CRC 5FCDBAE4
Accurately ripped (confidence 8) [F46FCC34] (AR v2)
Copy OK

Track 20

Filename D:\EAC\Gary Puckett & The Union Gap - A Golden Classics Edition (1997)\20 - Gary Puckett & The Union Gap - Wait Till The Sun Shines On You.wav

Pre-gap length 0:00:01.54

Peak level 67.9 %
Extraction speed 4.6 X
Track quality 100.0 %
Test CRC B13FDFE9
Copy CRC B13FDFE9
Accurately ripped (confidence 8) [9EDEC77F] (AR v2)
Copy OK

Track 21

Filename D:\EAC\Gary Puckett & The Union Gap - A Golden Classics Edition (1997)\21 - Gary Puckett & The Union Gap - (Sweet Sweet Baby) Since You've Been Gone.wav

Pre-gap length 0:00:02.64

Peak level 75.2 %
Extraction speed 4.4 X
Track quality 100.0 %
Test CRC EA368C9C
Copy CRC EA368C9C
Accurately ripped (confidence 8) [315DD5C9] (AR v2)
Copy OK

Track 22

Filename D:\EAC\Gary Puckett & The Union Gap - A Golden Classics Edition (1997)\22 - Gary Puckett & The Union Gap - Say You Don't Need Me.wav

Pre-gap length 0:00:01.64

Peak level 68.8 %
Extraction speed 3.9 X
Track quality 99.9 %
Test CRC D32608BC
Copy CRC D32608BC
Accurately ripped (confidence 8) [DD54FFE9] (AR v2)
Copy OK

Track 23

Filename D:\EAC\Gary Puckett & The Union Gap - A Golden Classics Edition (1997)\23 - Gary Puckett & The Union Gap - Don't Give In To Him.wav

Pre-gap length 0:00:01.70

Peak level 53.6 %
Extraction speed 3.8 X
Track quality 99.9 %
Test CRC D4C792B1
Copy CRC D4C792B1
Accurately ripped (confidence 8) [9522BFEC] (AR v2)
Copy OK

Track 24

Filename D:\EAC\Gary Puckett & The Union Gap - A Golden Classics Edition (1997)\24 - Gary Puckett & The Union Gap - Lady Willpower.wav

Pre-gap length 0:00:01.57

Peak level 59.9 %
Extraction speed 4.8 X
Track quality 100.0 %
Test CRC E39C0427
Copy CRC E39C0427
Accurately ripped (confidence 8) [73E8308F] (AR v2)
Copy OK

Track 25

Filename D:\EAC\Gary Puckett & The Union Gap - A Golden Classics Edition (1997)\25 - Gary Puckett & The Union Gap - Let's Give Adam & Eve Another Chance.wav

Pre-gap length 0:00:01.74

Peak level 49.9 %
Extraction speed 4.2 X
Track quality 99.9 %
Test CRC 68ECCECF
Copy CRC 68ECCECF
Accurately ripped (confidence 8) [5491BFCE] (AR v2)
Copy OK

Track 26

Filename D:\EAC\Gary Puckett & The Union Gap - A Golden Classics Edition (1997)\26 - Gary Puckett & The Union Gap - Over You.wav

Pre-gap length 0:00:01.64

Peak level 71.2 %
Extraction speed 4.8 X
Track quality 100.0 %
Test CRC 1CEAF6F6
Copy CRC 1CEAF6F6
Accurately ripped (confidence 8) [807073CB] (AR v2)
Copy OK

Track 27

Filename D:\EAC\Gary Puckett & The Union Gap - A Golden Classics Edition (1997)\27 - Gary Puckett & The Union Gap - This Girl Is A Woman Now.wav

Pre-gap length 0:00:01.64

Peak level 54.6 %
Extraction speed 5.1 X
Track quality 100.0 %
Test CRC 6973445B
Copy CRC 6973445B
Accurately ripped (confidence 8) [0C77520E] (AR v2)
Copy OK


All tracks accurately ripped

No errors occurred

End of status report

–– CUETools DB Plugin V2.1.6

[CTDB TOCID: T9hgJrBvjeTh25ruQ5uzaD_Sevk-] found
Submit result: already submitted
Track | CTDB Status
1 | (25/25) Accurately ripped
2 | (25/25) Accurately ripped
3 | (25/25) Accurately ripped
4 | (25/25) Accurately ripped
5 | (25/25) Accurately ripped
6 | (25/25) Accurately ripped
7 | (24/25) Accurately ripped
8 | (24/25) Accurately ripped
9 | (25/25) Accurately ripped
10 | (25/25) Accurately ripped
11 | (25/25) Accurately ripped
12 | (25/25) Accurately ripped
13 | (25/25) Accurately ripped
14 | (25/25) Accurately ripped
15 | (25/25) Accurately ripped
16 | (25/25) Accurately ripped
17 | (25/25) Accurately ripped
18 | (25/25) Accurately ripped
19 | (25/25) Accurately ripped
20 | (25/25) Accurately ripped
21 | (25/25) Accurately ripped
22 | (25/25) Accurately ripped
23 | (25/25) Accurately ripped
24 | (25/25) Accurately ripped
25 | (25/25) Accurately ripped
26 | (25/25) Accurately ripped
27 | (25/25) Accurately ripped


==== Log checksum 92B142F894A4290BB27D9D514AF10923F1E7781586E12173E8BAF8154A7E292A ====