Tags
Language
Tags

Gato Barbieri & Dollar Brand - Hamba Khale! (1968) [Reissue 2002]

Posted By:
Gato Barbieri & Dollar Brand - Hamba Khale! (1968) [Reissue 2002]

Gato Barbieri & Dollar Brand - Hamba Khale! (1968) [Reissue 2002]
EAC Rip | APE (image+.cue+log) - 175 MB | MP3 CBR 320 kbps (LAME 3.93) - 84 MB | Covers (8 MB) included
Genre: Jazz, Free Jazz | RAR 3% Rec. | Label: Fuel 2000 (302 061 187 2)

Two jazz giants of the 70s come together on this rare Italian recording from the late 60s - South African pianist Dollar Brand (Abdulla Ibrahim) and Argentine tenorist Gato Barbieri - both working here in spare duo formation, with edges that are a fair bit sharper than most of their later work! The format is incredibly spare - just tenor and piano, plus some occasional cello work by Brand - dark and angular, but also filled with small flowers of hope, flowering in the spontaneous presence of these two great minds - a tremendous spirit that makes the record very different than freer jazz outings, and which maybe points the way towards some of the classic European tenor/piano recordings to come.
Tracklist:
01. Hamba Khale!
02. To Elsa
03. Eighty First Street
04. Wildrose

Total time: 32:36

Exact Audio Copy V0.99 prebeta 4 from 23. January 2008

EAC extraction logfile from 19. December 2009, 20:00

Gato Barbieri and Dollar Brand / Hamba Khale

Used drive : HL-DT-STRW/DVD GCC-4242N Adapter: 1 ID: 0

Read mode : Secure
Utilize accurate stream : Yes
Defeat audio cache : Yes
Make use of C2 pointers : No

Read offset correction : 102
Overread into Lead-In and Lead-Out : No
Fill up missing offset samples with silence : Yes
Delete leading and trailing silent blocks : No
Null samples used in CRC calculations : Yes
Used interface : Native Win32 interface for Win NT & 2000

Used output format : Internal WAV Routines
Sample format : 44.100 Hz; 16 Bit; Stereo


TOC of the extracted CD

Track | Start | Length | Start sector | End sector
––––––––––––––––––––––––––––-
1 | 0:00.00 | 2:15.03 | 0 | 10127
2 | 2:15.03 | 7:13.73 | 10128 | 42675
3 | 9:29.01 | 8:37.64 | 42676 | 81514
4 | 18:06.65 | 14:28.60 | 81515 | 146674


Range status and errors

Selected range

Filename C:\_\EAC_Out\Out\Gato Barbieri and Dollar Brand - Hamba Khale\Gato Barbieri and Dollar Brand - Hamba Khale.wav

Peak level 100.0 %
Range quality 100.0 %
Copy CRC 7822BBB2
Copy OK

No errors occurred


AccurateRip summary

Track 1 accurately ripped (confidence 1) [13E0AB67]
Track 2 accurately ripped (confidence 1) [65E25929]
Track 3 accurately ripped (confidence 1) [271BD307]
Track 4 accurately ripped (confidence 1) [84D1942E]

All tracks accurately ripped

End of status report

[CUETools log; Date: 20.12.2020 19:02:32; Version: 2.1.4]
[CTDB TOCID: 8pYAQ3NS0BGNDHQABABC3z_RwNE-] found.
Track | CTDB Status
1 | (3/3) Accurately ripped
2 | (3/3) Accurately ripped
3 | (3/3) Accurately ripped
4 | (3/3) Accurately ripped
[AccurateRip ID: 000449a2-00126da8-2b07a304] found.
Track [ CRC | V2 ] Status
01 [13e0ab67|a35d3467] (0+2/2) Accurately ripped
02 [65e25929|6a162a73] (0+2/2) Accurately ripped
03 [271bd307|ae04bc6c] (0+2/2) Accurately ripped
04 [84d1942e|839a4e88] (0+2/2) Accurately ripped

Track Peak [ CRC32 ] [W/O NULL] [ LOG ]
– 99,9 [7822BBB2] [C087267F] CRC32
01 99,9 [66C12A20] [EE69891F]
02 99,9 [F292D49B] [0F9E5CF0]
03 99,9 [2E2D5158] [FCF55B28]
04 99,9 [9361A809] [DE8D73BC]

Thanks to barin99

See also: