Tags
Language
Tags

Gebhard Ullmann Basement Research - Hat And Shoes (2015)

Posted By: Designol
Gebhard Ullmann Basement Research - Hat And Shoes (2015)

Gebhard Ullmann Basement Research - Hat And Shoes (2015)
EAC | FLAC | Tracks (Cue&Log) ~ 312 Mb | Mp3 (CBR320) ~ 132 Mb | Scans included | 00:52:19
Avant-Garde Jazz, Modern Creative | Label: Between the Lines | # BTLCHR 71238

Saxophonist Gebhard Ullmann might be the German equivalent of Chicago's Ken Vandermark. Both players are influential composers and both maintain multiple creative ensembles in Europe and the United States. Like Vandermark, Ullmann's catalog is vast. Hat And Shoes is his 50th release as a leader or co- leader, and this band Basement Research have put out seven titles.

Similar to the now defunct Vandermark 5, Basement Research's quintet features a smart balance between composed and improvised music. Ullman's choice of sidemen has included saxophonists Ellery Eskelin, Tony Malaby, and now Julian Argüelles, with trombonist Steve Swell, bassist Pascal Niggenkemper and drummer Gerald Cleaver.

Hat And Shoes opens in duo. Bass and drums thunder from below ground level before a melody is galumphed across the soundstage. Ullman favors heavy ordnance that can quickly pivot into merciful elements of improvised lightness. He also likes to swing. His controlled mayhem is on full display here with pieces like "Wo bitte geht's zu den Hackeschen Höfen" (Which way leads to the Hackescher Market), where seemingly lost musicians drive a frantic pace through dizzying streets only to find their way back to Ullman's charts.

Where Vandermark had his Jeb Bishop, Ullman has Swell, a trombonist with virtuosic sound and an avant-gardist mind. He can surrender to the desolate feel of "Flutist with Hat And Shoe" working a slurry plunger or capture the band with his solo on "Five." This quintet maintains its stability throughout. Baritone saxophonist, of the Loose Tubes and Carla Bley's Big Band, is Ullman's ying (maybe yang). On "Don't Touch My Music," his solo, over Niggenkemper's bowing, blasts into a lower-earth orbit. He also opens "Blue Trees And Related Objects," the shortest and sweetest composition on the recording. Cleaver's brief brushwork solo is a meditative moment.

The closer, "Gulf Of Berlin" best sums up Basement Research. The Ullman/Swell opening gives way to feigning bedlam that is really just an incendiary device to get to melody and a certain groove. Well done.

Review by Mark Corroto, AllAboutJazz.com

Gebhard Ullmann Basement Research - Hat And Shoes (2015)

Gebhard Ullmann Basement Research - Hat And Shoes (2015)



Personnel:
Gebhard Ullmann: tenor saxophone, bass clarinet;
Steve Swell: trombone; Julian Argüelles: baritone saxophone;
Pascal Niggenkemper: double bass; Gerald Cleaver: drums

Recorded on February 24, 2013 at Kreisschule Mutschellen in Berikon, Switzerland in cooperation with Kulak

Tracklist:

01. Trinidad Walk (6:20)
02. Wo bitte geht's zu den Hackeschen Höfen? (8:26)
03. Flutist with Hat and Shoe (7:38)
04. Don't Touch My Music (7:58)
05. Five (9:03)
06. Blue Trees and Related Objects (5:51)
07. Gulf of Berlin (7:02)


Exact Audio Copy V1.0 beta 6 from 9. April 2015

EAC extraction logfile from 17. April 2015, 16:49

Gebhard Ullmann Basement Research / Hat and Shoes

Used drive : SlimtypeeNAU508 5 Adapter: 1 ID: 1

Read mode : Secure
Utilize accurate stream : Yes
Defeat audio cache : Yes
Make use of C2 pointers : No

Read offset correction : 6
Overread into Lead-In and Lead-Out : No
Fill up missing offset samples with silence : Yes
Delete leading and trailing silent blocks : No
Null samples used in CRC calculations : Yes
Used interface : Native Win32 interface for Win NT & 2000
Gap handling : Appended to previous track

Used output format : User Defined Encoder
Selected bitrate : 768 kBit/s
Quality : High
Add ID3 tag : No
Command line compressor : C:\Program Files (x86)\Exact Audio Copy\Flac\flac.exe
Additional command line options : -8 -V -T "ARTIST=%artist%" -T "TITLE=%title%" -T "ALBUM=%albumtitle%" -T "DATE=%year%" -T "TRACKNUMBER=%tracknr%" -T "TOTALTRACKS=%numtracks%" -T "GENRE=%genre%" -T "ALBUMARTIST=%albumartist%" -T "ALBUM ARTIST=%albumartist%" -T "COMMENT=EAC Secure Mode, Test & Copy, AccurateRip, FLAC -8" %source%


TOC of the extracted CD

Track | Start | Length | Start sector | End sector
––––––––––––––––––––––––––––-
1 | 0:00.00 | 6:19.67 | 0 | 28491
2 | 6:19.67 | 8:26.27 | 28492 | 66468
3 | 14:46.19 | 7:38.12 | 66469 | 100830
4 | 22:24.31 | 7:58.02 | 100831 | 136682
5 | 30:22.33 | 9:03.11 | 136683 | 177418
6 | 39:25.44 | 5:51.31 | 177419 | 203774
7 | 45:17.00 | 7:02.30 | 203775 | 235454


Track 1

Filename C:\EAC rips\01 - Trinidad Walk.wav

Pre-gap length 0:00:02.00

Peak level 99.9 %
Extraction speed 2.3 X
Track quality 100.0 %
Test CRC 51BFB8F1
Copy CRC 51BFB8F1
Track not present in AccurateRip database
Copy OK

Track 2

Filename C:\EAC rips\02 - Wo bitte geht's zu den Hackeschen Hoefen_.wav

Peak level 100.0 %
Extraction speed 2.5 X
Track quality 100.0 %
Test CRC 72B29FE3
Copy CRC 72B29FE3
Track not present in AccurateRip database
Copy OK

Track 3

Filename C:\EAC rips\03 - Flutist with Hat and Shoe.wav

Peak level 84.1 %
Extraction speed 2.8 X
Track quality 99.9 %
Test CRC 283B2550
Copy CRC 283B2550
Track not present in AccurateRip database
Copy OK

Track 4

Filename C:\EAC rips\04 - Don't Touch My Music.wav

Peak level 100.0 %
Extraction speed 3.4 X
Track quality 100.0 %
Test CRC 8DC662CC
Copy CRC 8DC662CC
Track not present in AccurateRip database
Copy OK

Track 5

Filename C:\EAC rips\05 - Five.wav

Peak level 100.0 %
Extraction speed 3.3 X
Track quality 99.9 %
Test CRC 6CF1FFAE
Copy CRC 6CF1FFAE
Track not present in AccurateRip database
Copy OK

Track 6

Filename C:\EAC rips\06 - Blue Trees and Related Objects.wav

Peak level 99.9 %
Extraction speed 3.8 X
Track quality 100.0 %
Test CRC 35EAB03B
Copy CRC 35EAB03B
Track not present in AccurateRip database
Copy OK

Track 7

Filename C:\EAC rips\07 - Gulf of Berlin.wav

Peak level 100.0 %
Extraction speed 4.2 X
Track quality 100.0 %
Test CRC 5F52E62A
Copy CRC 5F52E62A
Track not present in AccurateRip database
Copy OK


None of the tracks are present in the AccurateRip database

No errors occurred

End of status report

–– CUETools DB Plugin V2.1.6

[CTDB TOCID: RdBC0EjbwViNAg8ue9OWuHXj0_I-] found
Submit result: already submitted
Track | CTDB Status
1 | (1/1) Accurately ripped
2 | (1/1) Accurately ripped
3 | (1/1) Accurately ripped
4 | (1/1) Accurately ripped
5 | (1/1) Accurately ripped
6 | (1/1) Accurately ripped
7 | (1/1) Accurately ripped


==== Log checksum 3DC31E84F011418479A1BEC364B042CEB67591899ED7A5FDA2234AC437195F13 ====

[CUETools log; Date: 15.08.2018 2:32:51; Version: 2.1.4]
[CTDB TOCID: RdBC0EjbwViNAg8ue9OWuHXj0_I-] found.
Track | CTDB Status
1 | (6/6) Accurately ripped
2 | (6/6) Accurately ripped
3 | (6/6) Accurately ripped
4 | (6/6) Accurately ripped
5 | (6/6) Accurately ripped
6 | (6/6) Accurately ripped
7 | (6/6) Accurately ripped
[AccurateRip ID: 000e7b84-00573ece-680c4307] found.
Track [ CRC | V2 ] Status
01 [0d594439|b05a0ed9] (0+2/2) Accurately ripped
02 [edc0dae4|08091bf7] (0+2/2) Accurately ripped
03 [5c5a34fb|cc499ef8] (0+2/2) Accurately ripped
04 [2414efab|eda47248] (0+2/2) Accurately ripped
05 [75d2996a|ba1985ae] (0+2/2) Accurately ripped
06 [208a3a07|da86bacf] (0+2/2) Accurately ripped
07 [5fbd97ae|7c243f6e] (0+2/2) Accurately ripped

Track Peak [ CRC32 ] [W/O NULL] [ LOG ]
– 100,0 [420B5E21] [30ED423C]
01 99,9 [51BFB8F1] [F86707DC] CRC32
02 100,0 [72B29FE3] [4342FB0B] CRC32
03 84,1 [283B2550] [716B1CC5] CRC32
04 100,0 [8DC662CC] [07AD9C3D] CRC32
05 100,0 [6CF1FFAE] [E68CCC9A] CRC32
06 99,9 [35EAB03B] [EC99084F] CRC32
07 100,0 [5F52E62A] [E91B5DFA] CRC32

foobar2000 1.2 / Dynamic Range Meter 1.1.1
log date: 2018-08-15 02:21:53

––––––––––––––––––––––––––––––––––––––––
Analyzed: Gebhard Ullmann Basement Research / Hat and Shoes
––––––––––––––––––––––––––––––––––––––––

DR Peak RMS Duration Track
––––––––––––––––––––––––––––––––––––––––
DR9 0.00 dB -12.73 dB 6:20 01-Trinidad Walk
DR9 0.00 dB -13.15 dB 8:26 02-Wo bitte geht's zu den Hackeschen Höfen?
DR13 -1.50 dB -19.82 dB 7:38 03-Flutist with Hat and Shoe
DR10 0.00 dB -12.29 dB 7:58 04-Don't Touch My Music
DR10 0.00 dB -14.44 dB 9:03 05-Five
DR12 -0.01 dB -15.92 dB 5:51 06-Blue Trees and Related Objects
DR10 0.00 dB -13.08 dB 7:02 07-Gulf of Berlin
––––––––––––––––––––––––––––––––––––––––

Number of tracks: 7
Official DR value: DR11

Samplerate: 44100 Hz
Channels: 2
Bits per sample: 16
Bitrate: 843 kbps
Codec: FLAC
================================================================================

Gebhard Ullmann Basement Research - Hat And Shoes (2015)

Gebhard Ullmann Basement Research - Hat And Shoes (2015)

All thanks to original releaser

More interesting music in My Blog