Tags
Language
Tags

Gene Krupa - Plays Gerry Mulligan Arrangements - The Complete Studio Recordings (1958) [Reissue 2010]

Posted By: gribovar
Gene Krupa - Plays Gerry Mulligan Arrangements - The Complete Studio Recordings (1958) [Reissue 2010]

Gene Krupa - Plays Gerry Mulligan Arrangements - The Complete Studio Recordings (1958) [Reissue 2010]
EAC Rip | FLAC (tracks+.cue+log) - 356 MB | MP3 CBR 320 kbps (LAME 3.93) - 149 MB | Covers - 13 MB
Genre: Jazz, Big Band | RAR 3% Rec. | Label: American Jazz Classics (99020)

Gerry Mulligan was only 19 in 1946 when he joined Gene Krupa's band, playing a bit of alto and tenor sax, but primarily serving as an arranger. But the Verve LP Gene Krupa Plays Gerry Mulligan Arrangements wasn't made until 1958, long after Mulligan went out on his own. Although there are solo features built into the framework of each piece, Mulligan was quite confident in his ability to showcase the entire band as well. Mulligan's "Disc Jockey Jump" became a hit for Krupa, though it wasn't recorded until after he left the band. The vague liner notes fail to identify any of the musicians in Krupa's big band, which includes Jimmy Cleveland, Hank Jones, Barry Galbraith, Kai Winding, and Phil Woods, though Woods' alto sax solos are easily identifiable to his fans. Baritone saxophonist Danny Bank is a bit disappointing compared to what Mulligan could have recorded on the instrument, though it would have been unlikely that the composer would have been interested in rejoining Krupa, even for one record date, at the time it was recorded.
All of Krupa’s other studio recordings of Mulligan arrangements have been added here as a bonus, including a Mulligan score of “Indiana” which wasn’t repeated on the 1958 album, as well as five arrangements that were re-recorded more than ten years later.
Tracklist:
01. Bird House
02. Margie
03. Mulligan Stew
04. Begin The Beguine
05. Sugar
06. The Way Of All Flesh
07. Disc Jockey Jump
08. Birds Of A Feather
09. Sometimes I'm Happy
10. How High The Moon
11. If You Were The Only Girl In The World
12. Yardbird Suite

Bonus tracks:
13. Indiana
14. Begin The Beguine (Alternate version)
15. Bird House (Alternate version)
16. How High The Moon (Alternate version)
17. Disc Jockey Jump (Alternate version)
18. Margie (Alternate version)

Total time: 01:03:10

Exact Audio Copy V0.99 prebeta 5 from 4. May 2009

EAC extraction logfile from 25. January 2011, 19:55

Gene Krupa / Plays Gerry Mulligan Arrangements

Used drive : PLEXTOR DVDR PX-810SA Adapter: 2 ID: 2

Read mode : Secure
Utilize accurate stream : Yes
Defeat audio cache : Yes
Make use of C2 pointers : No

Read offset correction : 48
Overread into Lead-In and Lead-Out : No
Fill up missing offset samples with silence : Yes
Delete leading and trailing silent blocks : No
Null samples used in CRC calculations : Yes
Used interface : Native Win32 interface for Win NT & 2000
Gap handling : Appended to previous track

Used output format : User Defined Encoder
Selected bitrate : 128 kBit/s
Quality : High
Add ID3 tag : No
Command line compressor : C:\Archivos de programa\Exact Audio Copy\Flac\flac.exe
Additional command line options : -8 -V -T "ARTIST=%a" -T "TITLE=%t" -T "ALBUM=%g" -T "DATE=%y" -T "TRACKNUMBER=%n" -T "TOTALTRACKS=%x" -T "GENRE=%m" -T "ALBUM ARTIST=%v" -T "ALBUMARTIST=%v" -T "COMMENT=EAC V0.99 pb5, Secure Mode, Test&Copy, AccurateRip, FL


TOC of the extracted CD

Track | Start | Length | Start sector | End sector
––––––––––––––––––––––––––––-
1 | 0:00.00 | 3:04.37 | 0 | 13836
2 | 3:04.37 | 3:15.72 | 13837 | 28533
3 | 6:20.34 | 4:02.13 | 28534 | 46696
4 | 10:22.47 | 3:50.32 | 46697 | 63978
5 | 14:13.04 | 2:47.66 | 63979 | 76569
6 | 17:00.70 | 2:52.44 | 76570 | 89513
7 | 19:53.39 | 3:09.70 | 89514 | 103758
8 | 23:03.34 | 3:22.61 | 103759 | 118969
9 | 26:26.20 | 3:39.60 | 118970 | 135454
10 | 30:06.05 | 3:19.69 | 135455 | 150448
11 | 33:25.74 | 4:50.44 | 150449 | 172242
12 | 38:16.43 | 5:37.31 | 172243 | 197548
13 | 43:53.74 | 3:01.47 | 197549 | 211170
14 | 46:55.46 | 3:17.41 | 211171 | 225986
15 | 50:13.12 | 3:23.51 | 225987 | 241262
16 | 53:36.63 | 3:23.46 | 241263 | 256533
17 | 57:00.34 | 3:10.55 | 256534 | 270838
18 | 60:11.14 | 2:59.18 | 270839 | 284281


Track 1

Filename C:\audio-rips\01 - Bird House.wav

Pre-gap length 0:00:02.00

Peak level 99.5 %
Track quality 100.0 %
Test CRC 0E9CF0F1
Copy CRC 0E9CF0F1
Track not present in AccurateRip database
Copy OK

Track 2

Filename C:\audio-rips\02 - Margie.wav

Peak level 84.7 %
Track quality 100.0 %
Test CRC FDBD3E05
Copy CRC FDBD3E05
Track not present in AccurateRip database
Copy OK

Track 3

Filename C:\audio-rips\03 - Mulligan Stew.wav

Peak level 83.4 %
Track quality 100.0 %
Test CRC 942D0A27
Copy CRC 942D0A27
Track not present in AccurateRip database
Copy OK

Track 4

Filename C:\audio-rips\04 - Begin The Beguine.wav

Peak level 100.0 %
Track quality 100.0 %
Test CRC 82376C95
Copy CRC 82376C95
Track not present in AccurateRip database
Copy OK

Track 5

Filename C:\audio-rips\05 - Sugar.wav

Peak level 86.5 %
Track quality 100.0 %
Test CRC F1D62BB8
Copy CRC F1D62BB8
Track not present in AccurateRip database
Copy OK

Track 6

Filename C:\audio-rips\06 - The Way Of All Flesh.wav

Peak level 96.2 %
Track quality 100.0 %
Test CRC 34BB535B
Copy CRC 34BB535B
Track not present in AccurateRip database
Copy OK

Track 7

Filename C:\audio-rips\07 - Disc Jockey Jump.wav

Peak level 87.5 %
Track quality 99.9 %
Test CRC 00CD9C13
Copy CRC 00CD9C13
Track not present in AccurateRip database
Copy OK

Track 8

Filename C:\audio-rips\08 - Birds Of A Feather.wav

Peak level 85.2 %
Track quality 100.0 %
Test CRC 85CA7400
Copy CRC 85CA7400
Track not present in AccurateRip database
Copy OK

Track 9

Filename C:\audio-rips\09 - Sometimes I'm Happy.wav

Peak level 100.0 %
Track quality 99.9 %
Test CRC 960C3E7E
Copy CRC 960C3E7E
Track not present in AccurateRip database
Copy OK

Track 10

Filename C:\audio-rips\10 - How High The Moon.wav

Peak level 100.0 %
Track quality 99.9 %
Test CRC 66B5FD8F
Copy CRC 66B5FD8F
Track not present in AccurateRip database
Copy OK

Track 11

Filename C:\audio-rips\11 - If You Were The Only Girl In The World.wav

Peak level 74.9 %
Track quality 100.0 %
Test CRC 8635E8E2
Copy CRC 8635E8E2
Track not present in AccurateRip database
Copy OK

Track 12

Filename C:\audio-rips\12 - Yardbird Suite.wav

Peak level 94.0 %
Track quality 100.0 %
Test CRC E6A9615D
Copy CRC E6A9615D
Track not present in AccurateRip database
Copy OK

Track 13

Filename C:\audio-rips\13 - Indiana.wav

Peak level 100.0 %
Track quality 99.9 %
Test CRC 2832F306
Copy CRC 2832F306
Track not present in AccurateRip database
Copy OK

Track 14

Filename C:\audio-rips\14 - Begin The Beguine.wav

Peak level 100.0 %
Track quality 99.9 %
Test CRC A1DCEA77
Copy CRC A1DCEA77
Track not present in AccurateRip database
Copy OK

Track 15

Filename C:\audio-rips\15 - Bird House.wav

Peak level 99.4 %
Track quality 100.0 %
Test CRC C07BCAAD
Copy CRC C07BCAAD
Track not present in AccurateRip database
Copy OK

Track 16

Filename C:\audio-rips\16 - How High The Moon.wav

Peak level 76.9 %
Track quality 100.0 %
Test CRC 0AA8A35D
Copy CRC 0AA8A35D
Track not present in AccurateRip database
Copy OK

Track 17

Filename C:\audio-rips\17 - Disc Jockey Jump.wav

Peak level 71.3 %
Track quality 100.0 %
Test CRC 85FB994F
Copy CRC 85FB994F
Track not present in AccurateRip database
Copy OK

Track 18

Filename C:\audio-rips\18 - Margie.wav

Peak level 92.5 %
Track quality 100.0 %
Test CRC 02309086
Copy CRC 02309086
Track not present in AccurateRip database
Copy OK


None of the tracks are present in the AccurateRip database

No errors occurred

End of status report

[CUETools log; Date: 17.11.2021 10:07:19; Version: 2.1.4]
[CTDB TOCID: nDFmP7efzGuP86uAKsf2vAJRZxs-] found.
Track | CTDB Status
1 | (10/10) Accurately ripped
2 | (10/10) Accurately ripped
3 | (10/10) Accurately ripped
4 | (10/10) Accurately ripped
5 | (10/10) Accurately ripped
6 | (10/10) Accurately ripped
7 | (10/10) Accurately ripped
8 | (10/10) Accurately ripped
9 | (10/10) Accurately ripped
10 | (10/10) Accurately ripped
11 | (10/10) Accurately ripped
12 | (10/10) Accurately ripped
13 | (10/10) Accurately ripped
14 | (10/10) Accurately ripped
15 | (10/10) Accurately ripped
16 | (10/10) Accurately ripped
17 | (10/10) Accurately ripped
18 | (10/10) Accurately ripped
[AccurateRip ID: 00290290-0226c523-f80ece12] found.
Track [ CRC | V2 ] Status
01 [2e5647ab|a5339f5a] (2+2/4) Accurately ripped
02 [7e16cf8f|c607eccc] (2+2/4) Accurately ripped
03 [73df1d80|6437c443] (2+2/4) Accurately ripped
04 [8c5bdadb|e03c02a0] (2+2/4) Accurately ripped
05 [1c29b7eb|e2ddbf2f] (2+2/4) Accurately ripped
06 [b818c4fa|86ac1efe] (2+2/4) Accurately ripped
07 [615553d0|2e2413de] (2+2/4) Accurately ripped
08 [016f1d54|ff705af5] (2+2/4) Accurately ripped
09 [34c06609|18b6b8af] (2+2/4) Accurately ripped
10 [42dabc92|22cbbe12] (2+2/4) Accurately ripped
11 [f94589b2|ec7b8f37] (2+2/4) Accurately ripped
12 [d981e88c|7101509d] (2+2/4) Accurately ripped
13 [92b39447|5ec5110b] (2+2/4) Accurately ripped
14 [b7164642|59a8e196] (2+2/4) Accurately ripped
15 [e2993eb6|8f9a3bbd] (2+2/4) Accurately ripped
16 [6f472754|496aba7d] (2+2/4) Accurately ripped
17 [075bb19b|ee4e7667] (2+2/4) Accurately ripped
18 [0c1de2e8|ecdc5d32] (2+2/4) Accurately ripped

Track Peak [ CRC32 ] [W/O NULL] [ LOG ]
– 100,0 [DDE6E834] [7C41501B]
01 99,5 [0E9CF0F1] [768A3D33] CRC32
02 84,7 [FDBD3E05] [5217BD20] CRC32
03 83,3 [942D0A27] [6882DAB7] CRC32
04 100,0 [82376C95] [4553F004] CRC32
05 86,5 [F1D62BB8] [F67346D2] CRC32
06 96,2 [34BB535B] [D5021A07] CRC32
07 87,5 [00CD9C13] [CE7FE95B] CRC32
08 85,2 [85CA7400] [3E8E891D] CRC32
09 100,0 [960C3E7E] [09EB0E31] CRC32
10 100,0 [66B5FD8F] [1AF9EC2F] CRC32
11 74,9 [8635E8E2] [25BAAEBF] CRC32
12 94,0 [E6A9615D] [548CAE53] CRC32
13 100,0 [2832F306] [5F7A2FE8] CRC32
14 100,0 [A1DCEA77] [A26F2F82] CRC32
15 99,4 [C07BCAAD] [AD7CBB08] CRC32
16 76,9 [0AA8A35D] [6A2D4947] CRC32
17 71,3 [85FB994F] [C5BD42E6] CRC32
18 92,5 [02309086] [0C08EA63] CRC32

Thanks to the original releaser

See also: