Subcategories

George Benson - The New Boss Guitar Of (1964) {Prestige Records OJC 461}

Posted By: tiburon
George Benson - The New Boss Guitar Of (1964) {Prestige Records OJC 461}

George Benson - The New Boss Guitar Of (1964) {Prestige Records OJC 461}
EAC 0.99pb5 | FLAC tracks level 8 | Cue+Log+M3U+MD5 | Full Scans 300dpi | 212MB + 5% Recovery
Genre: Jazz

George Benson was only 21 when, on May 1, 1964, he recorded his first album as a leader, The New Boss Guitar of George Benson. At that point, the guitarist had yet to become a huge name in jazz, although many of those who knew Benson for his work with Jack McDuff's group (which he joined in 1962) agreed that he showed great potential.

Track List

01. Shadow Dancers 4:45
02. The Sweet Alice Blues 4:36
03. I Don't Know 6:45
04. Just Another Sunday 2:58
05. Will You Still Be Mine 4:25
06. Easy Living 6:33
07. Rock-A-Bye 3:55
08. My Three Sons 5:37

musicians

George Benson - guitar
Jack McDuff - piano,organ
Red Holloway - tenor sax
Ronnie Boykins - bass
Montego Joe - drums
Joe Dukes - drums on track 8

Produced by Lew Futterman


Exact Audio Copy V0.99 prebeta 5 from 4. May 2009

EAC extraction logfile from 26. December 2009, 12:20

George Benson / The New Boss Guitar Of

Used drive : PLEXTOR CD-R PREMIUM2 Adapter: 1 ID: 1

Read mode : Secure
Utilize accurate stream : Yes
Defeat audio cache : Yes
Make use of C2 pointers : No

Read offset correction : 30
Overread into Lead-In and Lead-Out : No
Fill up missing offset samples with silence : Yes
Delete leading and trailing silent blocks : No
Null samples used in CRC calculations : Yes
Used interface : Installed external ASPI interface
Gap handling : Appended to previous track

Used output format : User Defined Encoder
Selected bitrate : 32 kBit/s
Quality : High
Add ID3 tag : No
Command line compressor : C:\Programmi\FLAC\flac.exe
Additional command line options : -8 -V -T "ARTIST=%a" -T "TITLE=%t" -T "ALBUM=%g" -T "DATE=%y" -T "TRACKNUMBER=%n" -T "GENRE=%m" -T "COMMENT=EAC FLAC -8" %s


TOC of the extracted CD

Track | Start | Length | Start sector | End sector
––––––––––––––––––––––––––––-
1 | 0:00.00 | 4:49.12 | 0 | 21686
2 | 4:49.12 | 4:42.23 | 21687 | 42859
3 | 9:31.35 | 6:52.25 | 42860 | 73784
4 | 16:23.60 | 3:05.27 | 73785 | 87686
5 | 19:29.12 | 4:30.38 | 87687 | 107974
6 | 23:59.50 | 6:41.00 | 107975 | 138049
7 | 30:40.50 | 4:02.00 | 138050 | 156199
8 | 34:42.50 | 5:37.12 | 156200 | 181486


Track 1

Filename D:\My Rip\01 - Shadow Dancers.wav

Pre-gap length 0:00:02.00

Peak level 67.3 %
Track quality 100.0 %
Test CRC 23B2DC5B
Copy CRC 23B2DC5B
Track not present in AccurateRip database
Copy OK

Track 2

Filename D:\My Rip\02 - The Sweet Alice Blues.wav

Pre-gap length 0:00:04.46

Peak level 75.8 %
Track quality 100.0 %
Test CRC 613CCD1D
Copy CRC 613CCD1D
Track not present in AccurateRip database
Copy OK

Track 3

Filename D:\My Rip\03 - I Don't Know.wav

Pre-gap length 0:00:05.13

Peak level 88.7 %
Track quality 100.0 %
Test CRC A523A087
Copy CRC A523A087
Track not present in AccurateRip database
Copy OK

Track 4

Filename D:\My Rip\04 - Just Another Sunday.wav

Pre-gap length 0:00:03.53

Peak level 79.7 %
Track quality 100.0 %
Test CRC BC4EC8F4
Copy CRC BC4EC8F4
Track not present in AccurateRip database
Copy OK

Track 5

Filename D:\My Rip\05 - Will You Still Be Mine.wav

Pre-gap length 0:00:04.40

Peak level 60.7 %
Track quality 100.0 %
Test CRC D9506034
Copy CRC D9506034
Track not present in AccurateRip database
Copy OK

Track 6

Filename D:\My Rip\06 - Easy Living.wav

Pre-gap length 0:00:03.64

Peak level 68.6 %
Track quality 100.0 %
Test CRC 7BC26C2E
Copy CRC 7BC26C2E
Track not present in AccurateRip database
Copy OK

Track 7

Filename D:\My Rip\07 - Rock-A-Bye.wav

Pre-gap length 0:00:04.26

Peak level 74.3 %
Track quality 100.0 %
Test CRC AE71B2AD
Copy CRC AE71B2AD
Track not present in AccurateRip database
Copy OK

Track 8

Filename D:\My Rip\08 - My Three Sons.wav

Pre-gap length 0:00:04.50

Peak level 74.8 %
Track quality 100.0 %
Test CRC E423E59A
Copy CRC E423E59A
Track not present in AccurateRip database
Copy OK


None of the tracks are present in the AccurateRip database

No errors occurred

End of status report
George Benson - The New Boss Guitar Of (1964) {Prestige Records OJC 461}
George Benson - The New Boss Guitar Of (1964) {Prestige Records OJC 461}




The Files Are Interchangeable

A Rip By Sarchiapone

Visit My Blog