Subcategories

George Howard - When Summer Comes (1993) {GRP}

Posted By: tiburon
George Howard - When Summer Comes (1993) {GRP}

George Howard - When Summer Comes (1993) {GRP}
EAC 1.0b3 | FLAC tracks level 8 | Cue+Log+M3U | Full Scans 300dpi | 320MB + 5% Recovery
Genre: Fusion, Jazz Funk
George Howard - When Summer Comes (1993) {GRP}

GRP release "When Summer Comes" is one of the most successful albums of George,confirming his place among the most popular contemporary jazz performers of the '90s.
Track List
01. When Summer Comes 4:36
02. Grazin' In The Grass 4:45
03. Just For Tonight 4:51
04. Hard Times 5:07
05. Three Minute Warning 4:11
06. Family 5:01
07. Only Human 4:53
08. When A Child Smiles 3:51
09. Reach 5:03
10. Out In The Cold 4:32

musicians
George Howard - soprano sax, vocal, drum machine programming
George Duke - keyboards
Stanley Clarke - piccolo bass
Paul Jackson,Jr. - guitar
Vance Taylor - keyboards, drum machine programming
Deron Johnson - acoustic piano
Ronnie Garrett - bass, drum machine programming
Munyungo Jackson - percussion
Sonny Emory - drums
Oliver Leiber - guitar
Sam Sims - bass
Kevin Chokan - acoustic guitar
Rayford Griffin - drums
Darrel Smith - additional keyboards
Everett Harp - alto sax
Michael Stewart - trumpet
Reggie Young - trombone
Leonard Gibbs - percussion
Marva King - lead vocals
Alexandra Brown - background vocals
Carmen Carter - background vocals
Carl Carwell - background vocals
Keith Lewis - keyboards, drum machine programming
Mark Stephens - additional keyboards
Sekou Bunch - additional keyboards
Tommy Organ - guitar
Debra Parson - background vocals

Produced by George Howard


Exact Audio Copy V1.0 beta 3 from 29. August 2011

EAC extraction logfile from 18. June 2013, 17:13

George Howard / When Summer Comes

Used drive : HL-DT-STDVDRAM GH20NS10 Adapter: 2 ID: 1

Read mode : Secure
Utilize accurate stream : Yes
Defeat audio cache : Yes
Make use of C2 pointers : No

Read offset correction : 667
Overread into Lead-In and Lead-Out : No
Fill up missing offset samples with silence : Yes
Delete leading and trailing silent blocks : No
Null samples used in CRC calculations : Yes
Used interface : Native Win32 interface for Win NT & 2000
Gap handling : Appended to previous track

Used output format : User Defined Encoder
Selected bitrate : 1024 kBit/s
Quality : High
Add ID3 tag : No
Command line compressor : C:\Program Files\Exact Audio Copy\Flac\flac.exe
Additional command line options : -8 -V -T "ARTIST=%artist%" -T "TITLE=%title%" -T "ALBUM=%albumtitle%" -T "DATE=%year%" -T "TRACKNUMBER=%tracknr%" -T "TOTALTRACKS=%numtracks%" -T "GENRE=%genre%" -T "ALBUMARTIST=%albumartist%" -T "ALBUM ARTIST=%albumartist%" -T "COMMENT=EAC Secure Mode, Test & Copy, AccurateRip, FLAC -8" %source%


TOC of the extracted CD

Track | Start | Length | Start sector | End sector
––––––––––––––––––––––––––––-
1 | 0:00.00 | 4:36.27 | 0 | 20726
2 | 4:36.27 | 4:45.15 | 20727 | 42116
3 | 9:21.42 | 4:52.58 | 42117 | 64074
4 | 14:14.25 | 5:07.37 | 64075 | 87136
5 | 19:21.62 | 4:11.18 | 87137 | 105979
6 | 23:33.05 | 5:01.32 | 105980 | 128586
7 | 28:34.37 | 4:53.70 | 128587 | 150631
8 | 33:28.32 | 3:52.20 | 150632 | 168051
9 | 37:20.52 | 5:04.38 | 168052 | 190889
10 | 42:25.15 | 4:33.17 | 190890 | 211381


Track 1

Filename D:\George Howard - When Summer Comes (1993) [FLAC]\01 - When Summer Comes.wav

Pre-gap length 0:00:02.00

Peak level 99.6 %
Extraction speed 4.7 X
Track quality 100.0 %
Test CRC 6540BAA5
Copy CRC 6540BAA5
Accurately ripped (confidence 5) [2097B117] (AR v1)
Copy OK

Track 2

Filename D:\George Howard - When Summer Comes (1993) [FLAC]\02 - Grazin' In The Grass.wav

Peak level 98.0 %
Extraction speed 4.1 X
Track quality 99.9 %
Test CRC 70E57456
Copy CRC 70E57456
Accurately ripped (confidence 5) [2D4B2E0A] (AR v1)
Copy OK

Track 3

Filename D:\George Howard - When Summer Comes (1993) [FLAC]\03 - Just For Tonight.wav

Pre-gap length 0:00:00.34

Peak level 98.8 %
Extraction speed 4.5 X
Track quality 99.9 %
Test CRC 9AB17A3D
Copy CRC 9AB17A3D
Accurately ripped (confidence 5) [81B979EB] (AR v1)
Copy OK

Track 4

Filename D:\George Howard - When Summer Comes (1993) [FLAC]\04 - Hard Times.wav

Pre-gap length 0:00:01.57

Peak level 100.0 %
Extraction speed 6.5 X
Track quality 100.0 %
Test CRC 1033CA44
Copy CRC 1033CA44
Accurately ripped (confidence 5) [40469014] (AR v1)
Copy OK

Track 5

Filename D:\George Howard - When Summer Comes (1993) [FLAC]\05 - Three Minute Warning.wav

Pre-gap length 0:00:00.54

Peak level 100.0 %
Extraction speed 6.5 X
Track quality 100.0 %
Test CRC 87039635
Copy CRC 87039635
Accurately ripped (confidence 5) [AA7DD89C] (AR v1)
Copy OK

Track 6

Filename D:\George Howard - When Summer Comes (1993) [FLAC]\06 - Family.wav

Pre-gap length 0:00:00.42

Peak level 98.7 %
Extraction speed 5.7 X
Track quality 99.9 %
Test CRC D74564E7
Copy CRC D74564E7
Accurately ripped (confidence 5) [E1ADA057] (AR v1)
Copy OK

Track 7

Filename D:\George Howard - When Summer Comes (1993) [FLAC]\07 - Only Human.wav

Pre-gap length 0:00:01.21

Peak level 99.5 %
Extraction speed 6.3 X
Track quality 100.0 %
Test CRC A13AAEBA
Copy CRC A13AAEBA
Accurately ripped (confidence 5) [F97FE894] (AR v1)
Copy OK

Track 8

Filename D:\George Howard - When Summer Comes (1993) [FLAC]\08 - When A Child Smiles.wav

Pre-gap length 0:00:01.30

Peak level 100.0 %
Extraction speed 4.8 X
Track quality 100.0 %
Test CRC D12999A0
Copy CRC D12999A0
Accurately ripped (confidence 5) [8E694875] (AR v1)
Copy OK

Track 9

Filename D:\George Howard - When Summer Comes (1993) [FLAC]\09 - Reach.wav

Pre-gap length 0:00:00.46

Peak level 99.8 %
Extraction speed 5.2 X
Track quality 100.0 %
Test CRC FAF6B756
Copy CRC FAF6B756
Accurately ripped (confidence 5) [A2B52DA6] (AR v1)
Copy OK

Track 10

Filename D:\George Howard - When Summer Comes (1993) [FLAC]\10 - Out In The Cold.wav

Pre-gap length 0:00:00.72

Peak level 99.3 %
Extraction speed 4.1 X
Track quality 99.9 %
Test CRC 057E5369
Copy CRC 057E5369
Accurately ripped (confidence 5) [7FC9DAE5] (AR v1)
Copy OK


All tracks accurately ripped

No errors occurred

End of status report

==== Log checksum DB36901567793FE58EA0B8305A36CCEBA151354BB7454D07888CB17D50D996A1 ====


––––––––––––––––––––––––––––––––––––––––
Analyzed: George Howard / When Summer Comes
––––––––––––––––––––––––––––––––––––––––

DR Peak RMS Duration Track
––––––––––––––––––––––––––––––––––––––––
DR12 -0.03 dB -13.23 dB 4:36 01-When Summer Comes
DR10 -0.17 dB -12.15 dB 4:45 02-Grazin' In The Grass
DR12 -0.10 dB -14.09 dB 4:53 03-Just For Tonight
DR11 0.00 dB -12.98 dB 5:07 04-Hard Times
DR12 0.00 dB -13.67 dB 4:11 05-Three Minute Warning
DR12 -0.11 dB -14.12 dB 5:01 06-Family
DR12 -0.04 dB -13.89 dB 4:54 07-Only Human
DR12 0.00 dB -14.52 dB 3:52 08-When A Child Smiles
DR11 -0.01 dB -13.28 dB 5:05 09-Reach
DR10 -0.05 dB -12.25 dB 4:33 10-Out In The Cold
––––––––––––––––––––––––––––––––––––––––

Number of tracks: 10
Official DR value: DR12

Samplerate: 44100 Hz
Channels: 2
Bits per sample: 16
Bitrate: 913 kbps
Codec: FLAC
================================================================================

George Howard - When Summer Comes (1993) {GRP}
George Howard - When Summer Comes (1993) {GRP}
George Howard - When Summer Comes (1993) {GRP}