Subcategories
Tags
Language
Tags

Georgie Auld - Four Classic Albums (1955-1960) [Reissue 2016]

Posted By: gribovar
Georgie Auld - Four Classic Albums (1955-1960) [Reissue 2016]

Georgie Auld - Four Classic Albums (1955-1960) [Reissue 2016]
EAC Rip | FLAC (image+.cue+log) - 521 MB | MP3 CBR 320 kbps (LAME 3.93) - 340 MB | Covers - 28 MB
Genre: Jazz, Swing, Big Band | RAR 3% Rec. | Label: Avid Jazz (EMSC 1192)

Avid Jazz continues with its Four Classic album series with a re-mastered 2CD release by Georgie Auld, complete with original artwork and liner notes. “In The Land Of Hi-Fi”; “Misty”; “The Melody Lingers On” and “Good Enough To Keep”.
For our four albums by swing tenor saxophonist Georgie Auld we are taking a musical journey through the many styles Auld has played over a career going back to the 1930’s when he joined the Bunny Berigan band from 1937-38. In a career spanning over fifty years Auld has also played with many of the greats including Artie Shaw (1938-39), Benny Goodman in the early forties, Erroll Garner, Dizzy Gillespie, Maynard Ferguson, Billy Eckstine and Ella Fitzgerald. We kick off with big band Auld with “In The Land Of Hi-Fi”, move on to solo Auld, “Misty” where the tenor is joined only by organ on one track and orchestra on four others, as the liner notes testify “a master in pretty mood”. “The Melody Lingers On” finds Auld joined by top vocal group the Mello Larks for some Manny Albam arranged music for dancing and easy listening! Finally we return to the sound of the Georgie Auld Sextet for “Good Enough To Keep” where the band re-visit the world of the Benny Goodman Sextet recordings of which Auld had been an integral part.
CD 1 Tracklist:

In the Land of Hi-Fi (1956):
01. In the Land of Hi-Fi
02. For You
03. Until the Real Thing Comes Along
04. Tippin' In
05. Sunday Kind of Love
06. I May Be Wrong
07. Swingin' in the Moore Park
08. If I Loved You
09. Dinah
10. They Can't Take That Away from Me
11. My Blue Heaven
12. Love Is Just Around the Corner

Misty (1955):
13. Misty
14. Spring It Was
15. Francie's Theme
16. Summer Time
17. Your Kiss
18. Blue and Sentimental
19. You'll Love France
20. The Touch of Your Lips
21. Unexpected
22. You'll Never Know
23. Take My Word
24. Tenderly

Total time: 01:08:08

CD 2 Tracklist:

The Melody Lingers On (1959):
01. Moon Love
02. I Think of You
03. Indian Summer
04. Sailin' On
05. Story of a Starry Night
06. Full Moon and Empty Arms
07. Our Love
08. The Lamp Is Low
09. My Reverie
10. If You Are But a Dream
11. I'm Always Chasing Rainbows
12. Stranger in Paradise

Good Enough to Keep (1960):
13. Good Enough to Keep (Air Mail Special)
14. On the Alamo
15. Seven Come Eleven
16. Soft Winds
17. Wholly Cats
18. Flying Home
19. Benny's Bugle
20. Rose Room
21. A Smooth One
22. Sweet Lorraine
23. I Found a New Baby
24. Scarecrow

Total time: 01:16:12

Exact Audio Copy V1.3 from 2. September 2016

EAC extraction logfile from 11. April 2020, 20:41

Georgie Auld / Four Classic Albums - CD1

Used drive : TSSTcorpCDDVDW SH-224FB Adapter: 1 ID: 0

Read mode : Secure
Utilize accurate stream : Yes
Defeat audio cache : Yes
Make use of C2 pointers : No

Read offset correction : 6
Overread into Lead-In and Lead-Out : No
Fill up missing offset samples with silence : Yes
Delete leading and trailing silent blocks : No
Null samples used in CRC calculations : Yes
Used interface : Native Win32 interface for Win NT & 2000

Used output format : User Defined Encoder
Selected bitrate : 128 kBit/s
Quality : High
Add ID3 tag : No
Command line compressor : C:\Program Files (x86)\Exact Audio Copy\Flac\flac.exe
Additional command line options : -V -8 -T "Genre=%genre%" -T "Artist=%artist%" -T "Title=%title%" -T "Album=%albumtitle%" -T "Date=%year%" -T "Tracknumber=%tracknr%" -T "Comment=%comment%" %source%


TOC of the extracted CD

Track | Start | Length | Start sector | End sector
––––––––––––––––––––––––––––-
1 | 0:00.00 | 4:17.14 | 0 | 19288
2 | 4:17.14 | 2:27.33 | 19289 | 30346
3 | 6:44.47 | 2:24.39 | 30347 | 41185
4 | 9:09.11 | 3:12.54 | 41186 | 55639
5 | 12:21.65 | 2:27.19 | 55640 | 66683
6 | 14:49.09 | 3:57.30 | 66684 | 84488
7 | 18:46.39 | 3:07.27 | 84489 | 98540
8 | 21:53.66 | 2:49.34 | 98541 | 111249
9 | 24:43.25 | 2:37.51 | 111250 | 123075
10 | 27:21.01 | 2:48.69 | 123076 | 135744
11 | 30:09.70 | 2:59.61 | 135745 | 149230
12 | 33:09.56 | 3:00.50 | 149231 | 162780
13 | 36:10.31 | 2:24.48 | 162781 | 173628
14 | 38:35.04 | 2:28.13 | 173629 | 184741
15 | 41:03.17 | 3:26.57 | 184742 | 200248
16 | 44:29.74 | 2:32.37 | 200249 | 211685
17 | 47:02.36 | 2:42.30 | 211686 | 223865
18 | 49:44.66 | 2:37.37 | 223866 | 235677
19 | 52:22.28 | 2:50.71 | 235678 | 248498
20 | 55:13.24 | 2:22.24 | 248499 | 259172
21 | 57:35.48 | 2:22.05 | 259173 | 269827
22 | 59:57.53 | 2:18.09 | 269828 | 280186
23 | 62:15.62 | 3:14.03 | 280187 | 294739
24 | 65:29.65 | 2:37.62 | 294740 | 306576


Range status and errors

Selected range

Filename D:\ssagwebster\Georgie Auld - Four Classic Albums (2CD, 2016)\CD1\Georgie Auld - Four Classic Albums - CD1.wav

Peak level 92.9 %
Extraction speed 3.3 X
Range quality 100.0 %
Test CRC 22CCE85F
Copy CRC 22CCE85F
Copy OK

No errors occurred


AccurateRip summary

Track 1 accurately ripped (confidence 2) [EE5C6F15] (AR v2)
Track 2 accurately ripped (confidence 2) [E67E0B94] (AR v2)
Track 3 accurately ripped (confidence 2) [16816FDB] (AR v2)
Track 4 accurately ripped (confidence 2) [A65FC832] (AR v2)
Track 5 accurately ripped (confidence 2) [352CDF37] (AR v2)
Track 6 accurately ripped (confidence 2) [8907ED76] (AR v2)
Track 7 accurately ripped (confidence 2) [4E04C44B] (AR v2)
Track 8 accurately ripped (confidence 2) [6628AD6E] (AR v2)
Track 9 accurately ripped (confidence 2) [378323B2] (AR v2)
Track 10 accurately ripped (confidence 2) [AF9EEBB7] (AR v2)
Track 11 accurately ripped (confidence 2) [719EDB54] (AR v2)
Track 12 accurately ripped (confidence 2) [FB808D67] (AR v2)
Track 13 accurately ripped (confidence 2) [8B042E96] (AR v2)
Track 14 accurately ripped (confidence 2) [6A2C7E04] (AR v2)
Track 15 accurately ripped (confidence 2) [DAC34A42] (AR v2)
Track 16 accurately ripped (confidence 2) [AC543B84] (AR v2)
Track 17 accurately ripped (confidence 2) [BF152AEF] (AR v2)
Track 18 accurately ripped (confidence 2) [2FB489DF] (AR v2)
Track 19 accurately ripped (confidence 2) [15C3555D] (AR v2)
Track 20 accurately ripped (confidence 2) [EF645ED8] (AR v2)
Track 21 accurately ripped (confidence 2) [9223ADBB] (AR v2)
Track 22 accurately ripped (confidence 2) [3884DB05] (AR v2)
Track 23 accurately ripped (confidence 2) [FBAA48BF] (AR v2)
Track 24 accurately ripped (confidence 2) [75261731] (AR v2)

All tracks accurately ripped

End of status report

==== Log checksum 68F0B742D84048475EF1C129236D9967861CEE7E544203516F485212375214F1 ====

[CUETools log; Date: 19.07.2020 12:45:55; Version: 2.1.4]
[CTDB TOCID: 4lOoWhptmIJeQ2uN2rnuCKnViOE-] found.
Track | CTDB Status
1 | (2/2) Accurately ripped
2 | (2/2) Accurately ripped
3 | (2/2) Accurately ripped
4 | (2/2) Accurately ripped
5 | (2/2) Accurately ripped
6 | (2/2) Accurately ripped
7 | (2/2) Accurately ripped
8 | (2/2) Accurately ripped
9 | (2/2) Accurately ripped
10 | (2/2) Accurately ripped
11 | (2/2) Accurately ripped
12 | (2/2) Accurately ripped
13 | (2/2) Accurately ripped
14 | (2/2) Accurately ripped
15 | (2/2) Accurately ripped
16 | (2/2) Accurately ripped
17 | (2/2) Accurately ripped
18 | (2/2) Accurately ripped
19 | (2/2) Accurately ripped
20 | (2/2) Accurately ripped
21 | (2/2) Accurately ripped
22 | (2/2) Accurately ripped
23 | (2/2) Accurately ripped
24 | (2/2) Accurately ripped
[AccurateRip ID: 003c8889-040e060c-690ff718] found.
Track [ CRC | V2 ] Status
01 [f2b5f76c|ee5c6f15] (0+2/2) Accurately ripped
02 [4124c490|e67e0b94] (0+2/2) Accurately ripped
03 [c5d1f0fb|16816fdb] (0+2/2) Accurately ripped
04 [ccb1afa8|a65fc832] (0+2/2) Accurately ripped
05 [ca74c79d|352cdf37] (0+2/2) Accurately ripped
06 [28979c82|8907ed76] (0+2/2) Accurately ripped
07 [16b2eecd|4e04c44b] (0+2/2) Accurately ripped
08 [70f8293e|6628ad6e] (0+2/2) Accurately ripped
09 [26fd16bf|378323b2] (0+2/2) Accurately ripped
10 [03fce122|af9eebb7] (0+2/2) Accurately ripped
11 [240bd9d7|719edb54] (0+2/2) Accurately ripped
12 [bbb578a7|fb808d67] (0+2/2) Accurately ripped
13 [3856e613|8b042e96] (0+2/2) Accurately ripped
14 [ec2d199b|6a2c7e04] (0+2/2) Accurately ripped
15 [3bd78fe2|dac34a42] (0+2/2) Accurately ripped
16 [c94a89ac|ac543b84] (0+2/2) Accurately ripped
17 [6a970902|bf152aef] (0+2/2) Accurately ripped
18 [9901207a|2fb489df] (0+2/2) Accurately ripped
19 [d9c0cfc2|15c3555d] (0+2/2) Accurately ripped
20 [cbca6aed|ef645ed8] (0+2/2) Accurately ripped
21 [55d36911|9223adbb] (0+2/2) Accurately ripped
22 [79a2620e|3884db05] (0+2/2) Accurately ripped
23 [cd010545|fbaa48bf] (0+2/2) Accurately ripped
24 [e7cfbb7a|75261731] (0+2/2) Accurately ripped

Track Peak [ CRC32 ] [W/O NULL] [ LOG ]
– 92,9 [22CCE85F] [630B27F8] CRC32
01 92,5 [AC66A2F9] [AB9D0F8D]
02 92,6 [6FCDC2ED] [5B908C00]
03 87,4 [B014758E] [87B0091D]
04 90,2 [2733E923] [D5960E90]
05 82,5 [CA161EB2] [89AE615B]
06 90,8 [67C8C573] [33E344F1]
07 82,6 [0FC14D50] [A7E415A6]
08 90,6 [48CAC572] [DC7BCB2A]
09 92,0 [885C72E7] [B1A2279B]
10 92,5 [121A6A67] [0618A9B5]
11 92,9 [E19359B7] [137A2468]
12 82,6 [9C491738] [A445D2D7]
13 69,7 [0F852478] [C2885E56]
14 73,8 [84869076] [DE3FE3E4]
15 70,9 [2A30C161] [F19E318A]
16 71,9 [45F2DCA2] [984D279D]
17 67,6 [8B36ED7E] [15B2D890]
18 69,8 [52A18C1C] [516FB5C9]
19 86,3 [2F9456B2] [5C279CCE]
20 77,4 [EC065679] [402D8D04]
21 78,1 [37DFA50D] [4A164760]
22 71,7 [E6A51CD6] [AA81998D]
23 79,7 [1E882085] [6304D5B8]
24 74,2 [A4CE9C28] [56013F7E]

Exact Audio Copy V1.3 from 2. September 2016

EAC extraction logfile from 11. April 2020, 21:31

Georgie Auld / Four Classic Albums - CD2

Used drive : TSSTcorpCDDVDW SH-224FB Adapter: 1 ID: 0

Read mode : Secure
Utilize accurate stream : Yes
Defeat audio cache : Yes
Make use of C2 pointers : No

Read offset correction : 6
Overread into Lead-In and Lead-Out : No
Fill up missing offset samples with silence : Yes
Delete leading and trailing silent blocks : No
Null samples used in CRC calculations : Yes
Used interface : Native Win32 interface for Win NT & 2000

Used output format : User Defined Encoder
Selected bitrate : 128 kBit/s
Quality : High
Add ID3 tag : No
Command line compressor : C:\Program Files (x86)\Exact Audio Copy\Flac\flac.exe
Additional command line options : -V -8 -T "Genre=%genre%" -T "Artist=%artist%" -T "Title=%title%" -T "Album=%albumtitle%" -T "Date=%year%" -T "Tracknumber=%tracknr%" -T "Comment=%comment%" %source%


TOC of the extracted CD

Track | Start | Length | Start sector | End sector
––––––––––––––––––––––––––––-
1 | 0:00.00 | 2:54.44 | 0 | 13093
2 | 2:54.44 | 2:27.69 | 13094 | 24187
3 | 5:22.38 | 2:35.34 | 24188 | 35846
4 | 7:57.72 | 2:05.07 | 35847 | 45228
5 | 10:03.04 | 2:53.25 | 45229 | 58228
6 | 12:56.29 | 2:50.21 | 58229 | 70999
7 | 15:46.50 | 2:38.63 | 71000 | 82912
8 | 18:25.38 | 3:11.21 | 82913 | 97258
9 | 21:36.59 | 2:40.44 | 97259 | 109302
10 | 24:17.28 | 2:49.55 | 109303 | 122032
11 | 27:07.08 | 2:15.10 | 122033 | 132167
12 | 29:22.18 | 2:16.38 | 132168 | 142405
13 | 31:38.56 | 3:18.45 | 142406 | 157300
14 | 34:57.26 | 2:36.41 | 157301 | 169041
15 | 37:33.67 | 3:15.19 | 169042 | 183685
16 | 40:49.11 | 4:23.18 | 183686 | 203428
17 | 45:12.29 | 4:19.55 | 203429 | 222908
18 | 49:32.09 | 3:49.53 | 222909 | 240136
19 | 53:21.62 | 3:53.09 | 240137 | 257620
20 | 57:14.71 | 2:48.19 | 257621 | 270239
21 | 60:03.15 | 4:28.16 | 270240 | 290355
22 | 64:31.31 | 3:50.74 | 290356 | 307679
23 | 68:22.30 | 4:52.45 | 307680 | 329624
24 | 73:15.00 | 2:56.73 | 329625 | 342897


Range status and errors

Selected range

Filename D:\ssagwebster\Georgie Auld - Four Classic Albums (2CD, 2016)\CD2\Georgie Auld - Four Classic Albums - CD2.wav

Peak level 97.7 %
Extraction speed 3.4 X
Range quality 99.9 %
Test CRC DFFB795B
Copy CRC DFFB795B
Copy OK

No errors occurred


AccurateRip summary

Track 1 accurately ripped (confidence 2) [B6FB5209] (AR v2)
Track 2 accurately ripped (confidence 2) [F094EB27] (AR v2)
Track 3 accurately ripped (confidence 2) [EE2CECFF] (AR v2)
Track 4 accurately ripped (confidence 2) [2431F818] (AR v2)
Track 5 accurately ripped (confidence 2) [ABB01007] (AR v2)
Track 6 accurately ripped (confidence 2) [B2E0A873] (AR v2)
Track 7 accurately ripped (confidence 2) [F89CED62] (AR v2)
Track 8 accurately ripped (confidence 2) [649C24FB] (AR v2)
Track 9 accurately ripped (confidence 2) [541E0F1D] (AR v2)
Track 10 accurately ripped (confidence 2) [C1531926] (AR v2)
Track 11 accurately ripped (confidence 2) [9A81D841] (AR v2)
Track 12 accurately ripped (confidence 2) [6D6EFA62] (AR v2)
Track 13 accurately ripped (confidence 2) [56D2595B] (AR v2)
Track 14 accurately ripped (confidence 2) [505C7196] (AR v2)
Track 15 accurately ripped (confidence 2) [E86FF013] (AR v2)
Track 16 accurately ripped (confidence 2) [AA8FEC26] (AR v2)
Track 17 accurately ripped (confidence 2) [3E619DE8] (AR v2)
Track 18 accurately ripped (confidence 2) [3E59C2AD] (AR v2)
Track 19 accurately ripped (confidence 2) [CA1A0ECF] (AR v2)
Track 20 accurately ripped (confidence 2) [5F6A7FBD] (AR v2)
Track 21 accurately ripped (confidence 2) [B6701A2F] (AR v2)
Track 22 accurately ripped (confidence 2) [B98BBDAC] (AR v2)
Track 23 accurately ripped (confidence 2) [B19CE915] (AR v2)
Track 24 accurately ripped (confidence 2) [7092F283] (AR v2)

All tracks accurately ripped

End of status report

==== Log checksum 4C008F7AD66FE18B35BBB3CCBD4C038000FBCA77E1064BAC7677A6ED6B061E89 ====

[CUETools log; Date: 19.07.2020 12:46:30; Version: 2.1.4]
[CTDB TOCID: 2twRe1I0II_dkpdoo7wOERAsEA4-] found.
Track | CTDB Status
1 | (2/2) Accurately ripped
2 | (2/2) Accurately ripped
3 | (2/2) Accurately ripped
4 | (2/2) Accurately ripped
5 | (2/2) Accurately ripped
6 | (2/2) Accurately ripped
7 | (2/2) Accurately ripped
8 | (2/2) Accurately ripped
9 | (2/2) Accurately ripped
10 | (2/2) Accurately ripped
11 | (2/2) Accurately ripped
12 | (2/2) Accurately ripped
13 | (2/2) Accurately ripped
14 | (2/2) Accurately ripped
15 | (2/2) Accurately ripped
16 | (2/2) Accurately ripped
17 | (2/2) Accurately ripped
18 | (2/2) Accurately ripped
19 | (2/2) Accurately ripped
20 | (2/2) Accurately ripped
21 | (2/2) Accurately ripped
22 | (2/2) Accurately ripped
23 | (2/2) Accurately ripped
24 | (2/2) Accurately ripped
[AccurateRip ID: 003ba3f1-04201532-6f11db18] found.
Track [ CRC | V2 ] Status
01 [715bce59|b6fb5209] (0+2/2) Accurately ripped
02 [91944c9d|f094eb27] (0+2/2) Accurately ripped
03 [abcb9366|ee2cecff] (0+2/2) Accurately ripped
04 [11f3989a|2431f818] (0+2/2) Accurately ripped
05 [a57a6cff|abb01007] (0+2/2) Accurately ripped
06 [9ee82847|b2e0a873] (0+2/2) Accurately ripped
07 [1a56c092|f89ced62] (0+2/2) Accurately ripped
08 [a6d19b79|649c24fb] (0+2/2) Accurately ripped
09 [c41fe204|541e0f1d] (0+2/2) Accurately ripped
10 [2b87c9af|c1531926] (0+2/2) Accurately ripped
11 [2eb1e9f0|9a81d841] (0+2/2) Accurately ripped
12 [0e6e027c|6d6efa62] (0+2/2) Accurately ripped
13 [c5f8c05f|56d2595b] (0+2/2) Accurately ripped
14 [3a0a1f10|505c7196] (0+2/2) Accurately ripped
15 [97320232|e86ff013] (0+2/2) Accurately ripped
16 [6c049619|aa8fec26] (0+2/2) Accurately ripped
17 [0266cbdf|3e619de8] (0+2/2) Accurately ripped
18 [b05d9d96|3e59c2ad] (0+2/2) Accurately ripped
19 [a6e62272|ca1a0ecf] (0+2/2) Accurately ripped
20 [81358341|5f6a7fbd] (0+2/2) Accurately ripped
21 [88773e2a|b6701a2f] (0+2/2) Accurately ripped
22 [83dec184|b98bbdac] (0+2/2) Accurately ripped
23 [e8d6cc41|b19ce915] (0+2/2) Accurately ripped
24 [a9816911|7092f283] (0+2/2) Accurately ripped

Track Peak [ CRC32 ] [W/O NULL] [ LOG ]
– 97,7 [DFFB795B] [D2E85FEA] CRC32
01 76,8 [92B83560] [C3BC5F6F]
02 82,3 [A596F942] [C6386124]
03 78,1 [64942D12] [380DB3DC]
04 79,7 [9EEB3FD7] [18C6F37E]
05 65,6 [8BBB6D43] [9ACC56BA]
06 88,6 [D3C054EB] [56AE7B99]
07 74,3 [6D94DCA1] [3CA1D583]
08 72,5 [EAC0CCD9] [275D02F8]
09 81,2 [DB6A4C3F] [C541C31D]
10 83,3 [59DE8ECD] [4866C496]
11 77,0 [E6FBC8C7] [2EA16032]
12 89,5 [5C34E3B5] [2296FDFA]
13 89,4 [20040FA9] [CBC6B607]
14 81,3 [8808D57D] [9A9A89BC]
15 88,7 [BFB4FB22] [69FB9AB8]
16 90,3 [31E1132D] [C694F1FB]
17 97,7 [C2DA5846] [75A5FB9E]
18 84,5 [383271AB] [CB57DA3D]
19 89,5 [2BDC3371] [81CEB234]
20 88,9 [A0BEA16C] [FCA8C9CA]
21 88,4 [6C563380] [AC8F8D13]
22 76,1 [1AF30DF6] [B2BEEA19]
23 93,0 [22049437] [0B6366FF]
24 89,0 [35ACB354] [82E081F1]

Thanks to ssagwebster