Tags
Language
Tags

Gerard Lesne, Il Seminario musicale - Vivaldi: Salve Regina, Violin concerto RV 581; Galuppi: Motets (2004)

Posted By: ArlegZ
Gerard Lesne,  Il Seminario musicale - Vivaldi: Salve Regina, Violin concerto RV 581; Galuppi: Motets (2004)

Gérard Lesne, Il Seminario musicale - Vivaldi: Salve Regina, Violin concerto RV 581; Galuppi: Motets (2004)
EAC | FLAC | Image (Cue & Log) ~ 507 Mb | Total time: 66:34+56:29 | Scans included
Classical | Label: Virgin | # 5 62413 2 | Recorded: 1991-92

Gérard Lesne founded the Il Seminario musicale Ensemble in 1985. Since 1990, the Ensemble has been in residence at the Royaumont Foundation, where it attracts vocalists and instrumentalists who share Lesne's enthusiam for the 17th and 18th century Italian repertoire. The musicians perform on old instruments and strive to reproduce as faithfully as possible the lilt and narrative line characteristic of the baroque style as expressed in works by composers such as Monteverdi, Cavalli, Scarlatti, Vivaldi, Caldara, Pergolesi, and the others. The size of the ensemble is variable depending on the repertoire. Based on a rich and varied continuo section (theorbo, cello, basson, double bass, organ and harpsichord) supporting one or more soloists, it can be expanded with the addition of a string quartet to make a small chamber orchestra suitable for performing chamber operas. Responsibility for the Ensemble's musical direction is shared by the instrumentalists and vocalists.

Performer:
Gérard Lesne, alto & direction
Véronique Gens, soprano
Peter Harvey, bass
Fabio Biondi, violin
Il Seminario musicale

Track List:
CD1:
Antonio Vivaldi (1678-1741)
01. Salve Regina in C minor RV616
02. Non in pratis aut in hortis RV641(Introduzione al Miserere)
Concerto in C major for violin & double orchestra RV581, 'per la Santissima Assenzione di Maria Vergine'
03. I. Adagio e staccato - Allegro
04. II. Largo
05. III. Allegro
06. Cur sagittas, cur tela, cur faces RV637 (Introduzione al Gloria)
07. Salve Regina in G minor RV618
CD2:
Baldassare Galuppi (1706-1785)
Confitebor tibi, Domine
01. Confitebor tibi, Domine
02. Magna opera Domini
03. Confessio et magnificentia
04. Memoriam fecit mirabilium
05. Memor erit in saeculum
06. Ut det illis haeraditatem
07. Fidelia omnia mandata eius
08. Redemptionem misit
09. Sanctum et terribile
10. Intellectus bonus
11. Gloria
12. Sicut erat in principio
Arripe alpestri ad vallem
13. Arripe alpestri ad vallem
14. Ah! Quo fugio, quo vado?
15. Sereni affectus mei
16. Alleluia


Exact Audio Copy V1.6 from 23. October 2020

EAC extraction logfile from 24. August 2021, 16:36

Gérard Lesne, Il Seminario Musicale / Vivaldi - Salve Regina, Motets

Used drive : PIONEER DVD-RW DVR-218L Adapter: 1 ID: 0

Read mode : Secure
Utilize accurate stream : Yes
Defeat audio cache : Yes
Make use of C2 pointers : No

Read offset correction : 6
Overread into Lead-In and Lead-Out : No
Fill up missing offset samples with silence : Yes
Delete leading and trailing silent blocks : No
Null samples used in CRC calculations : Yes
Used interface : Native Win32 interface for Win NT & 2000

Used output format : User Defined Encoder
Selected bitrate : 128 kBit/s
Quality : High
Add ID3 tag : No
Command line compressor : C:\Program Files\Exact Audio Copy\Flac\flac.exe
Additional command line options : -V -8 -T "Date=%year%" -T "Genre=%genre%" %source%


TOC of the extracted CD

Track | Start | Length | Start sector | End sector
––––––––––––––––––––––––––––-
1 | 0:00.00 | 13:43.62 | 0 | 61786
2 | 13:43.62 | 17:07.23 | 61787 | 138834
3 | 30:51.10 | 5:28.62 | 138835 | 163496
4 | 36:19.72 | 2:58.15 | 163497 | 176861
5 | 39:18.12 | 5:00.10 | 176862 | 199371
6 | 44:18.22 | 8:47.73 | 199372 | 238969
7 | 53:06.20 | 13:26.20 | 238970 | 299439


Range status and errors

Selected range

Filename C:\ArlegZ\Vivaldi - Salve Regina, Motets - Gérard Lesne.wav

Peak level 100.0 %
Extraction speed 2.0 X
Range quality 100.0 %
Test CRC 392478C0
Copy CRC 392478C0
Copy OK

No errors occurred


AccurateRip summary

Track 1 accurately ripped (confidence 5) [060EEC87] (AR v2)
Track 2 accurately ripped (confidence 5) [6C5E414E] (AR v2)
Track 3 accurately ripped (confidence 5) [63CB2CBB] (AR v2)
Track 4 accurately ripped (confidence 5) [606CB69D] (AR v2)
Track 5 accurately ripped (confidence 5) [11284536] (AR v2)
Track 6 accurately ripped (confidence 5) [C1DE4AC3] (AR v2)
Track 7 accurately ripped (confidence 5) [8706DAC5] (AR v2)

All tracks accurately ripped

End of status report

–– CUETools DB Plugin V2.1.6

[CTDB TOCID: FTy8hzifEU1LWljxt9HKzGAJXs0-] found
Submit result: FTy8hzifEU1LWljxt9HKzGAJXs0- has been confirmed
Track | CTDB Status
1 | (54/55) Accurately ripped
2 | (54/55) Accurately ripped
3 | (54/55) Accurately ripped
4 | (54/55) Accurately ripped
5 | (54/55) Accurately ripped
6 | (55/55) Accurately ripped
7 | (14/55) Accurately ripped, or (38/55) differs in 1014 samples @13:26:09-13:26:10
If you are sure that your rip contains errors, you can use CUETools to repair it.


==== Log checksum 83B7EB05C162470FF08281F66D28088D8CEEFE8A4E8BF9F9D3BD0A9E06665596 ====


Exact Audio Copy V1.6 from 23. October 2020

EAC extraction logfile from 24. August 2021, 17:40

Gérard Lesne, Il Seminario Musicale / Galuppi - Motets

Used drive : PIONEER DVD-RW DVR-218L Adapter: 1 ID: 0

Read mode : Secure
Utilize accurate stream : Yes
Defeat audio cache : Yes
Make use of C2 pointers : No

Read offset correction : 6
Overread into Lead-In and Lead-Out : No
Fill up missing offset samples with silence : Yes
Delete leading and trailing silent blocks : No
Null samples used in CRC calculations : Yes
Used interface : Native Win32 interface for Win NT & 2000

Used output format : User Defined Encoder
Selected bitrate : 128 kBit/s
Quality : High
Add ID3 tag : No
Command line compressor : C:\Program Files\Exact Audio Copy\Flac\flac.exe
Additional command line options : -V -8 -T "Date=%year%" -T "Genre=%genre%" %source%


TOC of the extracted CD

Track | Start | Length | Start sector | End sector
––––––––––––––––––––––––––––-
1 | 0:00.00 | 3:48.25 | 0 | 17124
2 | 3:48.25 | 3:04.55 | 17125 | 30979
3 | 6:53.05 | 2:55.22 | 30980 | 44126
4 | 9:48.27 | 2:57.63 | 44127 | 57464
5 | 12:46.15 | 3:23.50 | 57465 | 72739
6 | 16:09.65 | 2:14.57 | 72740 | 82846
7 | 18:24.47 | 3:34.05 | 82847 | 98901
8 | 21:58.52 | 2:02.25 | 98902 | 108076
9 | 24:01.02 | 2:10.30 | 108077 | 117856
10 | 26:11.32 | 1:41.63 | 117857 | 125494
11 | 27:53.20 | 3:37.57 | 125495 | 141826
12 | 31:31.02 | 3:26.25 | 141827 | 157301
13 | 34:57.27 | 9:31.73 | 157302 | 200199
14 | 44:29.25 | 3:10.10 | 200200 | 214459
15 | 47:39.35 | 5:01.25 | 214460 | 237059
16 | 52:40.60 | 1:46.70 | 237060 | 245079


Range status and errors

Selected range

Filename C:\ArlegZ\Galuppi - Motets - Gérard Lesne.wav

Peak level 99.9 %
Extraction speed 1.8 X
Range quality 100.0 %
Test CRC 624425C1
Copy CRC 624425C1
Copy OK

No errors occurred


AccurateRip summary

Track 1 accurately ripped (confidence 4) [34C29CE8] (AR v2)
Track 2 accurately ripped (confidence 4) [B6E33E24] (AR v2)
Track 3 accurately ripped (confidence 4) [E899CC71] (AR v2)
Track 4 accurately ripped (confidence 4) [11D26254] (AR v2)
Track 5 accurately ripped (confidence 4) [FB123E6B] (AR v2)
Track 6 accurately ripped (confidence 4) [9FA260A7] (AR v2)
Track 7 accurately ripped (confidence 4) [99DB1EDB] (AR v2)
Track 8 accurately ripped (confidence 4) [95A389B9] (AR v2)
Track 9 accurately ripped (confidence 4) [D8710FBB] (AR v2)
Track 10 accurately ripped (confidence 4) [DCC1FEBA] (AR v2)
Track 11 accurately ripped (confidence 4) [CE70A2E1] (AR v2)
Track 12 accurately ripped (confidence 4) [7334031E] (AR v2)
Track 13 accurately ripped (confidence 4) [E37C5357] (AR v2)
Track 14 accurately ripped (confidence 4) [21BBF18B] (AR v2)
Track 15 accurately ripped (confidence 4) [26405269] (AR v2)
Track 16 accurately ripped (confidence 4) [EB79966E] (AR v2)

All tracks accurately ripped

End of status report

–– CUETools DB Plugin V2.1.6

[CTDB TOCID: iPmmr1IVadZGh13oIxBxmkeV9B4-] found
Submit result: iPmmr1IVadZGh13oIxBxmkeV9B4- has been confirmed
Track | CTDB Status
1 | (13/39) Accurately ripped
2 | (13/39) Accurately ripped
3 | (13/39) Accurately ripped
4 | (13/39) Accurately ripped
5 | (13/39) Accurately ripped
6 | (13/39) Accurately ripped
7 | (13/39) Accurately ripped
8 | (13/39) Accurately ripped
9 | (13/39) Accurately ripped
10 | (13/39) Accurately ripped
11 | (13/39) Accurately ripped
12 | (13/39) Accurately ripped
13 | (13/39) Accurately ripped
14 | (13/39) Accurately ripped
15 | (13/39) Accurately ripped
16 | (13/39) Accurately ripped


==== Log checksum 8C4A1A4B0BBA463D08426873476EBC842E61AB14B1F71AF17F4A9A6B3C46F46B ====

Gerard Lesne,  Il Seminario musicale - Vivaldi: Salve Regina, Violin concerto RV 581; Galuppi: Motets (2004)