Tags
Language
Tags

Gian Paolo Fagotto, Il Terzo Suono, Daltrocanto, Chorus Beatorum, La Fenice, Il Suonar Parlante - War and Faith (2004)

Posted By:
Gian Paolo Fagotto, Il Terzo Suono, Daltrocanto, Chorus Beatorum, La Fenice, Il Suonar Parlante - War and Faith (2004)

Gian Paolo Fagotto, Il Terzo Suono, Daltrocanto, Chorus Beatorum, La Fenice, Il Suonar Parlante - War and Faith: A. Gabrieli, Mainerio, Jannequin, Werrecore (2004)
EAC | FLAC | Image (Cue & Log) ~ 249 Mb | Total time: 65:10 | Scans included
Classical | Label: Arts Music | # 47691-2 | Recorded: 2002

War and Faith: a coupling that was not only related to Crusaders but to many aspects during the Renaissance and the early Baroque. And both War and Faith had a common denominator in the music. This disc tries to reconstitute the music which escorted warriors before, during and after two of those battles which stained Europe with blood in the 16th century.
French and Spanish/Milanese armies had a cruel conflict in the Northern Part of Italy between 1515 and 1525. Two memorable battles, the Battle of Marignano and that of Pavia, changed the face of the Northern Italy and excited the fantasy of various composers of that century. The great Jannequin composed his “La Guerre” for the French victory at Marignano, the Flemish-Italian composer Werrecore released for the subsequent victory of the Spanish at Pavia a unique vocal masterpiece “La Bataglia Taliana” and Mainerio who was one of the greatest even if neglected Italian composer released two Magnificat so called “Magnificat of the battles”.

Performer:
Il Terzo Suono
Daltrocanto
Chorus Beatorum
La Fenice
Il Suonar Parlante
Gian Paolo Fagotto

Track List:
Andrea Gabrieli (1520-1586)
01. Intonazione del VI Tono
02. Antifona del VI Tono
Giorgio Mainerio (1535-1582)
03. Magnificat Sexti Toni
Andrea Gabrieli
04. Canzon ariosa
05. Improvisation on a French folk melody
Clément Janequin (1475-1560)
06. La Guerre
Giorgio Mainerio
07. Ballo Francese
08. Ballo Milanese
Matthias Hermann Werrecore (?-after 1574)
09. La Bataglia Taliana
Claudio Merulo (1533-1604)
10. Toccata Primi Toni
11. Antifona del V Tono
Giorgio Mainerio
12. Magnificat Quinti Toni
13. Antifona del V Tono
14. Fantasia sopra il Regina Coeli
Giorgio Mainerio
15. Rigina Coeli


Exact Audio Copy V1.5 from 20. February 2020

EAC extraction logfile from 16. July 2021, 21:11

Il Terzo Suono, Daltrocanto, Chorus Beatorum, La Fenice, Il Suonar Parlante, Gian Paolo Fagotto / War and Faith

Used drive : ASUS SDRW-08U7M-U Adapter: 1 ID: 0

Read mode : Secure
Utilize accurate stream : Yes
Defeat audio cache : Yes
Make use of C2 pointers : No

Read offset correction : 6
Overread into Lead-In and Lead-Out : No
Fill up missing offset samples with silence : Yes
Delete leading and trailing silent blocks : No
Null samples used in CRC calculations : Yes
Used interface : Native Win32 interface for Win NT & 2000

Used output format : User Defined Encoder
Selected bitrate : 128 kBit/s
Quality : High
Add ID3 tag : No
Command line compressor : C:\Program Files (x86)\Exact Audio Copy\Flac\flac.exe
Additional command line options : -V -8 -T "Date=%year%" -T "Genre=%genre%" %source%


TOC of the extracted CD

Track | Start | Length | Start sector | End sector
––––––––––––––––––––––––––––-
1 | 0:00.00 | 1:23.53 | 0 | 6277
2 | 1:23.53 | 0:37.40 | 6278 | 9092
3 | 2:01.18 | 13:16.52 | 9093 | 68844
4 | 15:17.70 | 2:52.02 | 68845 | 81746
5 | 18:09.72 | 1:00.35 | 81747 | 86281
6 | 19:10.32 | 7:02.29 | 86282 | 117960
7 | 26:12.61 | 2:59.12 | 117961 | 131397
8 | 29:11.73 | 1:15.74 | 131398 | 137096
9 | 30:27.72 | 11:27.37 | 137097 | 188658
10 | 41:55.34 | 3:43.29 | 188659 | 205412
11 | 45:38.63 | 0:43.45 | 205413 | 208682
12 | 46:22.33 | 14:04.30 | 208683 | 272012
13 | 60:26.63 | 0:43.00 | 272013 | 275237
14 | 61:09.63 | 1:03.57 | 275238 | 280019
15 | 62:13.45 | 3:03.30 | 280020 | 293774


Range status and errors

Selected range

Filename C:\temp\War and Faith - 2004\War and Faith.wav

Peak level 99.8 %
Extraction speed 4.6 X
Range quality 100.0 %
Test CRC 9F8FE5C9
Copy CRC 9F8FE5C9
Copy OK

No errors occurred


AccurateRip summary

Track 1 cannot be verified as accurate (confidence 1) [203323E7], AccurateRip returned [A93FCBE6] (AR v2)
Track 2 cannot be verified as accurate (confidence 1) [160F969F], AccurateRip returned [0FD450D3] (AR v2)
Track 3 cannot be verified as accurate (confidence 1) [495D450D], AccurateRip returned [221FC728] (AR v2)
Track 4 cannot be verified as accurate (confidence 1) [B696223B], AccurateRip returned [FCBAC58C] (AR v2)
Track 5 cannot be verified as accurate (confidence 1) [1A75AFC9], AccurateRip returned [881727FF] (AR v2)
Track 6 cannot be verified as accurate (confidence 1) [BC5B8B97], AccurateRip returned [74413B64] (AR v2)
Track 7 cannot be verified as accurate (confidence 1) [DA2ABD5C], AccurateRip returned [F453CBEE] (AR v2)
Track 8 cannot be verified as accurate (confidence 1) [62EB1388], AccurateRip returned [3AE8BDE2] (AR v2)
Track 9 cannot be verified as accurate (confidence 1) [171EB9A0], AccurateRip returned [E488EDF1] (AR v2)
Track 10 cannot be verified as accurate (confidence 1) [F7E681DA], AccurateRip returned [204D0B4A] (AR v2)
Track 11 cannot be verified as accurate (confidence 1) [3960C054], AccurateRip returned [037608DE] (AR v2)
Track 12 cannot be verified as accurate (confidence 1) [7A3DD700], AccurateRip returned [7A663F2C] (AR v2)
Track 13 cannot be verified as accurate (confidence 1) [B3BD02F2], AccurateRip returned [B5F24313] (AR v2)
Track 14 cannot be verified as accurate (confidence 1) [D3DA921D], AccurateRip returned [8D8D43FE] (AR v2)
Track 15 cannot be verified as accurate (confidence 1) [4DA8F626], AccurateRip returned [CFE6916C] (AR v2)

No tracks could be verified as accurate
You may have a different pressing from the one(s) in the database

End of status report

==== Log checksum 63804445CF95F3E08FB2CA988E76F20776AA3F264B9DD592A6D46137AA279A51 ====

Gian Paolo Fagotto, Il Terzo Suono, Daltrocanto, Chorus Beatorum, La Fenice, Il Suonar Parlante - War and Faith (2004)

Thanks to the original releaser