Subcategories

Gidon Kremer - Philip Glass: Violin Concerto; Ned Rorem: Violin Concerto; Leonard Bernstein: Serenade (1999)

Posted By: Designol
Gidon Kremer - Philip Glass: Violin Concerto; Ned Rorem: Violin Concerto; Leonard Bernstein: Serenade (1999)

Gidon Kremer - Philip Glass: Violin Concerto;
Ned Rorem: Violin Concerto; Leonard Bernstein: Serenade (1999)

EAC | FLAC | Image (Cue&Log) ~ 351 Mb | Mp3 (CBR320) ~ 183 Mb | Scans included
Genre: Classical | Label: Deutsche Grammophon | # 445 185-2 GH | Time: 01:18:30

Here are three 20th-century violin concertos written within a 30-year period in three totally different styles, played by a soloist equally at home in all of them. Bernstein's Serenade, the earliest and most accessible work, takes its inspiration from Plato's Symposium; its five movements, musical portraits of the banquet's guests, represent different aspects of love as well as running the gamut of Bernstein's contrasting compositional styles. Rorem's concerto sounds wonderful. Its six movements have titles corresponding to their forms or moods; their character ranges from fast, brilliant, explosive to slow, passionate, melodious. Philip Glass's concerto, despite its conventional three movements and tonal, consonant harmonies, is the most elusive. Written in the "minimalist" style, which for most ordinary listeners is an acquired taste, it is based on repetition of small running figures both for orchestra and soloist, occasionally interrupted by long, high, singing lines in the violin against or above the orchestra's pulsation. Gidon Kremer, well known for his championship of contemporary composers, plays fabulously; his tone soars, shimmers, and glows. His identification with the music is complete.

Review by Edith Eisler

This enviably crowded disc is part of DG's 20/21 Music of Our Time series which has invaluably given a new lease of life to some extremely significant and often challenging works recorded by DG since the 1960s.

Modern music has never been a homogeneous quantity; at least not for most of the second half of the 20th century. While Searle was writing serial symphonies Hanson and George Lloyd were producing symphonies of an epic-melodic set. While Reich and Del Tredici wrote in various tonal idioms Elliot Carter produced works of Webernian asperity and Crumb wrote works that combined dissonance with romantic allusion. It has in fact been a very heterogeneous field although fashion, music promoters, record entrepreneurs and orchestral managements has tended ignore either one extreme or the other. Some composers have also evolved their styles in a consciously or unconsciously Darwinian way, tracking changes in the artistic consensus. Frank Bridge turned increasingly from tonality towards a new and more acid style between 1910 and 1925. He was not alone; listen to Elliot Carter's Symphony No 1 and the ballet Pocahontas and compare these with the Piano Concerto and the Symphony of Three Orchestras. Peter Maxwell Davies' extreme experimental banshee 'shrieks' of the 1960s and 1970s changed towards a more conformist, accessible though still distinctive, language in the 1980s from the First Symphony onwards.

Philip Glass's concerto is in three movements and in mood is shaped by tradition. The orchestra used is to a normal specification. The work was written for Paul Zukofsky and the conductor Dennis Russell Davies, both prominent figures in the performance of modern music. The commission came from Davies' American Composers Orchestra. The character of the piece veers from railway rapping rhythms - all three unnamed movements - to Bachian velocity and purity. In the second movement, we experience the sort of heart-stilling inwardness and spirituality you find in the last twenty minutes of Allan Pettersson's Seventh Symphony. The finale boils with chaffing recollections of Herrmann's North by Northwest, Shostakovich-like vitriol darting and pecking virtuosity - a sort of waspish rumba. Rather like Reich's Variations and Nyman's Where the Bee Dances this work has the capacity to hold the attention of a very wide audience. Its contemplative prayer of a slow movement has deservedly achieved multiple playings on the UK's Classic FM radio station. It is a lovely piece (see reviews of the Naxos recording of the Glass concerto).

While the Glass reaches out to listeners bristling with rhythmic excitement, melodically memorable material and instantly engaging repetition, the Rorem is a slightly more resistant. Even so it is not forbidding. The lyrically singing core has a theme momentarily doffing its cap to Rozsa. The finale of Vaughan Williams' s Sixth Symphony is to be found in the Romance without Words which is marked 'hardly moving' - a pre-echo of the Glass slow movement. Samuel Barber may also be saluted by the woodwind writing at 2.23 tr. 8; indeed there are direct or caustically filtered reflections of the Barber style throughout. The concerto is in six sections rather like Rorem's Piano Concerto. This work, which has some wonderfully sensitive moments, probably has more long term staying-power than the instantly captivating Glass.

The Rorem concerto belongs to Nantucket, off the Massachusetts coastline. The Bernstein was written thirty years before on another Massachusetts island, Martha's Vineyard. The movements are Phaedrus - Pausanius; Aristophanes; Erixymachus; Agathon; Socrates-Alcibiades. While the two concertos are for conventional orchestra, the Bernstein is for a string orchestra with harp and percussion. Perhaps curiously it is actually longer by five minutes than each of its two concerto disc-mates. In Phaedrus can be heard the first stirrings of the Maria love theme from West Side Story. Does the Aristophanes allegretto not betray, in the orchestral line, a familiarity with Pulcinella and also with Bernstein’s ground-breaking study of Mahler's symphonies? Erixymachus hurtles along at high speed delivering a thunderous hailstorm of impacts rather like the Schuman concerto. The Agathon Adagio is surely in touch with the Mahler 5 adagietto yet in the solo line looks out, in honeyed tenderness, towards the Barber Violin Concerto’s middle movement. The Socrates finale is the longest of the movements at ten minutes. At 6.02 it enters a sleazily louche atmosphere suggestive of a decadent La Valse. That episode has about it a touch of Stephan Grapelli in those records he made for EMI in the 1970s with Previn and Menuhin when they sold like hotcakes. At 8.35 the thundering march theme is identical to that in the second movement of Nielsen 5.

All three works are heard in recordings taken from live concerts as you can hear from the cough at 1.10 in the Twilight movement (tr. 4) of the Rorem.

The 20/21 series uses the so-called ‘digipack’ rather than the jewel case. A booklet with helpful and factual rather than pretentious notes is included. This slips into the left-hand pocket of the cardboard wing-fold case.

None of these works are avant-garde, atonal or serial. All represent the melodic stream. The Rorem is the more dissonant of the three but is still rooted in a language allied to that of Barber and Piston. If you regard the Shostakovich second concerto as a tonal outlier there is nothing here as remote or as chilly as that. As for the Glass it will instantly and naggingly enter your whistling repertoire.

Review by Rob Barnett, MusicWeb-International

Gidon Kremer - Philip Glass: Violin Concerto; Ned Rorem: Violin Concerto; Leonard Bernstein: Serenade (1999)



Tracklist:

Philip Glass (b.1937) - Violin Concerto (1987)
01. 1. Quarter=104-120 (06:38)
02. 2. Quarter=ca. 108 (08:46)
03. 3. Quarter=ca. 150 - Coda - Poco meno Quarter=104 (09:39)
Feb 1992, Großersaal, Musikverein, Vienna
Wiener Philharmoniker/Christoph Von Dohnanyi

Ned Rorem (b.1923) - Violin Concerto (1984)
04. 1. Twilight - Free and Spacious - attaca (03:09)
05. 2. Toccata-Chaconne - Very Fast (03:17)
06. 3. Romance Without Words - Hardly Moving (02:51)
07. 4. Midnight - Slow (06:48)
08. 5. Toccata-Rondo - Very Fast (02:36)
09. 6. Dawn - Wistful (05:08)
New York Philharmonic Orchestra/Leonard Bernstein
Nov 1988, Avery Fisher Hall, New York

Leonard Bernstein (1918-1990) Serenade (after Plato's 'Symposium') for violin and orchestra (1954)
10. 1. Phaedrus - Pausanias (06:49)
11. 2. Aristophanes (04:12)
12. 3. Erixymachus (01:31)
13. 4. Agathon (06:34)
14. 5. Socrates - Alcibiades (10:31)
Israel Philharmonic Orchestra/Leonard Bernstein
Frederic R Mann Auditorium, Tel Aviv, Oct 1979


Exact Audio Copy V0.99 prebeta 4 from 23. January 2008

EAC extraction logfile from 28. June 2009, 13:05

Gidon Kremer / Philip Glass - Ned Rorem - Leonard Bernstein

Used drive : _NEC DVD_RW ND-2510A Adapter: 1 ID: 1

Read mode : Secure
Utilize accurate stream : Yes
Defeat audio cache : Yes
Make use of C2 pointers : No

Read offset correction : 48
Overread into Lead-In and Lead-Out : No
Fill up missing offset samples with silence : Yes
Delete leading and trailing silent blocks : No
Null samples used in CRC calculations : Yes
Used interface : Native Win32 interface for Win NT & 2000

Used output format : Internal WAV Routines
Sample format : 44.100 Hz; 16 Bit; Stereo


TOC of the extracted CD

Track | Start | Length | Start sector | End sector
––––––––––––––––––––––––––––-
1 | 0:00.00 | 6:38.00 | 0 | 29849
2 | 6:38.00 | 8:46.00 | 29850 | 69299
3 | 15:24.00 | 9:39.00 | 69300 | 112724
4 | 25:03.00 | 3:09.00 | 112725 | 126899
5 | 28:12.00 | 3:17.00 | 126900 | 141674
6 | 31:29.00 | 2:51.50 | 141675 | 154549
7 | 34:20.50 | 6:48.25 | 154550 | 185174
8 | 41:09.00 | 2:36.00 | 185175 | 196874
9 | 43:45.00 | 5:08.00 | 196875 | 219974
10 | 48:53.00 | 6:49.00 | 219975 | 250649
11 | 55:42.00 | 4:12.00 | 250650 | 269549
12 | 59:54.00 | 1:31.00 | 269550 | 276374
13 | 61:25.00 | 6:34.00 | 276375 | 305924
14 | 67:59.00 | 10:31.00 | 305925 | 353249


Range status and errors

Selected range

Filename C:\Documents and Settings\IGOR\Bureau\Gidon Kremer - Philip Glass - Ned Rorem - Leonard Bernstein.wav

Peak level 99.9 %
Range quality 99.9 %
Copy CRC 4ACCCFA8
Copy OK

No errors occurred


AccurateRip summary

Track 1 accurately ripped (confidence 4) [8EAB0C77]
Track 2 accurately ripped (confidence 4) [C92AB981]
Track 3 accurately ripped (confidence 4) [AA4AC0CC]
Track 4 accurately ripped (confidence 4) [F348A0C9]
Track 5 accurately ripped (confidence 4) [9E3EED13]
Track 6 accurately ripped (confidence 4) [5384E8ED]
Track 7 accurately ripped (confidence 4) [A7698AC0]
Track 8 accurately ripped (confidence 4) [A80F058A]
Track 9 accurately ripped (confidence 3) [781589A6]
Track 10 accurately ripped (confidence 3) [108DDE79]
Track 11 accurately ripped (confidence 3) [48F96D44]
Track 12 accurately ripped (confidence 3) [0CA58262]
Track 13 accurately ripped (confidence 3) [F1464818]
Track 14 accurately ripped (confidence 3) [B8A2E5D7]

All tracks accurately ripped

End of status report

[CUETools log; Date: 29.11.2015 14:59:03; Version: 2.1.5]
[CTDB TOCID: DUROOcqcyRKS.bYT_0PlmgJ3Okc-] found.
Track | CTDB Status
1 | (18/18) Accurately ripped
2 | (18/18) Accurately ripped
3 | (17/18) Accurately ripped
4 | (18/18) Accurately ripped
5 | (18/18) Accurately ripped
6 | (18/18) Accurately ripped
7 | (18/18) Accurately ripped
8 | (18/18) Accurately ripped
9 | (18/18) Accurately ripped
10 | (18/18) Accurately ripped
11 | (18/18) Accurately ripped
12 | (18/18) Accurately ripped
13 | (18/18) Accurately ripped
14 | (17/18) Accurately ripped
[AccurateRip ID: 002916a7-01a9c8fb-cf12660e] found.
Track [ CRC | V2 ] Status
01 [8eab0c77|e3333667] (11+10/39) Accurately ripped
02 [c92ab981|a0915f24] (11+09/38) Accurately ripped
03 [aa4ac0cc|94be233d] (11+09/37) Accurately ripped
04 [f348a0c9|7c061826] (12+09/37) Accurately ripped
05 [9e3eed13|a41173c1] (12+09/37) Accurately ripped
06 [5384e8ed|a49dacc0] (11+10/37) Accurately ripped
07 [a7698ac0|b41aef35] (12+09/37) Accurately ripped
08 [a80f058a|f8a9ceea] (12+10/38) Accurately ripped
09 [781589a6|badd1e88] (11+09/36) Accurately ripped
10 [108dde79|661b01b1] (10+09/35) Accurately ripped
11 [48f96d44|27a8e4a3] (11+10/37) Accurately ripped
12 [0ca58262|1974e3fb] (11+10/37) Accurately ripped
13 [f1464818|d6b40e93] (11+10/36) Accurately ripped
14 [b8a2e5d7|c3340d19] (11+09/34) Accurately ripped
Offsetted by -667:
01 [3096c85d] (04/39) Accurately ripped
02 [f33a9903] (04/38) Accurately ripped
03 [fbb701d3] (04/37) Accurately ripped
04 [e20d383e] (02/37) Accurately ripped
05 [2c49a947] (02/37) Accurately ripped
06 [c3e11dc1] (02/37) Accurately ripped
07 [d3555aaf] (02/37) Accurately ripped
08 [3ddf42e9] (02/38) Accurately ripped
09 [1ac2175a] (02/36) Accurately ripped
10 [3ef3fa93] (02/35) Accurately ripped
11 [0e88027c] (02/37) Accurately ripped
12 [8fa5b11b] (02/37) Accurately ripped
13 [916ce386] (02/36) Accurately ripped
14 [dc4d33f0] (02/34) Accurately ripped
Offsetted by -131:
01 [dc5db27e] (05/39) Accurately ripped
02 [674cd988] (05/38) Accurately ripped
03 [4444fb4d] (05/37) Accurately ripped
04 [f4f31d48] (05/37) Accurately ripped
05 [d9fe9861] (05/37) Accurately ripped
06 [2b9b0b63] (05/37) Accurately ripped
07 [43ead117] (05/37) Accurately ripped
08 [bec01c89] (05/38) Accurately ripped
09 [9f2ac87e] (05/36) Accurately ripped
10 [c252d0e5] (05/35) Accurately ripped
11 [8c212441] (05/37) Accurately ripped
12 [0b57b683] (05/37) Accurately ripped
13 [5638187c] (04/36) Accurately ripped
14 [737f17d5] (04/34) Accurately ripped

Track Peak [ CRC32 ] [W/O NULL] [ LOG ]
– 99,9 [4ACCCFA8] [A3591D48] CRC32
01 92,2 [6E2C71FF] [F9807BD6]
02 21,6 [48736531] [47490937]
03 99,9 [F2FB6C68] [330CD11F]
04 45,0 [D0459003] [8ED7617D]
05 99,9 [567525F3] [403D2945]
06 29,8 [0E23ADC8] [C7EA8A2E]
07 48,1 [F565A2DB] [E4646B76]
08 99,9 [CCDA2391] [375DF998]
09 36,1 [B8E08384] [F3A309B7]
10 99,0 [3E98CB8E] [FECD1A93]
11 49,4 [A180D5DA] [AD498FE9]
12 99,9 [2CBB3814] [1B5F5A7A]
13 93,9 [16E882B9] [4DA4CA2E]
14 99,9 [8C44D2B9] [F830FAB4]

foobar2000 1.3.8 / Dynamic Range Meter 1.1.1
log date: 2015-11-29 14:52:01

––––––––––––––––––––––––––––––––––––––––
Analyzed: Gidon Kremer / Philip Glass - Ned Rorem - Leonard Bernstein
––––––––––––––––––––––––––––––––––––––––

DR Peak RMS Duration Track
––––––––––––––––––––––––––––––––––––––––
DR13 -0.70 dB -22.33 dB 6:38 01-Glass - Violin Concerto - 1. Quarter=104-120
DR12 -13.28 dB -30.97 dB 8:46 02-Glass - Violin Concerto - 2. Quarter=ca. 108
DR14 0.00 dB -19.43 dB 9:39 03-Glass - Violin Concerto - 3. Quarter=ca. 150 - Coda - Poco meno Quarter=104
DR13 -6.92 dB -26.05 dB 3:09 04-Rorem - Violin Concerto - 1. Twilight - Free and Spacious - attaca
DR14 0.00 dB -17.42 dB 3:17 05-Rorem - Violin Concerto - 2. Toccata-Chaconne - Very Fast
DR11 -10.51 dB -27.84 dB 2:52 06-Rorem - Violin Concerto - 3. Romance Without Words - Hardly Moving
DR14 -6.35 dB -26.66 dB 6:48 07-Rorem - Violin Concerto - 4. Midnight - Slow
DR13 0.00 dB -16.29 dB 2:36 08-Rorem - Violin Concerto - 5. Toccata-Rondo - Very Fast
DR13 -8.84 dB -29.33 dB 5:08 09-Rorem - Violin Concerto - 6. Dawn - Wistful
DR16 -0.08 dB -22.77 dB 6:49 10-Bernstein - Serenade after Plato's 'Symposium' - 1. Phaedrus - Pausanias
DR15 -6.11 dB -28.04 dB 4:12 11-Bernstein - Serenade after Plato's 'Symposium' - 2. Aristophanes
DR17 0.00 dB -22.86 dB 1:31 12-Bernstein - Serenade after Plato's 'Symposium' - 3. Erixymachus
DR15 -0.54 dB -25.50 dB 6:34 13-Bernstein - Serenade after Plato's 'Symposium' - 4. Agathon
DR16 0.00 dB -21.57 dB 10:31 14-Bernstein - Serenade after Plato's 'Symposium' - 5. Socrates - Alcibiades
––––––––––––––––––––––––––––––––––––––––

Number of tracks: 14
Official DR value: DR14

Samplerate: 44100 Hz
Channels: 2
Bits per sample: 16
Bitrate: 619 kbps
Codec: FLAC
================================================================================

Gidon Kremer - Philip Glass: Violin Concerto; Ned Rorem: Violin Concerto; Leonard Bernstein: Serenade (1999)

Gidon Kremer - Philip Glass: Violin Concerto; Ned Rorem: Violin Concerto; Leonard Bernstein: Serenade (1999)

All thanks to original releaser - iviolon

More interesting music in My Blog