Tags
Language
Tags
November 2022
Su Mo Tu We Th Fr Sa
30 31 1 2 3 4 5
6 7 8 9 10 11 12
13 14 15 16 17 18 19
20 21 22 23 24 25 26
27 28 29 30 1 2 3

Gioachino Rossini Edition 50 CDs [Part 1] - L'inganno felice; La scala di seta (2018)

Posted By: ArlegZ
Gioachino Rossini Edition 50 CDs [Part 1] - L'inganno felice; La scala di seta (2018)

Gioachino Rossini Edition 50 CDs [Part 1]: Marc Minkowski, Le Concert des Tuileries - L'inganno felice; Gabriele Ferro, Orchestra del Teatro Comunale di Bologna - La scala di seta (2018)
EAC | FLAC | Image (Cue & Log) ~ 781 Mb | Total time: 76:11+49:12+44:04 | Scans included
Classical | Label: Warner Classics | # 0190295611156 | Recorded: 1988, 1996

The most comprehensive edition devoted to Gioachino Rossini marking his 150th anniversary.
Born in 1792, Rossini was the most popular opera composer of his time. Although he retired from the Opera scene in 1829, he continued to compose in other genres, including sacred music, piano and chamber works. He did gather his late works under the ironic title Péchés de vieillesse (Sins of Old Age), which veils a true collection of masterworks.
It includes thirteen complete operas, the Rossini Gala - the legendary concert given at the Lincoln Center in 1992, five complete recitals including the recent recording with Joyce DiDonato or the famous Rockwell Blake.

Performer:
L'inganno felice (rec.1996)
Duca Bertrando - Raúl Giménez
Isabella - Annick Massis
Ormondo - Lorenzo Regazzo
Batone - Rodney Gilfry
Rarabotto - Pietro Spagnoli
Le Concert des Tuileries
Conductor - Marc Minkowski

La scala di seta (rec.1988)
Dormont – Oslavio di Credico
Giulia – Luciana Serra
Lucilla – Cecilia Bartoli
Dorvil – William Matteuzzi
Germano – Roberto Coviello
Blansac – Natale de Carolis
Orchestra del Teatro Comunale di Bologna
Conductor - Gabriele Ferro

Track List:
CD1: L'inganno felice
01. Sinfonia
02. No.1 Introduzione: Cosa dite! (Tarabotto, Isabella)
03. Recitativo: Ebben, che ascondi a Tarabotto? (Tarabotto, Isabella)
04. No.2 Aria: Qual tenero diletto (Bertrando)
05. Recitativo: Né posson due lustri (Bertrando, Ormondo, Batone, Tarabotto, Isabella)
06. No.3 Aria: Una voce m'ha colpito (Batone)
07. Recitativo: Egli restò indeciso (Isabella, Tarabotto, Bertrando)
08. No.4 Terzetto: Quel sembiante (Bertrando, Tarabotto, Isabella)
09. Recitativo: Oh, l'impressione e fatta (Tarabotto, Bertrando, Ormondo)
10. No.5 Aria: Tu mi conosci e sai (Ormondo)
11. Recitativo: Me la pagherà tua vita (Batone, Tarabotto)
12. No.6 Duetto: Va taluno mormorando (Batone, Tarabotto)
13. No.7 Aria: Al più dolce e caro oggetto (Isabella)
14. Recitativo: Son fuor di me (Bertrando, Ormondo, Tarabotto)
15. No.8 Finale: Tacita notte amica (Batone, Isabella, Tarabotto, Bertrando, Ormondo)

CD2: La scala di seta
01.Sinfonia
02.Scena Prima. Introduzione: Va sciocco (Giulia, Germano, Lucilla)
03. Scena Seconda. Recitativo: Siamo sicuri, uscite (Giulia, Dorvil)
04. Scena Terza. Recitativo: Egli è sceso… respiro (Giulia, Dormont, Lucilla)
05. Scena Quarta. Recitativo: Signor padron (Germano, Dormont, Lucilla, Giulia)
06. Duetto: Io so ch'hai buon core (Giulia, Germano)
07. Scena Quinta. Recitativo: Oh senza cerimonie (Blansac, Dormont, Dorvil)
08. Scena Sesta. Recitativo: Distorglielo tentiam (Dorvil, Blansac)
09. Recitativo: Tu vuoi? (Dorvil, Blansac)
10. Aria: Vedrò qual sommo incanto (Dorvil)
11. Scena Settima. Recitativo: Io non so conquistare (Blansac, Germano, Giulia, Dorvil)
12. Quartetto: Sì che unito (Blansac, Dorvil, Giulia, Germano)
CD3:
01. Scena Ottava. Recitativo: Va' là presto (Blansac, Dorvil)
02. Scena Nona. Recitativo: Ora andiamo dat tutor (Lucilla, Blansac)
03. Aria: Sento talor nell'anima (Lucilla)
04. Scena Decima. Recitativo: Bellissima! Ilcasetto è proprio nuovo (Blansac, Germano)
05. Scena Undisesima. Recitativo: E ognun ni dice siocco (Germano)
06. Scena Dodicesima. Recitativo: Sollecitiam perché Blansac (Giulia, Germano)
07. Recitativo: Ma se mai, ed Aria: Il mio ben (Giulia)
08. Scena Tredicesima. Recitativo: Brava! Vada (Germano)
09. Aria: Amore dolcemente (Germano, Blansac)
10. Scena Quattordicesima. Recitativo: Cosa? Come? (Blansac, Dormont, Lucilla, Germano)
11. Scena Quindicesima. Recitativo: Buon non c'è persona (Germano)
12. Scena Sedicesima. Finale: Dorme ogunno (Giulia, Germano, Dorvil, Blansac)
13. Scena Ultima: Finir convien la scena (Giulia, Dormont, Blansac, Licilla, Germano, Dorvil)


Exact Audio Copy V1.3 from 2. September 2016

EAC extraction logfile from 23. December 2019, 18:09

Marc Minkowski, Le Concert des Tuileries / Rossini - L'inganno felice

Used drive : HL-DT-STDVDRAM GH24NS95 Adapter: 1 ID: 0

Read mode : Secure
Utilize accurate stream : Yes
Defeat audio cache : Yes
Make use of C2 pointers : No

Read offset correction : 6
Overread into Lead-In and Lead-Out : No
Fill up missing offset samples with silence : Yes
Delete leading and trailing silent blocks : No
Null samples used in CRC calculations : Yes
Used interface : Native Win32 interface for Win NT & 2000

Used output format : User Defined Encoder
Selected bitrate : 128 kBit/s
Quality : High
Add ID3 tag : No
Command line compressor : C:\Program Files\Exact Audio Copy\FLAC\FLAC.EXE
Additional command line options : -V -8 -T "Date=%year%" -T "Genre=%genre%" %source%


TOC of the extracted CD

Track | Start | Length | Start sector | End sector
––––––––––––––––––––––––––––-
1 | 0:00.00 | 5:51.65 | 0 | 26389
2 | 5:51.65 | 8:46.03 | 26390 | 65842
3 | 14:37.68 | 3:43.71 | 65843 | 82638
4 | 18:21.64 | 5:16.02 | 82639 | 106340
5 | 23:37.66 | 3:14.68 | 106341 | 120958
6 | 26:52.59 | 5:56.72 | 120959 | 147730
7 | 32:49.56 | 3:27.31 | 147731 | 163286
8 | 36:17.12 | 8:24.11 | 163287 | 201097
9 | 44:41.23 | 2:18.10 | 201098 | 211457
10 | 46:59.33 | 1:42.33 | 211458 | 219140
11 | 48:41.66 | 2:17.05 | 219141 | 229420
12 | 50:58.71 | 4:59.58 | 229421 | 251903
13 | 55:58.54 | 5:24.24 | 251904 | 276227
14 | 61:23.03 | 2:34.26 | 276228 | 287803
15 | 63:57.29 | 14:11.50 | 287804 | 351678


Range status and errors

Selected range

Filename C:\ArlegZ\Rossini - L'inganno felice.wav

Peak level 97.9 %
Extraction speed 8.5 X
Range quality 100.0 %
Test CRC 74FD6DBA
Copy CRC 74FD6DBA
Copy OK

No errors occurred

End of status report

==== Log checksum C5CFF2A19F10553B139476CBE8B543ACB73DA408DAEDD2A860789096C95AD2BB ====


Exact Audio Copy V1.3 from 2. September 2016

EAC extraction logfile from 23. December 2019, 18:31

Gabriele Ferro, Orchestra del Teatro Comunale di Bologna / Rossini - La scala di seta CD1

Used drive : HL-DT-STDVDRAM GH24NS95 Adapter: 1 ID: 0

Read mode : Secure
Utilize accurate stream : Yes
Defeat audio cache : Yes
Make use of C2 pointers : No

Read offset correction : 6
Overread into Lead-In and Lead-Out : No
Fill up missing offset samples with silence : Yes
Delete leading and trailing silent blocks : No
Null samples used in CRC calculations : Yes
Used interface : Native Win32 interface for Win NT & 2000

Used output format : User Defined Encoder
Selected bitrate : 128 kBit/s
Quality : High
Add ID3 tag : No
Command line compressor : C:\Program Files\Exact Audio Copy\FLAC\FLAC.EXE
Additional command line options : -V -8 -T "Date=%year%" -T "Genre=%genre%" %source%


TOC of the extracted CD

Track | Start | Length | Start sector | End sector
––––––––––––––––––––––––––––-
1 | 0:00.00 | 6:10.72 | 0 | 27821
2 | 6:10.72 | 8:09.23 | 27822 | 64519
3 | 14:20.20 | 1:50.60 | 64520 | 72829
4 | 16:11.05 | 0:45.15 | 72830 | 76219
5 | 16:56.20 | 1:24.60 | 76220 | 82579
6 | 18:21.05 | 8:57.70 | 82580 | 122924
7 | 27:19.00 | 0:49.00 | 122925 | 126599
8 | 28:08.00 | 1:33.02 | 126600 | 133576
9 | 29:41.02 | 0:38.63 | 133577 | 136489
10 | 30:19.65 | 6:10.32 | 136490 | 164271
11 | 36:30.22 | 2:17.30 | 164272 | 174576
12 | 38:47.52 | 10:22.58 | 174577 | 221284


Range status and errors

Selected range

Filename C:\ArlegZ\Rossini - La scala di seta CD1.wav

Peak level 91.0 %
Extraction speed 6.7 X
Range quality 99.9 %
Test CRC 3C584035
Copy CRC 3C584035
Copy OK

No errors occurred

End of status report

==== Log checksum 30E1D2C81D4684161E65C632551EF7AC8394DE445CB6D87954FF33748F4B344F ====


Exact Audio Copy V1.3 from 2. September 2016

EAC extraction logfile from 23. December 2019, 18:53

Gabriele Ferro, Orchestra del Teatro Comunale di Bologna / Rossini - La scala di seta CD2

Used drive : HL-DT-STDVDRAM GH24NS95 Adapter: 1 ID: 0

Read mode : Secure
Utilize accurate stream : Yes
Defeat audio cache : Yes
Make use of C2 pointers : No

Read offset correction : 6
Overread into Lead-In and Lead-Out : No
Fill up missing offset samples with silence : Yes
Delete leading and trailing silent blocks : No
Null samples used in CRC calculations : Yes
Used interface : Native Win32 interface for Win NT & 2000

Used output format : User Defined Encoder
Selected bitrate : 128 kBit/s
Quality : High
Add ID3 tag : No
Command line compressor : C:\Program Files\Exact Audio Copy\FLAC\FLAC.EXE
Additional command line options : -V -8 -T "Date=%year%" -T "Genre=%genre%" %source%


TOC of the extracted CD

Track | Start | Length | Start sector | End sector
––––––––––––––––––––––––––––-
1 | 0:00.00 | 0:21.37 | 0 | 1611
2 | 0:21.37 | 1:31.35 | 1612 | 8471
3 | 1:52.72 | 2:23.43 | 8472 | 19239
4 | 4:16.40 | 0:52.72 | 19240 | 23211
5 | 5:09.37 | 0:27.18 | 23212 | 25254
6 | 5:36.55 | 1:18.22 | 25255 | 31126
7 | 6:55.02 | 8:42.63 | 31127 | 70339
8 | 15:37.65 | 0:50.42 | 70340 | 74131
9 | 16:28.32 | 9:05.28 | 74132 | 115034
10 | 25:33.60 | 1:53.62 | 115035 | 123571
11 | 27:27.47 | 0:49.35 | 123572 | 127281
12 | 28:17.07 | 9:45.35 | 127282 | 171191
13 | 38:02.42 | 5:59.33 | 171192 | 198149


Range status and errors

Selected range

Filename C:\ArlegZ\Rossini - La scala di seta CD2.wav

Peak level 90.4 %
Extraction speed 6.7 X
Range quality 100.0 %
Test CRC 092E1FE4
Copy CRC 092E1FE4
Copy OK

No errors occurred

End of status report

==== Log checksum 5422017BA7FDAB51C4C36637E0485969CADF67D3DF525071632D6036263871A5 ====