Tags
Language
Tags

Giovanni Antonini, Il Giardino Armonico - Vivaldi: Ottone in villa (2010)

Posted By: ArlegZ
Giovanni Antonini, Il Giardino Armonico - Vivaldi: Ottone in villa (2010)

Giovanni Antonini, Il Giardino Armonico - Vivaldi: Ottone in villa (2010)
EAC | FLAC | Image (Cue & Log) ~ 644 Mb | Total time: 135:08 | Scans included
Classical | Label: Naïve | # OP30493 | Recorded: 2010

Vivaldi's first opera, Ottone in Villa (loosely, Ottone's Vacation), is something of an anomaly in the composer's output of largely tragic, heroic works: a pastoral comedy. Written in 1713 when the composer was 35, Ottone demonstrates Vivaldi's instinctive grasp of the operatic form and his gifts for characterization and dramatic development. Naïve continues its admirable series, The Vivaldi Edition, with this outstanding recording of the opera, a real gem. Giovanni Antonini leads Il Giardino Armonico, which plays with gleaming transparency. The performance is wonderfully lively and the opera's dancing energy is conveyed with high spirits and humor. Vivaldi is not a composer usually associated with comedy, so Ottone surprises with its wealth of delightful, sly wit. The cast Antonini has assembled seems to be made up entirely of natural comedians; every role is strongly and lovingly delineated, but soprano Roberta Invernizzi in particular stands out for the almost manic humor she beings to the character of Tullia. All of the roles are written for coloraturas, and the soloists are simply dazzling in the sheer sensuous beauty of their voices and their effortless mastery of Vivaldi's daunting and extravagantly ornamented vocal lines; this is a dream cast for the opera. There is only one male role, Decio, written for a tenor and executed with clarity and grace by Topi Lehtipuu. The soprano role of Caio Silio was written for a castrato, and it is sung here by Julia Lezhneva. The part might have had more verisimilitude if it had been taken by a counter tenor, but given how sumptuous Lezhneva's voice is, it would be ungrateful to complain. As the Emperor Ottone, a part that was actually originally conceived for a female contralto, Sonia Prina comes across as impressively testosterone-driven and her voice is notable both for its substance and its agility. Soprano Verónica Cangemi, as Cleonilla, sings with simply radiant loveliness. Naïve's sound is characteristically clean, clear, and warmly ambient, but doesn't do much to create a sense of theatrical space.
–Stephen Eddins

Performer:
Ottone - Sonia Prina
Caio Silio - Julia Lezhneva
Cleonilla - Veronica Cangemi
Tullia - Roberta Invernizzi
Decio - Topi Lehtipuu
Il Giardino Armonico
Conductor - Giovanni Antonini

Track List:
CD1:
01. Sinfonia: Allegro
02. Sinfonia: Larghetto
03. Sinfonia: Allegro
Atto I
04. Scene 1: Recitative: Nacqui a gran sorte … (Cleonilla)
05. Scene 1: Aria: Quanto m'alletta (Cleonilla)
06. Scene 2: Recitative: Caio … (Cleonilla, Caio)
07. Scene 2: Aria: Sole degl'occhi miei (Caio)
08. Scene 2: Recitative: Ma Cesare qui vien … (Caio, Cleonilla)
09. Scene 3: Recitative: Cleonilla, a te ne vengo … (Ottone, Cleonilla, Caio)
10. Scene 3: Aria: Caro bene (Cleonilla)
11. Scene 4: Recitative: Più fido amante, e chi miro giammai? … (Ottone, Caio)
12. Scene 4: Aria: Par tormento, ed e piacer (Ottone)
13. Scene 5: Recitative: Quanto di donna amante … (Caio, Tullia)
14. Scene 5: Aria: Chi seguir vuol la costanza (Caio)
15. Scene 6: Recitative: Ah! Traditor t'intendo … (Tullia)
16. Scene 6: Aria: Con l'amor di donna amante (Tullia)
17. Scene 7: Recitative: Quanto m'alletti, o cara … (Ottone, Cleonilla, Decio)
18. Scene 7: Aria: Frema pur, si lagni Roma (Ottone)
19. Scene 8: Recitative: Grande ho, Decio, il desio … (Cleonilla, Decio, Tullia)
20. Scene 8: Aria: Il tuo pensiero è lusinghiero (Decio)
21. Scene 9: Recitative: Porgimi il manto, caro … (Cleonilla, Tullia)
22. Scene 9: Aria: Che fe, che amor (Cleonilla)
23. Scene 10: Recitative: E Caio aborriro per fin ch'io viva? … (Caio, Tullia)
24. Scene 10: Aria: Sì, sì, deggio partir (Tullia)
25. Scene 11: Recitative: E Caio aborriro per fin ch'io viva? … (Caio)
26. Scene 11: Aria: Gelosia (Jealousy) (Caio)
Atto II
27. Scene 1: Recitative: Spinto Signor son' io … (Decio, Ottone)
28. Scene 1: Aria: Come l'onda (Ottone)
29. Scene 2: Recitative: A Cesare tradito io dir non volli … (Deccio, Caio)
30. Scene 2: Aria: Che giova it trono al Re (Decio)
31. Scene 3: Recitative: Parli Decio che vuol … (Caio, Tullia)
32. Scene 3: Aria: L'ombre, l'aure, e ancora il rio (Caio, Tullia)
33. Scene 4: Recitative: Qual duolo, o Caio, frenetico ti rende? … (Tullia, Caio)
34. Scene 4: Aria: Su gl'occhi del tuo ben (Caio)
35. Scene 5: Recitative: Disperato è l'infido … (Tullia)
36. Scene 5: Aria: Due tiranni ho nel mio cor[e] (Tullia)
CD2:
01. Scene 6: Recitative: Felice è il volto mio … (Cleonilla, Caio)
02. Scene 6: Aria: Leggi almeno, tiranna infedele (Caio)
03. Scene 7: Recitative: Che mai scrisse qui Caio? … (Cleonilla, Ottone)
04. Scene 7: Aria: Tu vedrai (Cleonilla)
05. Scene 8: Recitative: Cesare, io gia prevedo … (Decio, Ottone, Cleonilla)
06. Scene 8: Aria: Povera fedeltà (Cleonilla)
07. Scene 9: Recitative: Ah Decio, i tuio ricordi … (Ottone, Decio)
08. Scene 9: Aria: Ben talor favella il Cielo (Decio)
09. Scene 10: Recitative: Oh! qual error fec'io … (Ottone, Caio)
10. Scene 10: Aria: Compatisco il tuo fiero tormento (Ottone)
11. Scene 11: Recitative: Quanto Cleonilla e scaltra … (Caio)
12. Scene 11: Aria: Io sembro appunto (Caio)
13. Scene 12: Recitative: Ah, che non vuol sentirmi il traditore … (Tullia)
14. Scene 12: Aria: Misero spirto mio (Tullia)
Atto III
15. Scene 1: Recitative: Signor … (Decio, Ottone)
16. Scene 1: Aria: Tutto sprezzo, e trono, e impero (Ottone)
17. Scene 2: Recitative: Già di Ottone preveggo … (Decio)
18. Scene 2: Aria: L'esser amante (Decio)
19. Scene 3: Recitative: Cerchi in van ch'io t'ascolti … (Cleonilla, Caio)
20. Scene 3: Aria: No, per te non ho più amor, no (Cleonilla)
21. Scene 4: Recitative: Cleonilla … (Tullia, Caio, Cleonilla)
22. Scene 4: Aria: Guarda in quest'occhi (Caio)
23. Scene 5: Recitative: Quant'ha di vago Amor nel suo gran regno … (Cleonilla, Tullia)
24. Scene 5: Aria: Che bel contento (Tullia)
25. Scene 6: Recitative: Più soffrir non poss'io … (Caio, Cleonilla, Tullia)
26. Final Scene: Recitative: Caio infierito … (Ottone, Decio, Cleonilla, Caio, Tullia)
27. Final Scene: Grande è il contento (Coro)


Exact Audio Copy V1.5 from 20. February 2020

EAC extraction logfile from 26. December 2020, 23:49

Sonia Prina, Julia Lezhneva, Veronica Cangemi, Roberta Invernizzi, Topi Lehtipuu / Ottone in villa (Disc 1)

Used drive : ATAPI iHAS124 F Adapter: 1 ID: 0

Read mode : Secure
Utilize accurate stream : Yes
Defeat audio cache : Yes
Make use of C2 pointers : No

Read offset correction : 6
Overread into Lead-In and Lead-Out : No
Fill up missing offset samples with silence : Yes
Delete leading and trailing silent blocks : No
Null samples used in CRC calculations : Yes
Used interface : Native Win32 interface for Win NT & 2000

Used output format : User Defined Encoder
Selected bitrate : 1024 kBit/s
Quality : High
Add ID3 tag : No
Command line compressor : C:\Program Files (x86)\Exact Audio Copy\FLAC\FLAC.EXE
Additional command line options : -6 -V -T "ARTIST=%artist%" -T "TITLE=%title%" -T "ALBUM=%albumtitle%" -T "DATE=%year%" -T "TRACKNUMBER=%tracknr%" -T "GENRE=%genre%" -T "COMMENT=%comment%" -T "BAND=%albuminterpret%" -T "ALBUMARTIST=%albuminterpret%" -T "COMPOSER=%composer%" %haslyrics%–tag-from-file=LYRICS="%lyricsfile%"%haslyrics% -T "DISCNUMBER=%cdnumber%" -T "TOTALDISCS=%totalcds%" -T "TOTALTRACKS=%numtracks%" %hascover%–picture="%coverfile%"%hascover% %source% -o %dest%


TOC of the extracted CD

Track | Start | Length | Start sector | End sector
––––––––––––––––––––––––––––-
1 | 0:00.00 | 2:33.20 | 0 | 11494
2 | 2:33.20 | 0:54.68 | 11495 | 15612
3 | 3:28.13 | 0:38.04 | 15613 | 18466
4 | 4:06.17 | 1:21.13 | 18467 | 24554
5 | 5:27.30 | 4:09.59 | 24555 | 43288
6 | 9:37.14 | 0:45.64 | 43289 | 46727
7 | 10:23.03 | 3:21.35 | 46728 | 61837
8 | 13:44.38 | 0:12.52 | 61838 | 62789
9 | 13:57.15 | 2:18.71 | 62790 | 73210
10 | 16:16.11 | 1:42.23 | 73211 | 80883
11 | 17:58.34 | 0:48.10 | 80884 | 84493
12 | 18:46.44 | 2:49.38 | 84494 | 97206
13 | 21:36.07 | 2:18.08 | 97207 | 107564
14 | 23:54.15 | 2:51.70 | 107565 | 120459
15 | 26:46.10 | 0:44.70 | 120460 | 123829
16 | 27:31.05 | 2:44.43 | 123830 | 136172
17 | 30:15.48 | 1:22.68 | 136173 | 142390
18 | 31:38.41 | 4:25.19 | 142391 | 162284
19 | 36:03.60 | 0:58.02 | 162285 | 166636
20 | 37:01.62 | 2:32.47 | 166637 | 178083
21 | 39:34.34 | 2:47.02 | 178084 | 190610
22 | 42:21.36 | 2:01.52 | 190611 | 199737
23 | 44:23.13 | 0:32.21 | 199738 | 202158
24 | 44:55.34 | 2:10.53 | 202159 | 211961
25 | 47:06.12 | 0:30.04 | 211962 | 214215
26 | 47:36.16 | 3:16.23 | 214216 | 228938
27 | 50:52.39 | 1:54.09 | 228939 | 237497
28 | 52:46.48 | 2:58.54 | 237498 | 250901
29 | 55:45.27 | 1:04.57 | 250902 | 255758
30 | 56:50.09 | 3:10.58 | 255759 | 270066
31 | 60:00.67 | 2:25.43 | 270067 | 280984
32 | 62:26.35 | 7:02.47 | 280985 | 312681
33 | 69:29.07 | 0:27.55 | 312682 | 314761
34 | 69:56.62 | 2:20.38 | 314762 | 325299
35 | 72:17.25 | 0:28.56 | 325300 | 327455
36 | 72:46.06 | 4:31.25 | 327456 | 347805


Range status and errors

Selected range

Filename C:\EACRip\VARIOUS\Vivaldi - Ottone in villa (Giovanni Antonini) (2010)\CD1\Vivaldi - Ottone in villa (Disc 1) - Giovanni Antonini.wav

Peak level 100.0 %
Extraction speed 9.7 X
Range quality 100.0 %
Test CRC 54DFFCB4
Copy CRC 54DFFCB4
Copy OK

No errors occurred


AccurateRip summary

Track 1 accurately ripped (confidence 20) [3AB2B892] (AR v2)
Track 2 accurately ripped (confidence 20) [3C436BEF] (AR v2)
Track 3 accurately ripped (confidence 20) [0AA33D67] (AR v2)
Track 4 accurately ripped (confidence 20) [18304F8B] (AR v2)
Track 5 accurately ripped (confidence 20) [8492F9A3] (AR v2)
Track 6 accurately ripped (confidence 20) [C8857EF1] (AR v2)
Track 7 accurately ripped (confidence 20) [7458FDC5] (AR v2)
Track 8 accurately ripped (confidence 20) [7818ECF9] (AR v2)
Track 9 accurately ripped (confidence 19) [9A300701] (AR v2)
Track 10 accurately ripped (confidence 20) [13EEB05A] (AR v2)
Track 11 accurately ripped (confidence 20) [A5648311] (AR v2)
Track 12 accurately ripped (confidence 20) [2B7C2CC0] (AR v2)
Track 13 accurately ripped (confidence 20) [2D37224D] (AR v2)
Track 14 accurately ripped (confidence 20) [C29CAB2D] (AR v2)
Track 15 accurately ripped (confidence 20) [6E303F70] (AR v2)
Track 16 accurately ripped (confidence 20) [7536FE61] (AR v2)
Track 17 accurately ripped (confidence 20) [1FB42398] (AR v2)
Track 18 accurately ripped (confidence 20) [50723E3C] (AR v2)
Track 19 accurately ripped (confidence 20) [7250DBEB] (AR v2)
Track 20 accurately ripped (confidence 20) [210F39B2] (AR v2)
Track 21 accurately ripped (confidence 20) [9F206029] (AR v2)
Track 22 accurately ripped (confidence 20) [A81B3254] (AR v2)
Track 23 accurately ripped (confidence 20) [7CE1F077] (AR v2)
Track 24 accurately ripped (confidence 20) [23C21555] (AR v2)
Track 25 accurately ripped (confidence 20) [F3C4D3AF] (AR v2)
Track 26 accurately ripped (confidence 19) [1D0E1F49] (AR v2)
Track 27 accurately ripped (confidence 20) [A686722E] (AR v2)
Track 28 accurately ripped (confidence 20) [A48C6676] (AR v2)
Track 29 accurately ripped (confidence 20) [5B6D144C] (AR v2)
Track 30 accurately ripped (confidence 20) [4614F9CF] (AR v2)
Track 31 accurately ripped (confidence 20) [247DCA16] (AR v2)
Track 32 accurately ripped (confidence 20) [99BB5138] (AR v2)
Track 33 accurately ripped (confidence 20) [52D27AEA] (AR v2)
Track 34 accurately ripped (confidence 20) [9ED6D125] (AR v2)
Track 35 accurately ripped (confidence 20) [44C6C32B] (AR v2)
Track 36 accurately ripped (confidence 19) [C24828DA] (AR v2)

All tracks accurately ripped

End of status report

–– CUETools DB Plugin V2.1.6

[CTDB TOCID: pKbZrYRZy7YR2hs8lgQ1x8ExAD4-] found
Submit result: pKbZrYRZy7YR2hs8lgQ1x8ExAD4- has been confirmed
Track | CTDB Status
1 | (45/45) Accurately ripped
2 | (45/45) Accurately ripped
3 | (45/45) Accurately ripped
4 | (45/45) Accurately ripped
5 | (45/45) Accurately ripped
6 | (45/45) Accurately ripped
7 | (45/45) Accurately ripped
8 | (45/45) Accurately ripped
9 | (45/45) Accurately ripped
10 | (45/45) Accurately ripped
11 | (45/45) Accurately ripped
12 | (45/45) Accurately ripped
13 | (45/45) Accurately ripped
14 | (45/45) Accurately ripped
15 | (45/45) Accurately ripped
16 | (45/45) Accurately ripped
17 | (45/45) Accurately ripped
18 | (45/45) Accurately ripped
19 | (45/45) Accurately ripped
20 | (45/45) Accurately ripped
21 | (45/45) Accurately ripped
22 | (45/45) Accurately ripped
23 | (45/45) Accurately ripped
24 | (45/45) Accurately ripped
25 | (45/45) Accurately ripped
26 | (45/45) Accurately ripped
27 | (45/45) Accurately ripped
28 | (45/45) Accurately ripped
29 | (45/45) Accurately ripped
30 | (45/45) Accurately ripped
31 | (45/45) Accurately ripped
32 | (45/45) Accurately ripped
33 | (45/45) Accurately ripped
34 | (45/45) Accurately ripped
35 | (45/45) Accurately ripped
36 | (44/45) Accurately ripped


==== Log checksum 32CF9EA6CC58846CCA1761001BE242E429E4A44EF6EC2B0205715A2117F7C034 ====


Exact Audio Copy V1.5 from 20. February 2020

EAC extraction logfile from 27. December 2020, 0:20

Sonia Prina, Julia Lezhneva, Veronica Cangemi, Roberta Invernizzi, Topi Lehtipuu / Ottone in villa (Disc 2)

Used drive : ATAPI iHAS124 F Adapter: 1 ID: 0

Read mode : Secure
Utilize accurate stream : Yes
Defeat audio cache : Yes
Make use of C2 pointers : No

Read offset correction : 6
Overread into Lead-In and Lead-Out : No
Fill up missing offset samples with silence : Yes
Delete leading and trailing silent blocks : No
Null samples used in CRC calculations : Yes
Used interface : Native Win32 interface for Win NT & 2000

Used output format : User Defined Encoder
Selected bitrate : 1024 kBit/s
Quality : High
Add ID3 tag : No
Command line compressor : C:\Program Files (x86)\Exact Audio Copy\FLAC\FLAC.EXE
Additional command line options : -6 -V -T "ARTIST=%artist%" -T "TITLE=%title%" -T "ALBUM=%albumtitle%" -T "DATE=%year%" -T "TRACKNUMBER=%tracknr%" -T "GENRE=%genre%" -T "COMMENT=%comment%" -T "BAND=%albuminterpret%" -T "ALBUMARTIST=%albuminterpret%" -T "COMPOSER=%composer%" %haslyrics%–tag-from-file=LYRICS="%lyricsfile%"%haslyrics% -T "DISCNUMBER=%cdnumber%" -T "TOTALDISCS=%totalcds%" -T "TOTALTRACKS=%numtracks%" %hascover%–picture="%coverfile%"%hascover% %source% -o %dest%


TOC of the extracted CD

Track | Start | Length | Start sector | End sector
––––––––––––––––––––––––––––-
1 | 0:00.00 | 1:09.72 | 0 | 5246
2 | 1:09.72 | 5:35.56 | 5247 | 30427
3 | 6:45.53 | 2:58.49 | 30428 | 43826
4 | 9:44.27 | 3:02.36 | 43827 | 57512
5 | 12:46.63 | 0:32.09 | 57513 | 59921
6 | 13:18.72 | 2:11.46 | 59922 | 69792
7 | 15:30.43 | 0:31.26 | 69793 | 72143
8 | 16:01.69 | 2:43.34 | 72144 | 84402
9 | 18:45.28 | 1:52.70 | 84403 | 92872
10 | 20:38.23 | 4:39.59 | 92873 | 113856
11 | 25:18.07 | 0:34.48 | 113857 | 116454
12 | 25:52.55 | 3:14.25 | 116455 | 131029
13 | 29:07.05 | 0:44.28 | 131030 | 134357
14 | 29:51.33 | 4:25.53 | 134358 | 154285
15 | 34:17.11 | 0:45.26 | 154286 | 157686
16 | 35:02.37 | 2:28.08 | 157687 | 168794
17 | 37:30.45 | 0:47.53 | 168795 | 172372
18 | 38:18.23 | 3:45.70 | 172373 | 189317
19 | 42:04.18 | 0:24.34 | 189318 | 191151
20 | 42:28.52 | 1:59.41 | 191152 | 200117
21 | 44:28.18 | 1:19.71 | 200118 | 206113
22 | 45:48.14 | 4:19.43 | 206114 | 225581
23 | 50:07.57 | 0:47.20 | 225582 | 229126
24 | 50:55.02 | 1:48.29 | 229127 | 237255
25 | 52:43.31 | 0:36.15 | 237256 | 239970
26 | 53:19.46 | 3:42.18 | 239971 | 256638
27 | 57:01.64 | 0:48.57 | 256639 | 260295


Range status and errors

Selected range

Filename C:\EACRip\VARIOUS\Vivaldi - Ottone in villa (Giovanni Antonini) (2010)\CD2\Vivaldi - Ottone in villa (Disc 2) - Giovanni Antonini.wav

Peak level 100.0 %
Extraction speed 8.5 X
Range quality 100.0 %
Test CRC 2F10A542
Copy CRC 2F10A542
Copy OK

No errors occurred


AccurateRip summary

Track 1 accurately ripped (confidence 21) [67175308] (AR v2)
Track 2 accurately ripped (confidence 21) [4F0B5E00] (AR v2)
Track 3 accurately ripped (confidence 21) [1E5BF606] (AR v2)
Track 4 accurately ripped (confidence 21) [9AFBC83B] (AR v2)
Track 5 accurately ripped (confidence 21) [715579EA] (AR v2)
Track 6 accurately ripped (confidence 20) [1B144917] (AR v2)
Track 7 accurately ripped (confidence 21) [FCAD1664] (AR v2)
Track 8 accurately ripped (confidence 21) [1E076397] (AR v2)
Track 9 accurately ripped (confidence 21) [CA2A4BC1] (AR v2)
Track 10 accurately ripped (confidence 21) [221BE473] (AR v2)
Track 11 accurately ripped (confidence 21) [A3919696] (AR v2)
Track 12 accurately ripped (confidence 21) [D5FD9EB0] (AR v2)
Track 13 accurately ripped (confidence 21) [96342804] (AR v2)
Track 14 accurately ripped (confidence 21) [4DC01A88] (AR v2)
Track 15 accurately ripped (confidence 21) [AD475103] (AR v2)
Track 16 accurately ripped (confidence 21) [FF103D72] (AR v2)
Track 17 accurately ripped (confidence 21) [9698A1FA] (AR v2)
Track 18 accurately ripped (confidence 21) [DE6379BF] (AR v2)
Track 19 accurately ripped (confidence 21) [471B9AD2] (AR v2)
Track 20 accurately ripped (confidence 21) [62600C12] (AR v2)
Track 21 accurately ripped (confidence 21) [F675D802] (AR v2)
Track 22 accurately ripped (confidence 21) [251CC037] (AR v2)
Track 23 accurately ripped (confidence 21) [5AFBB2FA] (AR v2)
Track 24 accurately ripped (confidence 21) [3E354E33] (AR v2)
Track 25 accurately ripped (confidence 21) [7DA69D08] (AR v2)
Track 26 accurately ripped (confidence 21) [821CE864] (AR v2)
Track 27 accurately ripped (confidence 21) [6B7E2D50] (AR v2)

All tracks accurately ripped

End of status report

–– CUETools DB Plugin V2.1.6

[CTDB TOCID: WT_yLYwC9rGfTxtHdBPMGgOey2I-] found
Submit result: WT_yLYwC9rGfTxtHdBPMGgOey2I- has been confirmed
Track | CTDB Status
1 | (42/42) Accurately ripped
2 | (42/42) Accurately ripped
3 | (42/42) Accurately ripped
4 | (42/42) Accurately ripped
5 | (42/42) Accurately ripped
6 | (42/42) Accurately ripped
7 | (42/42) Accurately ripped
8 | (42/42) Accurately ripped
9 | (42/42) Accurately ripped
10 | (42/42) Accurately ripped
11 | (42/42) Accurately ripped
12 | (42/42) Accurately ripped
13 | (42/42) Accurately ripped
14 | (42/42) Accurately ripped
15 | (42/42) Accurately ripped
16 | (42/42) Accurately ripped
17 | (42/42) Accurately ripped
18 | (42/42) Accurately ripped
19 | (42/42) Accurately ripped
20 | (42/42) Accurately ripped
21 | (42/42) Accurately ripped
22 | (42/42) Accurately ripped
23 | (42/42) Accurately ripped
24 | (42/42) Accurately ripped
25 | (42/42) Accurately ripped
26 | (42/42) Accurately ripped
27 | (42/42) Accurately ripped


==== Log checksum BBEC14D99DE765A02A4729C79854291E6870D71F2758FFCECB9E956792CFB0B4 ====

Giovanni Antonini, Il Giardino Armonico - Vivaldi: Ottone in villa (2010)

Thanks to the original releaser