Tags
Language
Tags

Girls Aloud - The Sound of Girls Aloud: The Greatest Hits (Special Edition) (2006)

Posted By: Rtax
Girls Aloud - The Sound of Girls Aloud: The Greatest Hits (Special Edition) (2006)

Girls Aloud - The Sound of Girls Aloud: The Greatest Hits (Special Edition) (2006)
EAC Rip | FLAC (tracks, cue, log) - 633 MB | MP3 CBR 320 kbps - 194 MB
1:25:07 | House, Electro, Europop, Ballad, Dance-pop | Label: Fascination / Polydor

After just three albums in three years, Girls Aloud had enough smash hits for a greatest-hits collection, The Sound of Girls Aloud: The Greatest Hits, which compiles a dozen Top Ten singles and adds three new songs. Since rising to fame on the television show Popstars: The Rivals in 2002, the all-girl quintet experienced remarkable success in tandem with the production team Xenomania. Not only did all of the group's singles reach the Top Ten of the U.K. charts, if not the Top Five; the girls were also well-received from a critical standpoint more often than not. The Sound of Girls Aloud includes the three singles from the group's first album, Sound of the Underground (2003), most notably the chart-topping title track, and the five singles from the second album, What Will the Neighbors Say? (2004), all of them Top Five hits. The third full-length effort by Girls Aloud, Chemistry (2005), was a bit less successful than the first two, failing to reach the Top Ten of the U.K. albums chart, yet it still managed to spawn the four hit singles compiled here. These 12 singles are sequenced non-chronologically. In addition, there are three new songs sequenced late in the album: "Something Kinda Ooooh," "Money," and a cover version of Tiffany's 1987 international chart-topping smash "I Think We're Alone Now." These Xenomania productions are welcome additions to the Girls Aloud catalog, especially the standout lead single "Something Kinda Ooooh."

Tracklist
Disc 1
1. Sound Of The Underground (03:41)
2. Love Machine (03:27)
3. Biology (03:37)
4. No Good Advice (03:48)
5. I'll Stand By You (03:46)
6. Jump (03:41)
7. The Show (03:38)
8. See The Day (04:06)
9. Wake Me Up (03:29)
10. Life Got Cold (03:58)
11. Something Kinda Ooooh (03:23)
12. Whole Lotta History (03:49)
13. Long Hot Summer (03:54)
14. Money (04:14)
15. I Think We're Alone Now (03:18)

Disc 2 - Rarities
1. No Good Advice (Parental Advisory Version) (03:49)
2. Wake Me Up (Original Version) (03:27)
3. I Predict A Riot (Live From Wembley) (04:40)
4. Sound Of The Underground (Extended Version For TV Appearances) (03:38)
5. Hanging On The Telephone (Studio Demo) (02:40)
6. Loving Is Easy (03:04)
7. Singapore (03:01)
8. Sacred Trust (Previously Unreleased Version) (05:01)
Exact Audio Copy V1.0 beta 3 from 29. August 2011

EAC extraction logfile from 8. November 2014, 21:59

Girls Aloud / The Sound Of Girls Aloud: The Greatest Hits

Used drive : Optiarc DVD RW AD-7710H Adapter: 0 ID: 1

Read mode : Secure
Utilize accurate stream : Yes
Defeat audio cache : Yes
Make use of C2 pointers : No

Read offset correction : 48
Overread into Lead-In and Lead-Out : No
Fill up missing offset samples with silence : Yes
Delete leading and trailing silent blocks : No
Null samples used in CRC calculations : Yes
Used interface : Native Win32 interface for Win NT & 2000
Gap handling : Appended to previous track

Used output format : User Defined Encoder
Selected bitrate : 1024 kBit/s
Quality : High
Add ID3 tag : No
Command line compressor : C:\Program Files (x86)\Exact Audio Copy\Flac\flac.exe
Additional command line options : -8 -V -T "ARTIST=%artist%" -T "TITLE=%title%" -T "ALBUM=%albumtitle%" -T "DATE=%year%" -T "TRACKNUMBER=%tracknr%" -T "GENRE=%genre%" -T "PERFORMER=%albuminterpret%" -T "COMPOSER=%composer%" %haslyrics%–tag-from-file=LYRICS="%lyricsfile%"%haslyrics% -T "ALBUMARTIST=%albumartist%" -T "DISCNUMBER=%cdnumber%" -T "TOTALDISCS=%totalcds%" -T "TOTALTRACKS=%numtracks%" -T "COMMENT=%comment%" %source% -o %dest%


TOC of the extracted CD

Track | Start | Length | Start sector | End sector
––––––––––––––––––––––––––––-
1 | 0:00.00 | 3:41.22 | 0 | 16596
2 | 3:41.22 | 3:27.08 | 16597 | 32129
3 | 7:08.30 | 3:36.40 | 32130 | 48369
4 | 10:44.70 | 3:48.20 | 48370 | 65489
5 | 14:33.15 | 3:45.32 | 65490 | 82396
6 | 18:18.47 | 3:40.43 | 82397 | 98939
7 | 21:59.15 | 3:37.57 | 98940 | 115271
8 | 25:36.72 | 4:05.68 | 115272 | 133714
9 | 29:42.65 | 3:28.72 | 133715 | 149386
10 | 33:11.62 | 3:57.65 | 149387 | 167226
11 | 37:09.52 | 3:22.30 | 167227 | 182406
12 | 40:32.07 | 3:48.53 | 182407 | 199559
13 | 44:20.60 | 3:53.50 | 199560 | 217084
14 | 48:14.35 | 4:13.48 | 217085 | 236107
15 | 52:28.08 | 3:17.69 | 236108 | 250951


Track 1

Filename C:\EAC\01 - Sound Of The Underground.wav

Pre-gap length 0:00:02.00

Peak level 98.5 %
Extraction speed 2.2 X
Track quality 100.0 %
Test CRC FBF23C59
Copy CRC FBF23C59
Accurately ripped (confidence 22) [CCB6BA56] (AR v2)
Copy OK

Track 2

Filename C:\EAC\02 - Love Machine.wav

Peak level 88.0 %
Extraction speed 2.4 X
Track quality 100.0 %
Test CRC 3BAC67F7
Copy CRC 3BAC67F7
Accurately ripped (confidence 22) [47F20809] (AR v2)
Copy OK

Track 3

Filename C:\EAC\03 - Biology.wav

Pre-gap length 0:00:01.73

Peak level 92.4 %
Extraction speed 2.6 X
Track quality 100.0 %
Test CRC 12856162
Copy CRC 12856162
Accurately ripped (confidence 22) [2F55F216] (AR v2)
Copy OK

Track 4

Filename C:\EAC\04 - No Good Advice.wav

Pre-gap length 0:00:01.97

Peak level 98.2 %
Extraction speed 2.8 X
Track quality 100.0 %
Test CRC C583E262
Copy CRC C583E262
Accurately ripped (confidence 22) [1205F7BC] (AR v2)
Copy OK

Track 5

Filename C:\EAC\05 - I'll Stand By You.wav

Pre-gap length 0:00:01.02

Peak level 98.5 %
Extraction speed 2.1 X
Track quality 99.9 %
Test CRC 1661A525
Copy CRC 1661A525
Accurately ripped (confidence 22) [E588E772] (AR v2)
Copy OK

Track 6

Filename C:\EAC\06 - Jump.wav

Pre-gap length 0:00:02.00

Peak level 98.5 %
Extraction speed 3.2 X
Track quality 100.0 %
Test CRC 4D7F596A
Copy CRC 4D7F596A
Accurately ripped (confidence 22) [BA117458] (AR v2)
Copy OK

Track 7

Filename C:\EAC\07 - The Show.wav

Pre-gap length 0:00:01.53

Peak level 98.5 %
Extraction speed 2.3 X
Track quality 99.9 %
Test CRC FE954149
Copy CRC FE954149
Accurately ripped (confidence 22) [19EDF697] (AR v2)
Copy OK

Track 8

Filename C:\EAC\08 - See The Day.wav

Pre-gap length 0:00:01.29

Peak level 92.3 %
Extraction speed 3.6 X
Track quality 100.0 %
Test CRC 71249481
Copy CRC 71249481
Accurately ripped (confidence 22) [D1493924] (AR v2)
Copy OK

Track 9

Filename C:\EAC\09 - Wake Me Up.wav

Pre-gap length 0:00:02.37

Peak level 92.2 %
Extraction speed 3.6 X
Track quality 100.0 %
Test CRC 2DD85AF3
Copy CRC 2DD85AF3
Accurately ripped (confidence 22) [5D6BDC05] (AR v2)
Copy OK

Track 10

Filename C:\EAC\10 - Life Got Cold.wav

Pre-gap length 0:00:02.09

Peak level 98.6 %
Extraction speed 3.9 X
Track quality 100.0 %
Test CRC FEDC03E3
Copy CRC FEDC03E3
Accurately ripped (confidence 22) [06D4E155] (AR v2)
Copy OK

Track 11

Filename C:\EAC\11 - Something Kinda Ooooh.wav

Pre-gap length 0:00:01.09

Peak level 98.8 %
Extraction speed 3.9 X
Track quality 100.0 %
Test CRC F68BA62B
Copy CRC F68BA62B
Accurately ripped (confidence 22) [510E5FC9] (AR v2)
Copy OK

Track 12

Filename C:\EAC\12 - Whole Lotta History.wav

Pre-gap length 0:00:01.80

Peak level 92.5 %
Extraction speed 2.8 X
Track quality 99.9 %
Test CRC D1392B1E
Copy CRC D1392B1E
Accurately ripped (confidence 22) [71F336F0] (AR v2)
Copy OK

Track 13

Filename C:\EAC\13 - Long Hot Summer.wav

Pre-gap length 0:00:01.60

Peak level 91.6 %
Extraction speed 4.2 X
Track quality 100.0 %
Test CRC 7D50A544
Copy CRC 7D50A544
Accurately ripped (confidence 22) [DB84CFC3] (AR v2)
Copy OK

Track 14

Filename C:\EAC\14 - Money.wav

Pre-gap length 0:00:01.73

Peak level 98.8 %
Extraction speed 3.1 X
Track quality 99.9 %
Test CRC C99B57EF
Copy CRC C99B57EF
Accurately ripped (confidence 22) [A915119D] (AR v2)
Copy OK

Track 15

Filename C:\EAC\15 - I Think We're Alone Now.wav

Pre-gap length 0:00:02.74

Peak level 99.2 %
Extraction speed 4.3 X
Track quality 100.0 %
Test CRC 504FF246
Copy CRC 504FF246
Accurately ripped (confidence 21) [EF184CBF] (AR v2)
Copy OK


All tracks accurately ripped

No errors occurred

End of status report

==== Log checksum 2F2E399B084C966836B3411BAB5AA3E7619F49F1AEC2CBB6B39B16CBCB23448D ====


Exact Audio Copy V1.0 beta 3 from 29. August 2011

EAC extraction logfile from 8. November 2014, 23:01

Girls Aloud / The Sound Of Girls Aloud- The Greatest Hits

Used drive : Optiarc DVD RW AD-7710H Adapter: 0 ID: 1

Read mode : Secure
Utilize accurate stream : Yes
Defeat audio cache : Yes
Make use of C2 pointers : No

Read offset correction : 48
Overread into Lead-In and Lead-Out : No
Fill up missing offset samples with silence : Yes
Delete leading and trailing silent blocks : No
Null samples used in CRC calculations : Yes
Used interface : Native Win32 interface for Win NT & 2000
Gap handling : Appended to previous track

Used output format : User Defined Encoder
Selected bitrate : 1024 kBit/s
Quality : High
Add ID3 tag : No
Command line compressor : C:\Program Files (x86)\Exact Audio Copy\Flac\flac.exe
Additional command line options : -8 -V -T "ARTIST=%artist%" -T "TITLE=%title%" -T "ALBUM=%albumtitle%" -T "DATE=%year%" -T "TRACKNUMBER=%tracknr%" -T "GENRE=%genre%" -T "PERFORMER=%albuminterpret%" -T "COMPOSER=%composer%" %haslyrics%–tag-from-file=LYRICS="%lyricsfile%"%haslyrics% -T "ALBUMARTIST=%albumartist%" -T "DISCNUMBER=%cdnumber%" -T "TOTALDISCS=%totalcds%" -T "TOTALTRACKS=%numtracks%" -T "COMMENT=%comment%" %source% -o %dest%


TOC of the extracted CD

Track | Start | Length | Start sector | End sector
––––––––––––––––––––––––––––-
1 | 0:00.00 | 3:49.35 | 0 | 17209
2 | 3:49.35 | 3:26.44 | 17210 | 32703
3 | 7:16.04 | 4:40.15 | 32704 | 53718
4 | 11:56.19 | 3:38.28 | 53719 | 70096
5 | 15:34.47 | 2:39.65 | 70097 | 82086
6 | 18:14.37 | 3:03.55 | 82087 | 95866
7 | 21:18.17 | 3:00.60 | 95867 | 109426
8 | 24:19.02 | 5:00.62 | 109427 | 131988


Track 1

Filename C:\EAC\cd2\01 - No Good Advice (Parental Advisory version).wav

Pre-gap length 0:00:02.00

Peak level 97.9 %
Extraction speed 2.2 X
Track quality 100.0 %
Test CRC 9132A19F
Copy CRC 9132A19F
Accurately ripped (confidence 3) [4B5BC4CA] (AR v2)
Copy OK

Track 2

Filename C:\EAC\cd2\02 - Wake Me Up (Original version).wav

Pre-gap length 0:00:01.60

Peak level 97.7 %
Extraction speed 2.4 X
Track quality 100.0 %
Test CRC 5288AA23
Copy CRC 5288AA23
Accurately ripped (confidence 3) [8862490E] (AR v2)
Copy OK

Track 3

Filename C:\EAC\cd2\03 - I Predict A Riot.wav

Pre-gap length 0:00:01.62

Peak level 98.8 %
Extraction speed 2.0 X
Track quality 99.9 %
Test CRC 6B38A302
Copy CRC 6B38A302
Accurately ripped (confidence 3) [8B193F86] (AR v2)
Copy OK

Track 4

Filename C:\EAC\cd2\04 - Sound Of The Underground (Extended).wav

Pre-gap length 0:00:02.16

Peak level 98.8 %
Extraction speed 2.9 X
Track quality 100.0 %
Test CRC B257D23A
Copy CRC B257D23A
Accurately ripped (confidence 3) [5AB16068] (AR v2)
Copy OK

Track 5

Filename C:\EAC\cd2\05 - Hanging On The Telephone.wav

Pre-gap length 0:00:02.06

Peak level 97.5 %
Extraction speed 2.9 X
Track quality 100.0 %
Test CRC 7A3FBD5C
Copy CRC 7A3FBD5C
Accurately ripped (confidence 3) [7DADA3FD] (AR v2)
Copy OK

Track 6

Filename C:\EAC\cd2\06 - Loving Is Easy.wav

Pre-gap length 0:00:01.64

Peak level 92.0 %
Extraction speed 3.0 X
Track quality 100.0 %
Test CRC D9517640
Copy CRC D9517640
Accurately ripped (confidence 3) [810043AA] (AR v2)
Copy OK

Track 7

Filename C:\EAC\cd2\07 - Singapore.wav

Pre-gap length 0:00:01.80

Peak level 97.5 %
Extraction speed 3.2 X
Track quality 100.0 %
Test CRC D8BF0590
Copy CRC D8BF0590
Accurately ripped (confidence 3) [79060234] (AR v2)
Copy OK

Track 8

Filename C:\EAC\cd2\08 - Sacred Trust.wav

Pre-gap length 0:00:02.24

Peak level 93.0 %
Extraction speed 3.6 X
Track quality 100.0 %
Test CRC 2C801D8F
Copy CRC 2C801D8F
Accurately ripped (confidence 3) [8FED2508] (AR v2)
Copy OK


All tracks accurately ripped

No errors occurred

End of status report

==== Log checksum 27467098C921E4C6B8E56DA75D3A8E14B1102DCCD7F6D064598E9AB913597B20 ====