Tags
Language
Tags

Glenn Gould: Hereafter - A Film by Bruno Monsaingeon (2009) [BDRip]

Posted By: Vilboa
Glenn Gould: Hereafter - A Film by Bruno Monsaingeon (2009) [BDRip]

Glenn Gould: Hereafter - A Film by Bruno Monsaingeon (2009) [BDRip]
BluRay-rip | AVC | MKV 1920x1080 / 6215 kbps / 29,97 fps | 106 min | 5,02 Gb
Audio: English / AC3 / 5ch / 48.0 KHz / 448 Kbps
Classical | EuroArts | Sub: English, French, German, Spanish, Italian, Japanese

Glenn Gould remains an enigmatic, fascinating figure more than two decades after his death. This new film, directed by Gould's friend Bruno Monsaingeon, who has already written four books and made a 23-part TV series about him, is something very special. Taken from Gould's own words, the pianist himself seems to act as narrator in a retrospective on his life and art. A great deal of archival footage of both interviews and performances exemplify the pianist's genius and eccentricities. There are modern-day interviews as well. One with an Italian woman who comes to hang out with a sculpture of Gould in front of the CBC building in Toronto lets us in on the emotional effect he had on people, and many others discuss how he changed their perceptions of music. Gould himself is remarkably insightful in interviews. He seems to have been a man incapable of being boring or thoughtless. And, of course, the music speaks for itself. You'll hear some of the most stunning playing. Even those of us who already know and appreciate Gould will find new things here. This film is an eye- and ear-opening delight. (Robert Levine)

Cast:
Glenn Gould, piano
Russel Oberlin, countertenor
Toronto Symphony Orchestra / Ernest MacMillan
CBC Symphony Orchestra / Paul Sherman
Yehudi Menuhin, violin
Director – Bruno Monsaingeon


General
Unique ID : 237851077101324925887636379354449114793 (0xB2F0737FD6CF5DC89014345FA3F0F6A9)
Complete name : C:\GLENN GOULD HEREAFTER.mkv
Format : Matroska
Format version : Version 2
File size : 5.02 GiB
Duration : 1h 46mn
Overall bit rate : 6 768 Kbps
Movie name : GLENN GOULD HEREAFTER
Encoded date : UTC 2021-05-29 12:20:18
Writing application : DVDFab 9.1.6.8
Writing library : libebml v0.7.8 + libmatroska v0.8.1

Video
ID : 1
Format : AVC
Format/Info : Advanced Video Codec
Format profile : High@L4.1
Format settings, CABAC : Yes
Format settings, ReFrames : 2 frames
Format settings, GOP : M=3, N=24
Codec ID : V_MPEG4/ISO/AVC
Duration : 1h 46mn
Bit rate : 6 215 Kbps
Width : 1 920 pixels
Height : 1 080 pixels
Display aspect ratio : 16:9
Frame rate mode : Constant
Frame rate : 29.970 fps
Color space : YUV
Chroma subsampling : 4:2:0
Bit depth : 8 bits
Scan type : Progressive
Bits/(Pixel*Frame) : 0.100
Stream size : 4.59 GiB (91%)
Writing library : x264 core 142
Encoding settings : cabac=1 / ref=1 / deblock=1:-1:-1 / analyse=0x3:0 / me=hex / subme=5 / psy=0 / mixed_ref=0 / me_range=16 / chroma_me=1 / trellis=0 / 8x8dct=1 / cqm=0 / deadzone=21,11 / fast_pskip=1 / chroma_qp_offset=0 / threads=8 / lookahead_threads=2 / sliced_threads=0 / nr=0 / decimate=1 / interlaced=0 / bluray_compat=0 / constrained_intra=0 / bframes=2 / b_pyramid=0 / b_adapt=1 / b_bias=0 / direct=1 / weightb=1 / open_gop=0 / weightp=0 / keyint=24 / keyint_min=13 / scenecut=40 / intra_refresh=0 / rc=abr / mbtree=0 / bitrate=6215 / ratetol=1.0 / qcomp=0.60 / qpmin=0 / qpmax=69 / qpstep=4 / ip_ratio=1.40 / pb_ratio=1.30 / aq=1:1.00
Default : Yes
Forced : No
Color primaries : BT.709
Transfer characteristics : BT.709
Matrix coefficients : BT.709
Color range : Limited

Audio
ID : 2
Format : AC-3
Format/Info : Audio Coding 3
Mode extension : CM (complete main)
Format settings, Endianness : Big
Codec ID : A_AC3
Duration : 1h 46mn
Bit rate mode : Constant
Bit rate : 448 Kbps
Channel(s) : 5 channels
Channel positions : Front: L C R, Side: L R
Sampling rate : 48.0 KHz
Bit depth : 16 bits
Compression mode : Lossy
Stream size : 340 MiB (7%)
Language : English
Default : Yes
Forced : No

Text #1
ID : 4
Format : VobSub
Codec ID : S_VOBSUB
Codec ID/Info : The same subtitle format used on DVDs
Language : English
Default : Yes
Forced : No

Text #2
ID : 5
Format : VobSub
Codec ID : S_VOBSUB
Codec ID/Info : The same subtitle format used on DVDs
Language : French
Default : No
Forced : No

Text #3
ID : 6
Format : VobSub
Codec ID : S_VOBSUB
Codec ID/Info : The same subtitle format used on DVDs
Language : German
Default : No
Forced : No

Text #4
ID : 7
Format : VobSub
Codec ID : S_VOBSUB
Codec ID/Info : The same subtitle format used on DVDs
Language : Spanish
Default : No
Forced : No

Text #5
ID : 8
Format : VobSub
Codec ID : S_VOBSUB
Codec ID/Info : The same subtitle format used on DVDs
Language : Italian
Default : No
Forced : No

Text #6
ID : 9
Format : VobSub
Codec ID : S_VOBSUB
Codec ID/Info : The same subtitle format used on DVDs
Language : Japanese
Default : No
Forced : No

Menu
00:00:00.000 : en:Chapter 01
00:04:45.885 : en:Chapter 02
00:06:18.211 : en:Chapter 03
00:11:26.919 : en:Chapter 04
00:15:18.851 : en:Chapter 05
00:18:17.963 : en:Chapter 06
00:24:23.128 : en:Chapter 07
00:27:05.857 : en:Chapter 08
00:33:46.557 : en:Chapter 09
00:35:52.316 : en:Chapter 10
00:38:19.563 : en:Chapter 11
00:43:29.640 : en:Chapter 12
00:46:03.894 : en:Chapter 13
00:50:19.683 : en:Chapter 14
00:57:58.942 : en:Chapter 15
01:01:00.723 : en:Chapter 16
01:04:31.734 : en:Chapter 17
01:08:00.076 : en:Chapter 18
01:11:43.632 : en:Chapter 19
01:15:11.273 : en:Chapter 20
01:18:37.312 : en:Chapter 21
01:23:52.227 : en:Chapter 22
01:27:07.188 : en:Chapter 23
01:31:59.647 : en:Chapter 24
01:35:54.515 : en:Chapter 25
01:39:13.847 : en:Chapter 26

Glenn Gould: Hereafter - A Film by Bruno Monsaingeon (2009) [BDRip]