Tags
Language
Tags
April 2024
Su Mo Tu We Th Fr Sa
31 1 2 3 4 5 6
7 8 9 10 11 12 13
14 15 16 17 18 19 20
21 22 23 24 25 26 27
28 29 30 1 2 3 4

VA - Going Underground - 66 Smash New Wave Hits (2011)

Posted By: Rtax
VA - Going Underground - 66 Smash New Wave Hits (2011)

VA - Going Underground - 66 Smash New Wave Hits (2011)
EAC Rip | FLAC (tracks, cue, log) - 1.4 GB | MP3 CBR 320 kbps - 497 MB
3:37:02 | New Wave, Synth-pop, Pop Punk, Pop Rock, Power Pop | Label: Universal Music TV /EMI TV

Amazon Review by David Sheridan
Lots of good new wave era chestnuts on this compilation. I wonder where perhaps Talking Heads, Echo & the Bunnymen or Graham Parker are, why no Nick Lowe/Dave Edmunds/Rockpile, why no "Girl of My Dreams" by Bram Tchaikovsky, and they definitely seemed to put this together having drawn a somewhat arbitrary line in the sand somewhere between punk and new wave (no Pistols, no Clash, but the Ramones and Sham 69 are here). And then we get the Tubes (almost more musical theatre than new wave) and Hazel O'Connor (wtf?). And they also include whatever a Jilted John is. There's more than a little overlap with some other compilations and box sets out there (although I still know of no proper full sized new wave box set, Rhino, where are you?), but this will send those of us of a certain age nostalgically back to the days of Jimmy Carter in the White House, lining up for 79 cent gallons of gas and skinny ties with the knot a few inches below your collar…remember the first time you heard My Sharona? Maybe in your Ford Maverick while sitting in one of those gas lines…

Tracklist
Disc: 1
1. Going Underground - The Jam
2. Hong Kong Garden - Siouxsie And The Banshees
3. Ever Fallen In Love (With Someone You Shouldn't've)? - Buzzcocks
4. Pump It Up - Elvis Costello & The Attractions
5. Geno - Dexys Midnight Runners
6. Turning Japanese - The Vapors
7. My Best Friend's Girl - The Cars
8. Ca Plane Pour Moi - Plastic Bertrand
9. Dog Eat Dog - Adam & The Ants
10. Lucky Number - Lene Lovich
11. Airport - Motors
12. Because The Night - Patti Smith Group
13. Rat Trap - The Boomtown Rats
14. No More Heroes - The Stranglers
15. Another Girl Another Planet - The Only Ones
16. Do Anything You Wanna Do - Eddie & The Hot Rods
17. Making Plans For Nigel - XTC
18. Money - The Flying Lizards
19. Jilted John - Jilted John
20. Jimmy Jimmy - The Undertones
21. Banana Splits - The Dickies
22. If The Kids Are United - Sham 69

Disc: 2
1. Hanging On The Telephone - Blondie
2. My Sharona - The Knack
3. Is She Really Going Out With Him? - Joe Jackson
4. Up The Junction - Squeeze
5. Sex & Drugs & Rock & Roll - Ian Dury, The Blockheads
6. Back Of My Hand - Jags
7. I Got You - Split Enz
8. Rock Lobster - The B-52's
9. Video Killed The Radio Star - The Buggles
10. Stop Your Sobbing - The Pretenders
11. 2-4-6-8 Motorway - Tom Robinson Band
12. Into The Valley - The Skids
13. The Sound Of The Suburbs - The Members
14. Sheena Is A Punk Rocker - Ramones
15. Milk And Alcohol - Dr. Feelgood
16. King Rocker - Generation X
17. Prime Time - The Tubes
18. Whip It - Devo
19. Top Of The Pops - The Rezillos
20. Babylon's Burning - The Ruts
21. Public Image - Public Image Ltd.
22. I Am The Fly - Wire

Disc: 3
1. Boys Don't Cry - The Cure
2. Love Will Tear Us Apart - Joy Division
3. Pretty In Pink - The Psychedelic Furs
4. Kids In America - Kim Wilde
5. They Don't Know - Kirsty MacColl
6. Reward - The Teardrop Explodes
7. Swords Of A Thousand Men - Tenpole Tudor
8. Eighth Day - Hazel O'Connor
9. I Heard It Through The Grapevine - The Slits
10. Egyptian Reggae - Jonathan Richman And The Modern Lovers
11. Gangsters - The Special AKA
12. On My Radio - The Selecter
13. Private Life - Grace Jones
14. Genius Of Love - Tom Tom Club
15. Broken English - Marianne Faithfull
16. Germfree Adolescents - X-Ray Spex
17. I'm In Love With A German Film Star - The Passions
18. No.1 Song In Heaven - Sparks
19. Being Boiled - The Human League
20. Life In Tokyo (Part 1) - Japan
21. We Got The Beat - The Go-Go's
22. C30 C60 C90 Go - Bow Wow Wow
Exact Audio Copy V1.0 beta 3 from 29. August 2011

EAC extraction logfile from 12. November 2011, 15:42

Various Artists / Going Underground [cd1]

Used drive : DVDRW SATA 20X20X12X Adapter: 5 ID: 0

Read mode : Secure
Utilize accurate stream : Yes
Defeat audio cache : Yes
Make use of C2 pointers : No

Read offset correction : 6
Overread into Lead-In and Lead-Out : No
Fill up missing offset samples with silence : Yes
Delete leading and trailing silent blocks : No
Null samples used in CRC calculations : Yes
Used interface : Native Win32 interface for Win NT & 2000
Gap handling : Appended to previous track

Used output format : User Defined Encoder
Selected bitrate : 1024 kBit/s
Quality : High
Add ID3 tag : No
Command line compressor : C:\Program Files (x86)\Exact Audio Copy\FLAC\FLAC.EXE
Additional command line options : -8 -V -T "ARTIST=%artist%" -T "TITLE=%title%" -T "ALBUM=%albumtitle%" -T "DATE=%year%" -T "TRACKNUMBER=%tracknr%" -T "GENRE=%genre%" -T "PERFORMER=%albuminterpret%" -T "COMPOSER=%composer%" %haslyrics%–tag-from-file=LYRICS="%lyricsfile%"%haslyrics% -T "ALBUMARTIST=%albumartist%" -T "ALBUM ARTIST=%albumartist%" -T "DISCNUMBER=%cdnumber%" -T "TOTALDISCS=%totalcds%" -T "TOTALTRACKS=%numtracks%" -T "COMMENT=EAC V1.0 beta 2, Secure Mode, Test & Copy, AccurateRip, FLAC -8" %source% -o %dest%


TOC of the extracted CD

Track | Start | Length | Start sector | End sector
––––––––––––––––––––––––––––-
1 | 0:00.00 | 2:54.63 | 0 | 13112
2 | 2:54.63 | 2:53.22 | 13113 | 26109
3 | 5:48.10 | 2:40.21 | 26110 | 38130
4 | 8:28.31 | 3:17.03 | 38131 | 52908
5 | 11:45.34 | 3:25.70 | 52909 | 68353
6 | 15:11.29 | 3:42.73 | 68354 | 85076
7 | 18:54.27 | 3:41.25 | 85077 | 101676
8 | 22:35.52 | 2:56.04 | 101677 | 114880
9 | 25:31.56 | 3:13.04 | 114881 | 129359
10 | 28:44.60 | 2:45.74 | 129360 | 141808
11 | 31:30.59 | 4:28.64 | 141809 | 161972
12 | 35:59.48 | 3:20.53 | 161973 | 177025
13 | 39:20.26 | 4:54.71 | 177026 | 199146
14 | 44:15.22 | 3:27.57 | 199147 | 214728
15 | 47:43.04 | 3:00.28 | 214729 | 228256
16 | 50:43.32 | 4:02.10 | 228257 | 246416
17 | 54:45.42 | 4:11.62 | 246417 | 265303
18 | 58:57.29 | 2:29.43 | 265304 | 276521
19 | 61:26.72 | 2:52.72 | 276522 | 289493
20 | 64:19.69 | 2:41.53 | 289494 | 301621
21 | 67:01.47 | 1:54.19 | 301622 | 310190
22 | 68:55.66 | 3:45.60 | 310191 | 327125


Track 1

Filename E:\!_M_2012\FLAC\[VA] - Going Underground [cd1] - [2011] [FLAC] {New Wave}\01 - The Jam - Going Underground.wav

Pre-gap length 0:00:02.00

Peak level 100.0 %
Extraction speed 3.4 X
Track quality 100.0 %
Test CRC B9E34A1F
Copy CRC B9E34A1F
Track not present in AccurateRip database
Copy OK

Track 2

Filename E:\!_M_2012\FLAC\[VA] - Going Underground [cd1] - [2011] [FLAC] {New Wave}\02 - Siouxsie & The Banshees - Hong Kong Garden.wav

Pre-gap length 0:00:00.05

Peak level 100.0 %
Extraction speed 2.7 X
Track quality 99.9 %
Test CRC 50F783D1
Copy CRC 50F783D1
Track not present in AccurateRip database
Copy OK

Track 3

Filename E:\!_M_2012\FLAC\[VA] - Going Underground [cd1] - [2011] [FLAC] {New Wave}\03 - Buzzcocks - Ever Fallen In Love (With Someone you Shouldn't've).wav

Pre-gap length 0:00:00.05

Peak level 100.0 %
Extraction speed 3.4 X
Track quality 100.0 %
Test CRC 3762B8BF
Copy CRC 3762B8BF
Track not present in AccurateRip database
Copy OK

Track 4

Filename E:\!_M_2012\FLAC\[VA] - Going Underground [cd1] - [2011] [FLAC] {New Wave}\04 - Elvis Costello & The Attractions - Pump It Up.wav

Pre-gap length 0:00:00.05

Peak level 89.6 %
Extraction speed 3.9 X
Track quality 100.0 %
Test CRC FDC82C14
Copy CRC FDC82C14
Track not present in AccurateRip database
Copy OK

Track 5

Filename E:\!_M_2012\FLAC\[VA] - Going Underground [cd1] - [2011] [FLAC] {New Wave}\05 - Dexy's Midnight Runners - Geno.wav

Pre-gap length 0:00:00.05

Peak level 100.0 %
Extraction speed 4.2 X
Track quality 100.0 %
Test CRC 29E4A10A
Copy CRC 29E4A10A
Track not present in AccurateRip database
Copy OK

Track 6

Filename E:\!_M_2012\FLAC\[VA] - Going Underground [cd1] - [2011] [FLAC] {New Wave}\06 - The Vapours - Turning Japanese.wav

Pre-gap length 0:00:00.05

Peak level 100.0 %
Extraction speed 4.4 X
Track quality 100.0 %
Test CRC 16662902
Copy CRC 16662902
Track not present in AccurateRip database
Copy OK

Track 7

Filename E:\!_M_2012\FLAC\[VA] - Going Underground [cd1] - [2011] [FLAC] {New Wave}\07 - The Cars - My Best Friend's Girl.wav

Pre-gap length 0:00:00.02

Peak level 100.0 %
Extraction speed 4.7 X
Track quality 100.0 %
Test CRC 43242E38
Copy CRC 43242E38
Track not present in AccurateRip database
Copy OK

Track 8

Filename E:\!_M_2012\FLAC\[VA] - Going Underground [cd1] - [2011] [FLAC] {New Wave}\08 - Plastic Bertrand - Ca Plane Pour Moi.wav

Pre-gap length 0:00:00.05

Peak level 96.6 %
Extraction speed 4.6 X
Track quality 100.0 %
Test CRC E70F562E
Copy CRC E70F562E
Track not present in AccurateRip database
Copy OK

Track 9

Filename E:\!_M_2012\FLAC\[VA] - Going Underground [cd1] - [2011] [FLAC] {New Wave}\09 - Adam & The Ants - Dog Eat Dog.wav

Pre-gap length 0:00:00.05

Peak level 100.0 %
Extraction speed 4.3 X
Track quality 100.0 %
Test CRC 7AE49B8A
Copy CRC 7AE49B8A
Track not present in AccurateRip database
Copy OK

Track 10

Filename E:\!_M_2012\FLAC\[VA] - Going Underground [cd1] - [2011] [FLAC] {New Wave}\10 - Lene Lovich - Lucky Number.wav

Pre-gap length 0:00:00.05

Peak level 100.0 %
Extraction speed 3.6 X
Track quality 99.9 %
Test CRC 6701C94E
Copy CRC 6701C94E
Track not present in AccurateRip database
Copy OK

Track 11

Filename E:\!_M_2012\FLAC\[VA] - Going Underground [cd1] - [2011] [FLAC] {New Wave}\11 - The Motors - Airport.wav

Pre-gap length 0:00:00.05

Peak level 100.0 %
Extraction speed 5.6 X
Track quality 100.0 %
Test CRC B35ADA2E
Copy CRC B35ADA2E
Track not present in AccurateRip database
Copy OK

Track 12

Filename E:\!_M_2012\FLAC\[VA] - Going Underground [cd1] - [2011] [FLAC] {New Wave}\12 - Patti Smith Group - Because The Night.wav

Pre-gap length 0:00:00.05

Peak level 100.0 %
Extraction speed 5.5 X
Track quality 100.0 %
Test CRC D449F48D
Copy CRC D449F48D
Track not present in AccurateRip database
Copy OK

Track 13

Filename E:\!_M_2012\FLAC\[VA] - Going Underground [cd1] - [2011] [FLAC] {New Wave}\13 - The Boomtown Rats - Rat Trap.wav

Pre-gap length 0:00:00.05

Peak level 100.0 %
Extraction speed 5.7 X
Track quality 100.0 %
Test CRC 8C9231EC
Copy CRC 8C9231EC
Track not present in AccurateRip database
Copy OK

Track 14

Filename E:\!_M_2012\FLAC\[VA] - Going Underground [cd1] - [2011] [FLAC] {New Wave}\14 - The Stranglers - No More Heroes.wav

Pre-gap length 0:00:00.05

Peak level 100.0 %
Extraction speed 6.0 X
Track quality 100.0 %
Test CRC CB350970
Copy CRC CB350970
Track not present in AccurateRip database
Copy OK

Track 15

Filename E:\!_M_2012\FLAC\[VA] - Going Underground [cd1] - [2011] [FLAC] {New Wave}\15 - The Only Ones - Another Girl Another Planet.wav

Pre-gap length 0:00:00.05

Peak level 100.0 %
Extraction speed 5.6 X
Track quality 100.0 %
Test CRC 61B4D118
Copy CRC 61B4D118
Track not present in AccurateRip database
Copy OK

Track 16

Filename E:\!_M_2012\FLAC\[VA] - Going Underground [cd1] - [2011] [FLAC] {New Wave}\16 - Eddie & The Hot Rods - Do Anything You Wanna Do.wav

Pre-gap length 0:00:00.05

Peak level 85.1 %
Extraction speed 5.8 X
Track quality 100.0 %
Test CRC 02FA8429
Copy CRC 02FA8429
Track not present in AccurateRip database
Copy OK

Track 17

Filename E:\!_M_2012\FLAC\[VA] - Going Underground [cd1] - [2011] [FLAC] {New Wave}\17 - XTC - Making Plans For Nigel.wav

Pre-gap length 0:00:00.05

Peak level 98.1 %
Extraction speed 6.4 X
Track quality 100.0 %
Test CRC 03BD0902
Copy CRC 03BD0902
Track not present in AccurateRip database
Copy OK

Track 18

Filename E:\!_M_2012\FLAC\[VA] - Going Underground [cd1] - [2011] [FLAC] {New Wave}\18 - The Flying Lizards - Money.wav

Pre-gap length 0:00:00.05

Peak level 100.0 %
Extraction speed 6.1 X
Track quality 100.0 %
Test CRC E15043A7
Copy CRC E15043A7
Track not present in AccurateRip database
Copy OK

Track 19

Filename E:\!_M_2012\FLAC\[VA] - Going Underground [cd1] - [2011] [FLAC] {New Wave}\19 - Jilted John - Jilted John.wav

Pre-gap length 0:00:00.05

Peak level 100.0 %
Extraction speed 4.8 X
Track quality 99.9 %
Test CRC 769BB345
Copy CRC 769BB345
Track not present in AccurateRip database
Copy OK

Track 20

Filename E:\!_M_2012\FLAC\[VA] - Going Underground [cd1] - [2011] [FLAC] {New Wave}\20 - The Undertones - Jimmy Jimmy.wav

Pre-gap length 0:00:00.05

Peak level 100.0 %
Extraction speed 6.2 X
Track quality 100.0 %
Test CRC C2556925
Copy CRC C2556925
Track not present in AccurateRip database
Copy OK

Track 21

Filename E:\!_M_2012\FLAC\[VA] - Going Underground [cd1] - [2011] [FLAC] {New Wave}\21 - The Dickies - Banana Splits.wav

Pre-gap length 0:00:00.05

Peak level 100.0 %
Extraction speed 6.0 X
Track quality 100.0 %
Test CRC 29830A83
Copy CRC 29830A83
Track not present in AccurateRip database
Copy OK

Track 22

Filename E:\!_M_2012\FLAC\[VA] - Going Underground [cd1] - [2011] [FLAC] {New Wave}\22 - Sham 69 - If The Kids Are United.wav

Pre-gap length 0:00:00.28

Peak level 100.0 %
Extraction speed 6.0 X
Track quality 100.0 %
Test CRC BD92A0EC
Copy CRC BD92A0EC
Track not present in AccurateRip database
Copy OK


None of the tracks are present in the AccurateRip database

No errors occurred

End of status report

–– CUETools DB Plugin V2.1.3

[CTDB TOCID: umxaIbKG2OwVE3106SW5vBjkOwU-] disk not present in database, Submit result: umxaIbKG2OwVE3106SW5vBjkOwU- has been uploaded


==== Log checksum 178322EC2884BB9D74E9C474A8AEF1749F5CEC5AAE86C4BF40E8F9F2217E2DAC ====


Exact Audio Copy V1.0 beta 3 from 29. August 2011

EAC extraction logfile from 12. November 2011, 22:11

Various Artists / Going Underground [cd2]

Used drive : DVDRW SATA 20X20X12X Adapter: 5 ID: 0

Read mode : Secure
Utilize accurate stream : Yes
Defeat audio cache : Yes
Make use of C2 pointers : No

Read offset correction : 6
Overread into Lead-In and Lead-Out : No
Fill up missing offset samples with silence : Yes
Delete leading and trailing silent blocks : No
Null samples used in CRC calculations : Yes
Used interface : Native Win32 interface for Win NT & 2000
Gap handling : Appended to previous track

Used output format : User Defined Encoder
Selected bitrate : 1024 kBit/s
Quality : High
Add ID3 tag : No
Command line compressor : C:\Program Files (x86)\Exact Audio Copy\FLAC\FLAC.EXE
Additional command line options : -8 -V -T "ARTIST=%artist%" -T "TITLE=%title%" -T "ALBUM=%albumtitle%" -T "DATE=%year%" -T "TRACKNUMBER=%tracknr%" -T "GENRE=%genre%" -T "PERFORMER=%albuminterpret%" -T "COMPOSER=%composer%" %haslyrics%–tag-from-file=LYRICS="%lyricsfile%"%haslyrics% -T "ALBUMARTIST=%albumartist%" -T "ALBUM ARTIST=%albumartist%" -T "DISCNUMBER=%cdnumber%" -T "TOTALDISCS=%totalcds%" -T "TOTALTRACKS=%numtracks%" -T "COMMENT=EAC V1.0 beta 2, Secure Mode, Test & Copy, AccurateRip, FLAC -8" %source% -o %dest%


TOC of the extracted CD

Track | Start | Length | Start sector | End sector
––––––––––––––––––––––––––––-
1 | 0:00.00 | 2:20.37 | 0 | 10536
2 | 2:20.37 | 4:01.57 | 10537 | 28668
3 | 6:22.19 | 3:34.19 | 28669 | 44737
4 | 9:56.38 | 3:10.14 | 44738 | 59001
5 | 13:06.52 | 3:04.03 | 59002 | 72804
6 | 16:10.55 | 3:19.43 | 72805 | 87772
7 | 19:30.23 | 3:25.11 | 87773 | 103158
8 | 22:55.34 | 4:53.56 | 103159 | 125189
9 | 27:49.15 | 3:18.14 | 125190 | 140053
10 | 31:07.29 | 2:37.67 | 140054 | 151895
11 | 33:45.21 | 3:15.63 | 151896 | 166583
12 | 37:01.09 | 3:09.43 | 166584 | 180801
13 | 40:10.52 | 3:15.02 | 180802 | 195428
14 | 43:25.54 | 2:46.55 | 195429 | 207933
15 | 46:12.34 | 2:46.24 | 207934 | 220407
16 | 48:58.58 | 2:16.13 | 220408 | 230620
17 | 51:14.71 | 3:15.58 | 230621 | 245303
18 | 54:30.54 | 2:37.67 | 245304 | 257145
19 | 57:08.46 | 3:14.29 | 257146 | 271724
20 | 60:23.00 | 2:34.40 | 271725 | 283314
21 | 62:57.40 | 2:55.23 | 283315 | 296462
22 | 65:52.63 | 3:08.37 | 296463 | 310599


Track 1

Filename E:\!_M_2012\FLAC\[VA] - Going Underground [cd2] - [2011] [FLAC] {New Wave}\01 - Blondie - Hanging On The Telephone.wav

Pre-gap length 0:00:02.00

Peak level 100.0 %
Extraction speed 4.0 X
Track quality 100.0 %
Test CRC 8D2C6C89
Copy CRC 8D2C6C89
Track not present in AccurateRip database
Copy OK

Track 2

Filename E:\!_M_2012\FLAC\[VA] - Going Underground [cd2] - [2011] [FLAC] {New Wave}\02 - The Knack - My Sharona.wav

Pre-gap length 0:00:00.05

Peak level 100.0 %
Extraction speed 4.8 X
Track quality 100.0 %
Test CRC 3B04340B
Copy CRC 3B04340B
Track not present in AccurateRip database
Copy OK

Track 3

Filename E:\!_M_2012\FLAC\[VA] - Going Underground [cd2] - [2011] [FLAC] {New Wave}\03 - Joe Jackson - Is She Really Going Out With Him.wav

Pre-gap length 0:00:00.05

Peak level 100.0 %
Extraction speed 5.0 X
Track quality 100.0 %
Test CRC F515519D
Copy CRC F515519D
Track not present in AccurateRip database
Copy OK

Track 4

Filename E:\!_M_2012\FLAC\[VA] - Going Underground [cd2] - [2011] [FLAC] {New Wave}\04 - Squeeze - Up The Junction.wav

Pre-gap length 0:00:00.05

Peak level 100.0 %
Extraction speed 5.1 X
Track quality 100.0 %
Test CRC 94375FD4
Copy CRC 94375FD4
Track not present in AccurateRip database
Copy OK

Track 5

Filename E:\!_M_2012\FLAC\[VA] - Going Underground [cd2] - [2011] [FLAC] {New Wave}\05 - Ian Dury & The Blockheads - Sex & Drugs & Rock & Roll.wav

Pre-gap length 0:00:00.05

Peak level 69.9 %
Extraction speed 5.6 X
Track quality 100.0 %
Test CRC FE497503
Copy CRC FE497503
Track not present in AccurateRip database
Copy OK

Track 6

Filename E:\!_M_2012\FLAC\[VA] - Going Underground [cd2] - [2011] [FLAC] {New Wave}\06 - The Jags - Back Of My Hand.wav

Pre-gap length 0:00:00.05

Peak level 90.7 %
Extraction speed 5.9 X
Track quality 100.0 %
Test CRC 458238C7
Copy CRC 458238C7
Track not present in AccurateRip database
Copy OK

Track 7

Filename E:\!_M_2012\FLAC\[VA] - Going Underground [cd2] - [2011] [FLAC] {New Wave}\07 - Split Enz - I Got You.wav

Pre-gap length 0:00:00.05

Peak level 97.7 %
Extraction speed 4.7 X
Track quality 99.9 %
Test CRC 06A89D00
Copy CRC 06A89D00
Track not present in AccurateRip database
Copy OK

Track 8

Filename E:\!_M_2012\FLAC\[VA] - Going Underground [cd2] - [2011] [FLAC] {New Wave}\08 - The B-52's - Rock Lobster.wav

Pre-gap length 0:00:00.05

Peak level 100.0 %
Extraction speed 6.7 X
Track quality 100.0 %
Test CRC CB9FC173
Copy CRC CB9FC173
Track not present in AccurateRip database
Copy OK

Track 9

Filename E:\!_M_2012\FLAC\[VA] - Going Underground [cd2] - [2011] [FLAC] {New Wave}\09 - The Buggles - Video Killed The Radio Start.wav

Pre-gap length 0:00:00.05

Peak level 100.0 %
Extraction speed 5.2 X
Track quality 99.9 %
Test CRC 1B4EDC58
Copy CRC 1B4EDC58
Track not present in AccurateRip database
Copy OK

Track 10

Filename E:\!_M_2012\FLAC\[VA] - Going Underground [cd2] - [2011] [FLAC] {New Wave}\10 - The Pretenders - Stop The Sobbing.wav

Pre-gap length 0:00:00.05

Peak level 100.0 %
Extraction speed 6.5 X
Track quality 100.0 %
Test CRC 8F9621DE
Copy CRC 8F9621DE
Track not present in AccurateRip database
Copy OK

Track 11

Filename E:\!_M_2012\FLAC\[VA] - Going Underground [cd2] - [2011] [FLAC] {New Wave}\11 - The Tom Robinson Band - 2-4-6-8 Motorway.wav

Pre-gap length 0:00:00.05

Peak level 100.0 %
Extraction speed 5.4 X
Track quality 99.9 %
Test CRC 7BC86361
Copy CRC 7BC86361
Track not present in AccurateRip database
Copy OK

Track 12

Filename E:\!_M_2012\FLAC\[VA] - Going Underground [cd2] - [2011] [FLAC] {New Wave}\12 - The Skids - Into The Valley.wav

Pre-gap length 0:00:00.05

Peak level 100.0 %
Extraction speed 5.6 X
Track quality 99.9 %
Test CRC 3001E60B
Copy CRC 3001E60B
Track not present in AccurateRip database
Copy OK

Track 13

Filename E:\!_M_2012\FLAC\[VA] - Going Underground [cd2] - [2011] [FLAC] {New Wave}\13 - The Members - Sound Of The Suburbs.wav

Pre-gap length 0:00:00.05

Peak level 100.0 %
Extraction speed 7.4 X
Track quality 100.0 %
Test CRC C8CE791A
Copy CRC C8CE791A
Track not present in AccurateRip database
Copy OK

Track 14

Filename E:\!_M_2012\FLAC\[VA] - Going Underground [cd2] - [2011] [FLAC] {New Wave}\14 - Ramones - Sheena Is A Punk Rocker.wav

Pre-gap length 0:00:00.05

Peak level 100.0 %
Extraction speed 7.1 X
Track quality 100.0 %
Test CRC 5F036634
Copy CRC 5F036634
Track not present in AccurateRip database
Copy OK

Track 15

Filename E:\!_M_2012\FLAC\[VA] - Going Underground [cd2] - [2011] [FLAC] {New Wave}\15 - Dr Feelgood - Milk & Alcohol.wav

Pre-gap length 0:00:00.05

Peak level 100.0 %
Extraction speed 5.7 X
Track quality 99.9 %
Test CRC E0B8EF16
Copy CRC E0B8EF16
Track not present in AccurateRip database
Copy OK

Track 16

Filename E:\!_M_2012\FLAC\[VA] - Going Underground [cd2] - [2011] [FLAC] {New Wave}\16 - Generation X - King Rocker.wav

Pre-gap length 0:00:00.05

Peak level 100.0 %
Extraction speed 7.3 X
Track quality 100.0 %
Test CRC 8DEAE28F
Copy CRC 8DEAE28F
Track not present in AccurateRip database
Copy OK

Track 17

Filename E:\!_M_2012\FLAC\[VA] - Going Underground [cd2] - [2011] [FLAC] {New Wave}\17 - The Tubes - Prime Time.wav

Pre-gap length 0:00:00.05

Peak level 100.0 %
Extraction speed 7.9 X
Track quality 100.0 %
Test CRC 66D86F94
Copy CRC 66D86F94
Track not present in AccurateRip database
Copy OK

Track 18

Filename E:\!_M_2012\FLAC\[VA] - Going Underground [cd2] - [2011] [FLAC] {New Wave}\18 - Devo - Whip It!.wav

Pre-gap length 0:00:00.05

Peak level 100.0 %
Extraction speed 7.6 X
Track quality 100.0 %
Test CRC FF99E837
Copy CRC FF99E837
Track not present in AccurateRip database
Copy OK

Track 19

Filename E:\!_M_2012\FLAC\[VA] - Going Underground [cd2] - [2011] [FLAC] {New Wave}\19 - The Rezillos - Top Of The Pops.wav

Pre-gap length 0:00:00.05

Peak level 100.0 %
Extraction speed 8.2 X
Track quality 100.0 %
Test CRC 606EC93A
Copy CRC 606EC93A
Track not present in AccurateRip database
Copy OK

Track 20

Filename E:\!_M_2012\FLAC\[VA] - Going Underground [cd2] - [2011] [FLAC] {New Wave}\20 - The Ruts - Babylon's Burning.wav

Pre-gap length 0:00:00.05

Peak level 100.0 %
Extraction speed 7.6 X
Track quality 100.0 %
Test CRC C2501D47
Copy CRC C2501D47
Track not present in AccurateRip database
Copy OK

Track 21

Filename E:\!_M_2012\FLAC\[VA] - Going Underground [cd2] - [2011] [FLAC] {New Wave}\21 - Public Image Limited - Public Image.wav

Pre-gap length 0:00:00.05

Peak level 100.0 %
Extraction speed 5.0 X
Track quality 99.9 %
Test CRC B7C76AEB
Copy CRC B7C76AEB
Track not present in AccurateRip database
Copy OK

Track 22

Filename E:\!_M_2012\FLAC\[VA] - Going Underground [cd2] - [2011] [FLAC] {New Wave}\22 - Wire - I Am The Fly.wav

Pre-gap length 0:00:00.05

Peak level 100.0 %
Extraction speed 8.3 X
Track quality 100.0 %
Test CRC 3CD4D3D6
Copy CRC 3CD4D3D6
Track not present in AccurateRip database
Copy OK


None of the tracks are present in the AccurateRip database

No errors occurred

End of status report

–– CUETools DB Plugin V2.1.3

[CTDB TOCID: 8PwbkOgEsXCfwC50cjMNmp9quPA-] disk not present in database, Submit result: 8PwbkOgEsXCfwC50cjMNmp9quPA- has been uploaded


==== Log checksum EA1516759F35B2F37597F7E29AFDE145F7011DC94F116BB1C558B313D4D0A263 ====