Tags
Language
Tags

Gong - Live Etc. (1977) [2015, Universal Music Japan, UICY-77390/1]

Posted By: v3122
Gong - Live Etc. (1977) [2015, Universal Music Japan, UICY-77390/1]

Gong - Live Etc. (1977)
EAC | Flac(Image) + Cue + Log & MP3 CBR 320Kbps
2CD | Universal Music, UICY-77390/1 | ~ 554 or 198 Mb | Scans(png) -> 169 Mb
Psychedelic Rock / Prog Rock

The essential Live Etc. sports incredible live versions of material from four Gong albums (Camembert Electrique, Flying Teapot, Angel's Egg, You) and one studio track which had been recorded in 1974 as an attempt at a single. The live material, recorded 1973-1975, consists of performances from several different incarnations of the band, making this an excellent starting point for anyone interested in sampling Gong. Abundant and overflowing with infusions of space, prog, and jazz, this melting pot of a band stands alone in its eclectic delivery of the goods. Highlights include Moerlen's percussion solo on "Flying Teapot," Malherbe's sax solo on "Zero the Hero…," and Hillage's guitar work on the spacy "Radio Gnome Invisible." "Where Have All the Flowers Gone" is Gong's attempt at a single; while somewhat mainstream, even this piece pushes the envelope for the airwaves. "6/8 Tune" is a superb jazzy instrumental, a kind of foreshadowing to the CD's final four tracks, which are for the most part instrumental and very progressive. The tracks blend together to form the climax and highlight of this great live album, and exhibit the jazziness that would become an integral sound in the band's future releases. Recorded after Allen's departure, this is the personnel that would go on to record Shamal, though no tracks from that album show up here. Live Etc. originally ended with the tune "Ooby-Scooby Doomsday" (another attempt at a pop hit), but at 79 minutes, the CD format could not hold it, and it has been tacked on to the end of the Angel's Egg compact disc release.

by David Ross Smith, AMG
Gong - Live Etc. (1977) [2015, Universal Music Japan, UICY-77390/1]


Gong - Live Etc. (1977):

Gong - Live Etc. (1977) [2015, Universal Music Japan, UICY-77390/1]

Tracklist CD1:

01. You Can't Kill Me 05:56
02. Zero The Hero And The Witch's Spell 11:05
03. Flying Teapot 06:31
04. Dynamite / I Am Your Animal 05:43
05. 6/8 Tune 03:48
06. Est-Ce Que Je Suis 04:16
07. Ooby-Scooby Doomsday Or The D-day DJ's Got The D.D.T. Blues 05:09
08. Radio Gnome Invisible 07:35

Exact Audio Copy V1.1 from 23. June 2015

EAC extraction logfile from 8. January 2016, 12:15

Gong / Live Etc. 1 SHM-CD

Used drive : PLEXTOR BD-R PX-B950SA Adapter: 1 ID: 1

Read mode : Secure
Utilize accurate stream : Yes
Defeat audio cache : Yes
Make use of C2 pointers : No

Read offset correction : 6
Overread into Lead-In and Lead-Out : No
Fill up missing offset samples with silence : Yes
Delete leading and trailing silent blocks : No
Null samples used in CRC calculations : Yes
Used interface : Native Win32 interface for Win NT & 2000

Used output format : Internal WAV Routines
Sample format : 44.100 Hz; 16 Bit; Stereo


TOC of the extracted CD

Track | Start | Length | Start sector | End sector
––––––––––––––––––––––––––––-
1 | 0:00.00 | 5:53.27 | 0 | 26501
2 | 5:53.27 | 11:05.33 | 26502 | 76409
3 | 16:58.60 | 6:31.69 | 76410 | 105803
4 | 23:30.54 | 5:43.29 | 105804 | 131557
5 | 29:14.08 | 3:48.72 | 131558 | 148729
6 | 33:03.05 | 4:16.08 | 148730 | 167937
7 | 37:19.13 | 5:09.22 | 167938 | 191134
8 | 42:28.35 | 7:35.24 | 191135 | 225283


Range status and errors

Selected range

Filename C:\Users\Meijin\Desktop\ALLexxess\Gong\1977 Live Etc. (2 Mini LP SHM-CD Universal Japan 2015)\CD1\Gong - Live Etc. 1 SHM-CD.wav

Peak level 100.0 %
Extraction speed 7.0 X
Range quality 100.0 %
Test CRC 0FD52C44
Copy CRC 0FD52C44
Copy OK

No errors occurred


AccurateRip summary

Track 1 accurately ripped (confidence 2) [A7B763BF] (AR v2)
Track 2 accurately ripped (confidence 2) [403C5435] (AR v2)
Track 3 accurately ripped (confidence 2) [BC685375] (AR v2)
Track 4 accurately ripped (confidence 2) [74CC39E8] (AR v2)
Track 5 accurately ripped (confidence 2) [A8369E63] (AR v2)
Track 6 accurately ripped (confidence 2) [14F38E26] (AR v2)
Track 7 accurately ripped (confidence 2) [464FDE0F] (AR v2)
Track 8 accurately ripped (confidence 2) [7DA2F6BB] (AR v2)

All tracks accurately ripped

End of status report

–– CUETools DB Plugin V2.1.6

[CTDB TOCID: lGXaN1CzRVbU2kt5boJTfZjK7qw-] found
Submit result: lGXaN1CzRVbU2kt5boJTfZjK7qw- has been confirmed
Track | CTDB Status
1 | (3/3) Accurately ripped
2 | (3/3) Accurately ripped
3 | (3/3) Accurately ripped
4 | (3/3) Accurately ripped
5 | (3/3) Accurately ripped
6 | (3/3) Accurately ripped
7 | (3/3) Accurately ripped
8 | (3/3) Accurately ripped


==== Log checksum 0411E13A0572DB031E87488C1A7B9CF746A650769B6F8B4E0B94499BD9D1269C ====

foobar2000 1.2.9 / Dynamic Range Meter 1.1.1
log date: 2016-01-18 20:30:03

––––––––––––––––––––––––––––––––––––––––
Analyzed: Gong / Live Etc. 1 SHM-CD
––––––––––––––––––––––––––––––––––––––––

DR Peak RMS Duration Track
––––––––––––––––––––––––––––––––––––––––
DR9 0.00 dB -11.07 dB 5:53 01-You Can't Kill Me
DR8 0.00 dB -11.64 dB 11:05 02-Zero The Hero And The Witch's Spell
DR11 0.00 dB -13.52 dB 6:32 03-Flying Teapot
DR9 0.00 dB -11.95 dB 5:43 04-Dynamite / I Am Your Animal
DR10 0.00 dB -12.63 dB 3:49 05-6/8 Tune
DR9 0.00 dB -13.00 dB 4:16 06-Est-Ce Que Je Suis
DR11 0.00 dB -13.61 dB 5:09 07-Ooby-Scooby Doomsday Or The D-Day DJ's Got The D.D.T. Blues
DR9 0.00 dB -11.35 dB 7:35 08-Radio Gnome Invisible
––––––––––––––––––––––––––––––––––––––––

Number of tracks: 8
Official DR value: DR10

Samplerate: 44100 Hz
Channels: 2
Bits per sample: 16
Bitrate: 898 kbps
Codec: FLAC

[CUETools log; Date: 18.01.2016 20:17:21; Version: 2.1.4]
[CTDB TOCID: lGXaN1CzRVbU2kt5boJTfZjK7qw-] found.
Track | CTDB Status
1 | (4/4) Accurately ripped
2 | (4/4) Accurately ripped
3 | (4/4) Accurately ripped
4 | (4/4) Accurately ripped
5 | (4/4) Accurately ripped
6 | (4/4) Accurately ripped
7 | (4/4) Accurately ripped
8 | (4/4) Accurately ripped
[AccurateRip ID: 001060d1-006aa02f-590bbb08] found.
Track [ CRC | V2 ] Status
01 [73fce3e0|a7b763bf] (0+2/2) Accurately ripped
02 [0d9a00ce|403c5435] (0+2/2) Accurately ripped
03 [81862a54|bc685375] (0+2/2) Accurately ripped
04 [486120a1|74cc39e8] (0+2/2) Accurately ripped
05 [a58d580a|a8369e63] (0+2/2) Accurately ripped
06 [a46d52a4|14f38e26] (0+2/2) Accurately ripped
07 [d26338e4|464fde0f] (0+2/2) Accurately ripped
08 [758fcbcc|7da2f6bb] (0+2/2) Accurately ripped

Track Peak [ CRC32 ] [W/O NULL] [ LOG ]
– 100,0 [0FD52C44] [09C70F0D] CRC32
01 100,0 [83A305AC] [939A3165]
02 100,0 [ED3F95AF] [D0EDFFE5]
03 100,0 [C3F06986] [C78B4CE2]
04 100,0 [52233BED] [C8867F2F]
05 100,0 [7E491FC2] [EF6AA5B9]
06 100,0 [6EB83954] [2537F8F4]
07 100,0 [5097BC67] [E3B59F5A]
08 100,0 [63886AE2] [E7E6A804]

Gong - Live Etc. (1977) [2015, Universal Music Japan, UICY-77390/1]

Tracklist CD2:

01. Oily Way 03:21
02. Outer Temple 01:03
03. Inner Temple 05:14
04. Where Have All The Flowers Gone? 03:04
05. Isle Of Everywhere 10:24
06. Get It Inner 02:30
07. Master Builder 05:57
08. Flying Teapot (Reprise) 02:05

Exact Audio Copy V1.1 from 23. June 2015

EAC extraction logfile from 8. January 2016, 11:39

Gong / Live Etc. 2 SHM-CD

Used drive : PLEXTOR BD-R PX-B950SA Adapter: 1 ID: 1

Read mode : Secure
Utilize accurate stream : Yes
Defeat audio cache : Yes
Make use of C2 pointers : No

Read offset correction : 6
Overread into Lead-In and Lead-Out : No
Fill up missing offset samples with silence : Yes
Delete leading and trailing silent blocks : No
Null samples used in CRC calculations : Yes
Used interface : Native Win32 interface for Win NT & 2000

Used output format : Internal WAV Routines
Sample format : 44.100 Hz; 16 Bit; Stereo


TOC of the extracted CD

Track | Start | Length | Start sector | End sector
––––––––––––––––––––––––––––-
1 | 0:00.00 | 3:21.03 | 0 | 15077
2 | 3:21.03 | 1:03.52 | 15078 | 19854
3 | 4:24.55 | 5:14.39 | 19855 | 43443
4 | 9:39.19 | 3:04.70 | 43444 | 57313
5 | 12:44.14 | 10:24.21 | 57314 | 104134
6 | 23:08.35 | 2:30.37 | 104135 | 115421
7 | 25:38.72 | 5:57.64 | 115422 | 142260
8 | 31:36.61 | 2:05.46 | 142261 | 151681


Range status and errors

Selected range

Filename C:\Users\Meijin\Desktop\ALLexxess\Gong\1977 Live Etc. (2 Mini LP SHM-CD Universal Japan 2015)\CD2\Gong - Live Etc. 2 SHM-CD.wav

Peak level 100.0 %
Extraction speed 6.3 X
Range quality 100.0 %
Test CRC F9396F7A
Copy CRC F9396F7A
Copy OK

No errors occurred


AccurateRip summary

Track 1 accurately ripped (confidence 2) [753F5C45] (AR v2)
Track 2 accurately ripped (confidence 2) [C768085B] (AR v2)
Track 3 accurately ripped (confidence 2) [798EDFD9] (AR v2)
Track 4 accurately ripped (confidence 2) [F91E2B97] (AR v2)
Track 5 accurately ripped (confidence 2) [6B87825D] (AR v2)
Track 6 accurately ripped (confidence 2) [88096E06] (AR v2)
Track 7 accurately ripped (confidence 2) [2C913BC2] (AR v2)
Track 8 accurately ripped (confidence 2) [A153CD54] (AR v2)

All tracks accurately ripped

End of status report

–– CUETools DB Plugin V2.1.6

[CTDB TOCID: I4jyA92aTPvo3.wYYr9QQ1.iOh8-] found
Submit result: I4jyA92aTPvo3.wYYr9QQ1.iOh8- has been confirmed
Track | CTDB Status
1 | (3/3) Accurately ripped
2 | (3/3) Accurately ripped
3 | (3/3) Accurately ripped
4 | (3/3) Accurately ripped
5 | (3/3) Accurately ripped
6 | (3/3) Accurately ripped
7 | (3/3) Accurately ripped
8 | (3/3) Accurately ripped


==== Log checksum 2794D8D52578400FD6FDB9A71149A22E18CDB1DC7CE90EF034E97DEDC4ECF1F6 ====

foobar2000 1.2.9 / Dynamic Range Meter 1.1.1
log date: 2016-01-18 20:30:15

––––––––––––––––––––––––––––––––––––––––
Analyzed: Gong / Live Etc. 2 SHM-CD
––––––––––––––––––––––––––––––––––––––––

DR Peak RMS Duration Track
––––––––––––––––––––––––––––––––––––––––
DR10 0.00 dB -11.69 dB 3:21 01-Oily Way
DR11 0.00 dB -12.67 dB 1:04 02-Outer Temple
DR11 0.00 dB -14.31 dB 5:15 03-Inner Temple
DR9 0.00 dB -12.11 dB 3:05 04-Where Have All The Flowers Gone?
DR10 0.00 dB -13.47 dB 10:24 05-Isle Of Everywhere
DR14 0.00 dB -15.91 dB 2:30 06-Get It Inner
DR10 0.00 dB -12.24 dB 5:58 07-Master Builder
DR11 0.00 dB -12.89 dB 2:06 08-Flying Teapot (Reprise)
––––––––––––––––––––––––––––––––––––––––

Number of tracks: 8
Official DR value: DR11

Samplerate: 44100 Hz
Channels: 2
Bits per sample: 16
Bitrate: 893 kbps
Codec: FLAC

[CUETools log; Date: 18.01.2016 20:19:38; Version: 2.1.4]
[CTDB TOCID: I4jyA92aTPvo3.wYYr9QQ1.iOh8-] found.
Track | CTDB Status
1 | (4/4) Accurately ripped
2 | (4/4) Accurately ripped
3 | (4/4) Accurately ripped
4 | (4/4) Accurately ripped
5 | (4/4) Accurately ripped
6 | (4/4) Accurately ripped
7 | (4/4) Accurately ripped
8 | (4/4) Accurately ripped
[AccurateRip ID: 0009e7e7-004473aa-6707e608] found.
Track [ CRC | V2 ] Status
01 [3c0f655c|753f5c45] (0+2/2) Accurately ripped
02 [deba3896|c768085b] (0+2/2) Accurately ripped
03 [ab59659b|798edfd9] (0+2/2) Accurately ripped
04 [fe276327|f91e2b97] (0+2/2) Accurately ripped
05 [ebcbd714|6b87825d] (0+2/2) Accurately ripped
06 [7327e2c1|88096e06] (0+2/2) Accurately ripped
07 [4389e4cf|2c913bc2] (0+2/2) Accurately ripped
08 [1de8c10a|a153cd54] (0+2/2) Accurately ripped

Track Peak [ CRC32 ] [W/O NULL] [ LOG ]
– 100,0 [F9396F7A] [EFE0B85D] CRC32
01 100,0 [E4A5336C] [1E186087]
02 100,0 [89235F8D] [81A1C9E3]
03 100,0 [5CB528C3] [CAB78EBF]
04 100,0 [D4534F00] [4682BA82]
05 100,0 [C8CC468D] [2FB2C95C]
06 100,0 [A7E4DC7A] [AB9CC1BF]
07 100,0 [D05D1A0B] [BF49F355]
08 100,0 [690EFE8E] [25D62D80]

Gong - Live Etc. (1977) [2015, Universal Music Japan, UICY-77390/1]

All thanks go to ALLexxess

Gong in my Blog

Download Gong - Live Etc. (1977):