Tags
Language
Tags

Great White - ...Twice Shy (1989) [Re-Up]

Posted By: Designol
Great White - ...Twice Shy (1989) [Re-Up]

Great White - …Twice Shy (1989)
EAC | FLAC | Image (Cue&Log) ~ 290 Mb | Mp3 (CBR320) ~ 114 Mb | Scans ~ 92 Mb
Hard Rock, Glam Metal | Label: Capitol | # C2 90640 | Time: 00:49:26

With …Twice Shy, Great White followed through on the promise of Once Bitten…, turning in a tight, hard-rocking album that featured well-chosen covers (Ian Hunter's "Once Bitten Twice Shy") and impressive originals that replicated the classic arena rock sound of the '70s ("House of Broken Love," "Mistah Bone"). The result was the band's best album and its most popular – the album broke into the Top Ten and sold over two million copies.

Review by Stephen Thomas Erlewine, Allmusic.com

Of the thousands of metal vocalists attempting to scale Robert Plant's stairway, few succeeded like Great White's Jack Russell. Before a tragic 2003 fire claimed the lives of 100 Great White fans in Rhode Island, the supremely coiffed Los Angeles band's legacy centered on their fourth album, 1989's …Twice Shy. Russell's soaring rasp, paired with Michael Lardie on keys, provided melodramatic fireworks. Their signature tune, a cover of Mott the Hoople frontman Ian Hunter's 1979 glam sensation "Once Bitten, Twice Shy," broke the Top Five. "Our manager came to us with that song," guitarist Mark Kendall told Guitar World. "We played and recorded it, never figuring they'd make it the first single . . . . But the record company insisted that it was the 'big song,' and sure enough, it was a big hit."

Review by Reed Fischer, RollingStone.com

Great White - ...Twice Shy (1989) [Re-Up]



Tracklist:

01. Move It (05:34)
02. Heart The Hunter (04:50)
03. Hiway Nights (06:00)
04. The Angel Song (04:51)
05. Mista Bone (05:10)
06. Baby's On Fire (06:11)
07. House Of Broken Love (05:58)
08. She Only (05:23)
09. Once Bitten Twice Shy (05:24)


Exact Audio Copy V1.0 beta 6 from 9. April 2015

EAC extraction logfile from 12. July 2015, 15:07

Great White / …Twice Shy

Used drive : HL-DT-STDVDRAM GH22NS40 Adapter: 1 ID: 0

Read mode : Secure
Utilize accurate stream : Yes
Defeat audio cache : Yes
Make use of C2 pointers : No

Read offset correction : 667
Overread into Lead-In and Lead-Out : No
Fill up missing offset samples with silence : Yes
Delete leading and trailing silent blocks : No
Null samples used in CRC calculations : Yes
Used interface : Native Win32 interface for Win NT & 2000

Used output format : User Defined Encoder
Selected bitrate : 1024 kBit/s
Quality : High
Add ID3 tag : Yes
Command line compressor : C:\Program Files\Exact Audio Copy\Flac\flac.exe
Additional command line options : -V -8 -T "Date=%year%" -T "Genre=%genre%" %source%


TOC of the extracted CD

Track | Start | Length | Start sector | End sector
––––––––––––––––––––––––––––-
1 | 0:01.00 | 5:34.42 | 75 | 25166
2 | 5:35.42 | 4:50.45 | 25167 | 46961
3 | 10:26.12 | 6:00.63 | 46962 | 74024
4 | 16:27.00 | 4:51.60 | 74025 | 95909
5 | 21:18.60 | 5:10.30 | 95910 | 119189
6 | 26:29.15 | 6:11.17 | 119190 | 147031
7 | 32:40.32 | 5:58.55 | 147032 | 173936
8 | 38:39.12 | 5:23.28 | 173937 | 198189
9 | 44:02.40 | 5:24.15 | 198190 | 222504


Range status and errors

Selected range

Filename I:\Rips\Great White - …Twice Shy.wav

Peak level 100.0 %
Extraction speed 1.7 X
Range quality 99.9 %
Test CRC 9E096219
Copy CRC 9E096219
Copy OK

No errors occurred


AccurateRip summary

Track 1 accurately ripped (confidence 3) [B796BFF8] (AR v1)
Track 2 accurately ripped (confidence 3) [643B0731] (AR v1)
Track 3 accurately ripped (confidence 3) [BE9413AB] (AR v1)
Track 4 accurately ripped (confidence 3) [F2A130CB] (AR v1)
Track 5 accurately ripped (confidence 3) [38BF7568] (AR v1)
Track 6 accurately ripped (confidence 3) [B6CF5179] (AR v1)
Track 7 accurately ripped (confidence 3) [68593C13] (AR v1)
Track 8 accurately ripped (confidence 3) [82C39E03] (AR v1)
Track 9 accurately ripped (confidence 3) [EFFC9D17] (AR v1)

All tracks accurately ripped

End of status report

–– CUETools DB Plugin V2.1.6

[CTDB TOCID: 9bDKNMyxFs6GcZXlE.qjElRf8BI-] found
Submit result: 9bDKNMyxFs6GcZXlE.qjElRf8BI- has been confirmed
Track | CTDB Status
1 | (2/2) Accurately ripped
2 | (2/2) Accurately ripped
3 | (2/2) Accurately ripped
4 | (2/2) Accurately ripped
5 | (2/2) Accurately ripped
6 | (2/2) Accurately ripped
7 | (2/2) Accurately ripped
8 | (1/2) Accurately ripped, or (1/2) differs in 3 samples @02:24:30-02:24:31
9 | (2/2) Accurately ripped


==== Log checksum 0C484D942E05F45B2892B0BEBD0ED182C61CE8094701CCB2DAA645B4AC72C685 ====

foobar2000 1.2 / Dynamic Range Meter 1.1.1
log date: 2015-08-04 18:11:39

––––––––––––––––––––––––––––––––––––––––
Analyzed: Great White / …Twice Shy
––––––––––––––––––––––––––––––––––––––––

DR Peak RMS Duration Track
––––––––––––––––––––––––––––––––––––––––
DR14 0.00 dB -16.57 dB 5:35 01-Move It
DR14 0.00 dB -16.15 dB 4:51 02-Heart The Hunter
DR13 -0.60 dB -16.13 dB 6:01 03-Hiway Nights
DR12 -2.39 dB -19.81 dB 4:52 04-The Angel Song
DR13 -2.15 dB -18.01 dB 5:10 05-Mista Bone
DR15 -0.40 dB -17.73 dB 6:11 06-Baby's On Fire
DR14 -3.85 dB -19.79 dB 5:59 07-House Of Broken Love
DR12 -7.64 dB -23.02 dB 5:23 08-She Only
DR14 -0.91 dB -18.58 dB 5:24 09-Once Bitten Twice Shy
––––––––––––––––––––––––––––––––––––––––

Number of tracks: 9
Official DR value: DR14

Samplerate: 44100 Hz
Channels: 2
Bits per sample: 16
Bitrate: 819 kbps
Codec: FLAC
================================================================================

Great White - ...Twice Shy (1989) [Re-Up]

Great White - ...Twice Shy (1989) [Re-Up]

All thanks to original releaser - powermet

More interesting music in My Blog