Subcategories
Tags
Language
Tags

Greg Osby - Public (2004)

Posted By: gribovar
Greg Osby - Public (2004)

Greg Osby - Public (2004)
EAC Rip | FLAC (tracks+.cue+log) - 349 MB | MP3 CBR 320 kbps (LAME 3.93) - 153 MB | Covers - 15 MB
Genre: Jazz, Post-Bop, Modern Creative | RAR 3% Rec. | Label: Blue Note (7243 5 97684 2 7)

Greg Osby's outings for Blue Note are always challenging, always extending one boundary or another in his own idiosyncratic jazz iconography that uses elements of the historical tradition, the mainstream, and the avant-garde> in forging that signature. Public was recorded in January, 2004 at New York's Jazz Standard. Osby was playing in support of 2003's excellent St. Louis Shoes album. That band - trumpeter Osby on alto, trumpeter Nicholas Payton, bassist Robert Hurst, and drummer Rodney Green - all make this gig. The only change is the replacement of pianist Harold O'Neil with Japanese prodigy Megumi Yonezawa. The material features live renditions of three tunes from St. Louis Shoes; there are the reinventions of the two bebop classics, "Bernie's Tune" and "Shaw Nuff," each with staggered, jagged harmonic frameworks that are alternately jaggedly and pristinely wrought. Osby recontextualizes the original melodies in his own fragmented lyric image with phrasing that skips off the one beats and into the shadowy rhythmic corners painted by Yonezawa. Osby's interaction with the pianist is near symbiotic, but it is the fireworks he and Payton engage in that take the tunes over the top. Payton is stretched to his own limit here, walking a fine line between his blazing legato style out of the Fats Navarro lineage and into a space he seems to be eking out on his own with dissonance and angles built into the scalar heights of his solos. Of the new material, "Visitation" builds on Osby's "Bluesette," with a staggered melody where the one-two frontline engage not only in the creation of a head, but in a contrapuntal framework for the solos to take place in as well. Again, the rapport between Osby and Payton is eyebrow-raising. The album closes with a guest appearance by pop singer Joan Osborne fronting the band for "Lover Man." With a brief yet gorgeous piano intro, and Osby evoking Ben Webster's smoky style, Osborne offers a restrained, wonderfully able and sultry reading of the classic tune. Osby's weaves steamy fills around her, and his rhythm section brings her rendering of the lyrics a poignancy we haven't heard in a while. She brings the longing in the lyric to the fore, in a style which echoes the emphasis Billie Holiday brought to it. Payton underscores the verse with his bluesed-out solo. It's too bad there aren't more tunes featuring Osborne fronting this fantastic band. "Lover Man" provides a wonderful end to a deeply satisfying, even electrifying live date. Osby's creativity is still white-hot, and his penchant for immediate-sounding live recordings is unparalleled. In addition, in showcasing Ms. Osborne in front of a jazz audience, he has, perhaps, given this fine singer a new aesthetic and career option.
Tracklist:
01. Rising Sign
02. Summertime
03. Visitation
04. Bernie's Tune
05. Equalatogram
06. Shaw Nuff
07. Lover Man

Total time: 01:04:53

Exact Audio Copy V1.0 beta 1 from 15. November 2010

EAC extraction logfile from 24. March 2011, 16:38

Greg Osby / Public

Used drive : ATAPI iHAS124 B Adapter: 1 ID: 0

Read mode : Secure
Utilize accurate stream : Yes
Defeat audio cache : Yes
Make use of C2 pointers : No

Read offset correction : 6
Overread into Lead-In and Lead-Out : No
Fill up missing offset samples with silence : Yes
Delete leading and trailing silent blocks : No
Null samples used in CRC calculations : Yes
Used interface : Native Win32 interface for Win NT & 2000
Gap handling : Appended to previous track

Used output format : User Defined Encoder
Selected bitrate : 320 kBit/s
Quality : High
Add ID3 tag : No
Command line compressor : C:\Program Files\Exact Audio Copy\Flac\flac.exe
Additional command line options : -V -8 -T "artist=%a" -T "title=%t" -T "album=%g" -T "date=%y" -T "tracknumber=%n" -T "genre=%m" %s


TOC of the extracted CD

Track | Start | Length | Start sector | End sector
––––––––––––––––––––––––––––-
1 | 0:00.00 | 9:20.24 | 0 | 42023
2 | 9:20.24 | 10:01.35 | 42024 | 87133
3 | 19:21.59 | 13:49.28 | 87134 | 149336
4 | 33:11.12 | 7:32.61 | 149337 | 183297
5 | 40:43.73 | 4:57.21 | 183298 | 205593
6 | 45:41.19 | 10:35.25 | 205594 | 253243
7 | 56:16.44 | 8:37.03 | 253244 | 292021


Track 1

Filename C:\EACRIPS\Rising Sign.wav

Pre-gap length 0:00:02.00

Peak level 98.8 %
Extraction speed 4.1 X
Track quality 100.0 %
Test CRC BBA117FF
Copy CRC BBA117FF
Accurately ripped (confidence 3) [F685C796]
Copy OK

Track 2

Filename C:\EACRIPS\Summertime.wav

Peak level 98.8 %
Extraction speed 4.9 X
Track quality 100.0 %
Test CRC 0BA38D1F
Copy CRC 0BA38D1F
Accurately ripped (confidence 3) [0A7EFDC9]
Copy OK

Track 3

Filename C:\EACRIPS\Visitation.wav

Peak level 98.8 %
Extraction speed 3.0 X
Track quality 99.9 %
Test CRC FA80EF8D
Copy CRC FA80EF8D
Accurately ripped (confidence 3) [283F525A]
Copy OK

Track 4

Filename C:\EACRIPS\Bernie's Tune.wav

Peak level 98.8 %
Extraction speed 4.0 X
Track quality 99.9 %
Test CRC A13C28EF
Copy CRC A13C28EF
Accurately ripped (confidence 3) [F0E45555]
Copy OK

Track 5

Filename C:\EACRIPS\Equalatogram.wav

Peak level 98.8 %
Extraction speed 5.0 X
Track quality 99.9 %
Test CRC ED974739
Copy CRC ED974739
Accurately ripped (confidence 3) [1D8CECE7]
Copy OK

Track 6

Filename C:\EACRIPS\Shaw Nuff.wav

Peak level 98.8 %
Extraction speed 6.3 X
Track quality 100.0 %
Test CRC 95575E1A
Copy CRC 95575E1A
Accurately ripped (confidence 3) [D7637502]
Copy OK

Track 7

Filename C:\EACRIPS\Lover Man.wav

Peak level 85.0 %
Extraction speed 4.8 X
Track quality 99.9 %
Test CRC F964E6C4
Copy CRC F964E6C4
Accurately ripped (confidence 3) [A9657984]
Copy OK


All tracks accurately ripped

No errors occurred

End of status report

[CUETools log; Date: 09.06.2021 11:43:28; Version: 2.1.4]
[CTDB TOCID: uQ.KNfTSfSuqEU9XK_m52XE2L.c-] found.
Track | CTDB Status
1 | (16/16) Accurately ripped
2 | (16/16) Accurately ripped
3 | (16/16) Accurately ripped
4 | (16/16) Accurately ripped
5 | (16/16) Accurately ripped
6 | (16/16) Accurately ripped
7 | (16/16) Accurately ripped
[AccurateRip ID: 001280ed-006de3c9-640f3507] found.
Track [ CRC | V2 ] Status
01 [f685c796|2aad7701] (03+05/10) Accurately ripped
02 [0a7efdc9|ff90f3bb] (03+05/10) Accurately ripped
03 [283f525a|5e8d4607] (03+05/10) Accurately ripped
04 [f0e45555|626b0840] (03+05/10) Accurately ripped
05 [1d8cece7|48ad72f8] (03+05/10) Accurately ripped
06 [d7637502|1b320cc5] (03+05/10) Accurately ripped
07 [a9657984|7ce29af6] (03+05/10) Accurately ripped
Offsetted by -86:
01 [c4442b1c] (00/10) No match (V2 was not tested)
02 [0226c665] (00/10) No match (V2 was not tested)
03 [d481fcc9] (00/10) No match (V2 was not tested)
04 [27367163] (00/10) No match (V2 was not tested)
05 [73259e06] (00/10) No match (V2 was not tested)
06 [cda0aebf] (00/10) No match (V2 was not tested)
07 [b3d079e3] (00/10) No match (V2 was not tested)

Track Peak [ CRC32 ] [W/O NULL] [ LOG ]
– 98,8 [D92EBA07] [37D924BF]
01 98,8 [BBA117FF] [04A3D8B6] CRC32
02 98,8 [0BA38D1F] [9099BC46] CRC32
03 98,8 [FA80EF8D] [E58318E6] CRC32
04 98,8 [A13C28EF] [BB64D33A] CRC32
05 98,8 [ED974739] [F4E3BC43] CRC32
06 98,8 [95575E1A] [177007C9] CRC32
07 85,0 [F964E6C4] [A260A045] CRC32

Thanks to the original releaser