Tags
Language
Tags

Gregg Diamond - Gregg Diamond's Star Cruiser (1978) [2021 Japan]

Posted By: JET 1
Gregg Diamond - Gregg Diamond's Star Cruiser (1978) [2021 Japan]

Gregg Diamond - Gregg Diamond's Star Cruiser (1978) [2021 Japan]
EAC Rip | FLAC (Tracks) +CUE, LOG | 553 MB | Scans
Genre: Disco, Funk, Soul | Label: Solid Records [Japan] | Catalog Number: CDSOL-46624

Gregg Diamond was an accomplished songwriter, piano player, drummer and producer. Based in New York, Gregg emerged in the mid-70's as a producer, initially on the jazz fusion scene with artists including Impact Of Brass on albums including 'IOB' (1977) for Polydor. During the disco era of the late 70's he produced albums for his groups Star Cruiser and Bionic Boogie. 'Gregg Diamond's Star Cruiser' delivered 'Star Cruiser', including 'Starcruisin' and 'Holding Back' for the Miami-based Marlin label (via TK) in 1978.
The same year 'Gregg Diamond's Bionic Boogie' delivered 'Hot Butterfly', featuring Luther Vandross as lead vocalist on the title song and 'Cream (Always Rises To the Top)'. 'Hot Butterfly' was written by Gregg and later recorded by Chaka Khan on 'Naughty'. Gregg stayed at Polydor for two further albums, 'Tiger Tiger' (1979) and 'Hardware' (1979). Gregg also wrote songs for Andrea True Connection, Gloria Gaynor and worked with James Brown.
Sadly, Gregg died from gastrointestinal bleeding in 1999.

Exact Audio Copy V1.3 from 2. September 2016

Отчёт EAC об извлечении, выполненном 15. октября 2021, 21:10

Gregg Diamond / Gregg Diamond's Star Cruiser

Дисковод: ASUS DRW-24D5MT Adapter: 1 ID: 0

Режим чтения : Достоверность
Использование точного потока : Да
Отключение кэша аудио : Да
Использование указателей C2 : Нет

Коррекция смещения при чтении : 6
Способность читать области Lead-in и Lead-out : Нет
Заполнение пропущенных сэмплов тишиной : Да
Удаление блоков с тишиной в начале и конце : Нет
При вычислениях CRC использовались нулевые сэмплы : Да
Интерфейс : Встроенный Win32-интерфейс для Win NT/2000
Обработка зазоров : Добавлено к предыдущему треку

Выходной формат : Пользовательский кодировщик
Выбранный битрейт : 128 kBit/s
Качество : Высокий
Добавление ID3-тега : Нет
Утилита сжатия : C:\Program Files\flac-1.3.2-git-20170314-x64-icl\flac.exe
Дополнительные параметры : -8 -V -T "ARTIST=%artist%" -T "TITLE=%title%" -T "ALBUM=%albumtitle%" -T "DATE=%year%" -T "TRACKNUMBER=%tracknr%" -T "GENRE=%genre%" -T "COMMENT=EAC FLAC -8" %source%


TOC извлечённого CD

Трек | Старт | Длительность | Начальный сектор | Конечный сектор
––––––––––––––––––––––––––––––––––-
1 | 0:00.00 | 6:19.09 | 0 | 28433
2 | 6:19.09 | 3:39.05 | 28434 | 44863
3 | 9:58.14 | 6:18.55 | 44864 | 73268
4 | 16:16.69 | 3:44.46 | 73269 | 90114
5 | 20:01.40 | 5:07.34 | 90115 | 113173
6 | 25:08.74 | 5:28.19 | 113174 | 137792
7 | 30:37.18 | 3:16.57 | 137793 | 152549
8 | 33:54.00 | 4:42.22 | 152550 | 173721
9 | 38:36.22 | 6:52.09 | 173722 | 204630
10 | 45:28.31 | 6:09.46 | 204631 | 232351
11 | 51:38.02 | 10:10.24 | 232352 | 278125
12 | 61:48.26 | 7:20.58 | 278126 | 311183
13 | 69:09.09 | 3:17.65 | 311184 | 326023
14 | 72:26.74 | 3:16.56 | 326024 | 340779
15 | 75:43.55 | 3:13.19 | 340780 | 355273


Трек 1

Имя файла D:\FLAC EAC\01 Fancy Dancer.wav

Длина предзазора 0:00:02.00

Пиковый уровень 97.8 %
Скорость извлечения 4.8 X
Качество трека 99.9 %
CRC теста 5026A1BA
CRC копии 5026A1BA
Точное извлечение (достоверность 2) [997DC4C8] (AR v2)
Копирование… OK

Трек 2

Имя файла D:\FLAC EAC\02 Island Boogie.wav

Пиковый уровень 97.8 %
Скорость извлечения 5.4 X
Качество трека 100.0 %
CRC теста 0F2F7B9E
CRC копии 0F2F7B9E
Точное извлечение (достоверность 2) [56485DB1] (AR v2)
Копирование… OK

Трек 3

Имя файла D:\FLAC EAC\03 Star Cruiser.wav

Пиковый уровень 97.8 %
Скорость извлечения 6.2 X
Качество трека 100.0 %
CRC теста 1A917069
CRC копии 1A917069
Точное извлечение (достоверность 2) [69FBCC99] (AR v2)
Копирование… OK

Трек 4

Имя файла D:\FLAC EAC\04 Bring Back Your Love.wav

Пиковый уровень 97.8 %
Скорость извлечения 6.3 X
Качество трека 100.0 %
CRC теста AE8B6261
CRC копии AE8B6261
Точное извлечение (достоверность 2) [C7CB9C54] (AR v2)
Копирование… OK

Трек 5

Имя файла D:\FLAC EAC\05 Holding Back.wav

Пиковый уровень 97.8 %
Скорость извлечения 6.8 X
Качество трека 100.0 %
CRC теста 5484F0A3
CRC копии 5484F0A3
Точное извлечение (достоверность 2) [75B36251] (AR v2)
Копирование… OK

Трек 6

Имя файла D:\FLAC EAC\06 This Side Of Midnight.wav

Пиковый уровень 97.8 %
Скорость извлечения 7.3 X
Качество трека 100.0 %
CRC теста 2DCCD3AA
CRC копии 2DCCD3AA
Точное извлечение (достоверность 2) [6C567EC1] (AR v2)
Копирование… OK

Трек 7

Имя файла D:\FLAC EAC\07 Too Hot To Reggae.wav

Пиковый уровень 97.8 %
Скорость извлечения 7.1 X
Качество трека 100.0 %
CRC теста 0D6C8EC9
CRC копии 0D6C8EC9
Точное извлечение (достоверность 2) [9CC071F8] (AR v2)
Копирование… OK

Трек 8

Имя файла D:\FLAC EAC\08 Arista Vista.wav

Пиковый уровень 97.8 %
Скорость извлечения 7.7 X
Качество трека 100.0 %
CRC теста 3BC9FE87
CRC копии 3BC9FE87
Точное извлечение (достоверность 2) [A7D6B30D] (AR v2)
Копирование… OK

Трек 9

Имя файла D:\FLAC EAC\09 Danger (12 Inch Version).wav

Пиковый уровень 97.8 %
Скорость извлечения 8.4 X
Качество трека 100.0 %
CRC теста 6CE5F517
CRC копии 6CE5F517
Точное извлечение (достоверность 2) [78CBD928] (AR v2)
Копирование… OK

Трек 10

Имя файла D:\FLAC EAC\10 Stand Up And Dance (12 Inch Version).wav

Пиковый уровень 97.8 %
Скорость извлечения 8.7 X
Качество трека 100.0 %
CRC теста CFC3DCC5
CRC копии CFC3DCC5
Точное извлечение (достоверность 2) [684F6DF0] (AR v2)
Копирование… OK

Трек 11

Имя файла D:\FLAC EAC\11 Star Cruiser (12 Inch Version).wav

Пиковый уровень 97.8 %
Скорость извлечения 9.5 X
Качество трека 100.0 %
CRC теста DCBB30C8
CRC копии DCBB30C8
Точное извлечение (достоверность 2) [18D7C39D] (AR v2)
Копирование… OK

Трек 12

Имя файла D:\FLAC EAC\12 This Side Of Midnight (12 Inch Version).wav

Пиковый уровень 97.8 %
Скорость извлечения 9.8 X
Качество трека 100.0 %
CRC теста 41308BA6
CRC копии 41308BA6
Точное извлечение (достоверность 2) [71D63ADF] (AR v2)
Копирование… OK

Трек 13

Имя файла D:\FLAC EAC\13 Doing That (Fancy Dancer) (7 Inch Version).wav

Пиковый уровень 97.8 %
Скорость извлечения 8.0 X
Качество трека 99.9 %
CRC теста 8F532C8A
CRC копии 8F532C8A
Точное извлечение (достоверность 2) [7BCFC3E4] (AR v2)
Копирование… OK

Трек 14

Имя файла D:\FLAC EAC\14 Star Cruiser (7 Inch Version.wav

Пиковый уровень 97.8 %
Скорость извлечения 9.4 X
Качество трека 100.0 %
CRC теста 41697D5C
CRC копии 41697D5C
Точное извлечение (достоверность 2) [FA0699B2] (AR v2)
Копирование… OK

Трек 15

Имя файла D:\FLAC EAC\15 This Side Of Midnight (7 Inch Version).wav

Пиковый уровень 97.8 %
Скорость извлечения 9.1 X
Качество трека 100.0 %
CRC теста 92775507
CRC копии 92775507
Точное извлечение (достоверность 2) [B770F8DF] (AR v2)
Копирование… OK


Все треки извлечены точно

Ошибок не произошло

Конец отчёта

–– CUETools DB Plugin V2.1.6

[CTDB TOCID: PbMIrD6t9FPH0AGHgiW15CzPy54-] found
Submit result: PbMIrD6t9FPH0AGHgiW15CzPy54- has been confirmed
Track | CTDB Status
1 | (5/5) Accurately ripped
2 | (5/5) Accurately ripped
3 | (5/5) Accurately ripped
4 | (5/5) Accurately ripped
5 | (5/5) Accurately ripped
6 | (5/5) Accurately ripped
7 | (5/5) Accurately ripped
8 | (5/5) Accurately ripped
9 | (5/5) Accurately ripped
10 | (5/5) Accurately ripped
11 | (5/5) Accurately ripped
12 | (5/5) Accurately ripped
13 | (5/5) Accurately ripped
14 | (5/5) Accurately ripped
15 | (5/5) Accurately ripped


==== Контрольная сумма отчёта 85FC832D62D455421B2CC655526C1CC0C1B34751585D710B81F190DA2684991F ====

Tracklist :::
01 Fancy Dancer (06:19)
02 Island Boogie (03:39)
03 Star Cruiser (06:18)
04 Bring Back Your Love (03:44)
05 Holding Back (05:07)
06 This Side Of Midnight (05:28)
07 Too Hot To Reggae (03:16)
08 Arista Vista (04:42)
09 Danger (12 Inch Version) (06:52)
10 Stand Up And Dance (12 Inch Version) (06:09)
11 Star Cruiser (12 Inch Version) (10:10)
12 This Side Of Midnight (12 Inch Version) (07:20)
13 Doing That (Fancy Dancer) (7 Inch Version) (03:17)
14 Star Cruiser (7 Inch Version) (03::16)
15 This Side Of Midnight (7 Inch Version) (03:13)