Subcategories
Tags
Language
Tags

Gregorian - Holy Chants (2017) (Proper)

Posted By: gribovar
Gregorian - Holy Chants (2017) (Proper)

Gregorian - Holy Chants (2017)
EAC Rip | FLAC (tracks+.cue+log) - 247 MB | MP3 CBR 320 kbps (LAME 3.93) - 92 MB | Covers - 175 MB
Genre: New Age, Enigmatic, Ambientpop | RAR 3% Rec. | Label: Telamo (405380431121)

One of the most successful pop/classical fusion projects, Gregorian mixes well-known pop and rock songs with Gregorian chants. Overseen by producer Frank Peterson, co-founder of Michael Cretu's Enigma outfit, Gregorian's first album, Masters of Chant, released in 1999 (an early 1991 Peterson album released under the name Gregorian isn't counted among the group's official releases, but already employs the same aesthetic), became a smash hit throughout Europe, entering the Top Ten in nine different countries. The following albums continued in the same vein, covering songs by Peter Gabriel, Lenny Kravitz, Coldplay, Björk, Queen, Tears for Fears, and others. The Dark Side, released in 2004, put a stronger emphasis on the rock element and included songs by Nine Inch Nails and the Doors. Including two live DVD releases, several sequels to the Masters of Chant album, and a 2006 Christmas album, Gregorian sold over four million records under Peterson's guidance.
Tracklist:
01. Celebrate Christmas
02. Walking in the Air
03. You'll See the Snow
04. Ding Dong
05. Fairytale of New York
06. You are Not Alone
07. Panis Angelicus
08. You are Loved
09. Huron Carol
10. Saviour (feat. Amelia Brightman)
11. Gaudete
12. Joy to the World

Total time: 39:04

Exact Audio Copy V1.3 from 2. September 2016

EAC extraction logfile from 14. January 2018, 19:48

Gregorian / Holy Chants

Used drive : ASUS DRW-24F1ST a Adapter: 1 ID: 0

Read mode : Secure
Utilize accurate stream : Yes
Defeat audio cache : Yes
Make use of C2 pointers : No

Read offset correction : 6
Overread into Lead-In and Lead-Out : No
Fill up missing offset samples with silence : Yes
Delete leading and trailing silent blocks : No
Null samples used in CRC calculations : Yes
Used interface : Native Win32 interface for Win NT & 2000
Gap handling : Appended to previous track

Used output format : User Defined Encoder
Selected bitrate : 896 kBit/s
Quality : High
Add ID3 tag : No
Command line compressor : C:\Program Files (x86)\Exact Audio Copy\Flac\flac.exe
Additional command line options : -8 -V -T "COMMENT=ripped by DrStandBy special for new-team.org" -T "ARTIST=%artist%" -T "TITLE=%title%" -T "ALBUM=%albumtitle%" -T "DATE=%year%" -T "TRACKNUMBER=%tracknr%" -T "GENRE=%genre%" %source%


TOC of the extracted CD

Track | Start | Length | Start sector | End sector
––––––––––––––––––––––––––––-
1 | 0:00.00 | 2:32.27 | 0 | 11426
2 | 2:32.27 | 3:56.53 | 11427 | 29179
3 | 6:29.05 | 4:09.53 | 29180 | 47907
4 | 10:38.58 | 2:14.29 | 47908 | 57986
5 | 12:53.12 | 4:11.08 | 57987 | 76819
6 | 17:04.20 | 3:04.11 | 76820 | 90630
7 | 20:08.31 | 3:14.68 | 90631 | 105248
8 | 23:23.24 | 4:06.00 | 105249 | 123698
9 | 27:29.24 | 2:17.09 | 123699 | 133982
10 | 29:46.33 | 4:22.15 | 133983 | 153647
11 | 34:08.48 | 1:53.05 | 153648 | 162127
12 | 36:01.53 | 3:02.55 | 162128 | 175832


Track 1

Filename I:\2017 - Gregorian - Holy Chants (TELAMO #405380431121)\01. Gregorian - Celebrate Christmas.wav

Pre-gap length 0:00:02.00

Peak level 86.0 %
Extraction speed 1.4 X
Track quality 99.9 %
Test CRC C0E3B650
Copy CRC C0E3B650
Accurately ripped (confidence 1) [F23CD1DB] (AR v2)
Copy OK

Track 2

Filename I:\2017 - Gregorian - Holy Chants (TELAMO #405380431121)\02. Gregorian - Walking in the Air.wav

Pre-gap length 0:00:02.00

Peak level 85.3 %
Extraction speed 1.7 X
Track quality 99.9 %
Test CRC 67EFE74B
Copy CRC 67EFE74B
Accurately ripped (confidence 1) [2F1D877E] (AR v2)
Copy OK

Track 3

Filename I:\2017 - Gregorian - Holy Chants (TELAMO #405380431121)\03. Gregorian - You'll See the Snow.wav

Pre-gap length 0:00:02.00

Peak level 82.2 %
Extraction speed 2.1 X
Track quality 100.0 %
Test CRC BA5A92A7
Copy CRC BA5A92A7
Accurately ripped (confidence 1) [58AFACDC] (AR v2)
Copy OK

Track 4

Filename I:\2017 - Gregorian - Holy Chants (TELAMO #405380431121)\04. Gregorian - Ding Dong.wav

Pre-gap length 0:00:02.00

Peak level 94.1 %
Extraction speed 2.0 X
Track quality 100.0 %
Test CRC 55E428E1
Copy CRC 55E428E1
Accurately ripped (confidence 1) [C83FF900] (AR v2)
Copy OK

Track 5

Filename I:\2017 - Gregorian - Holy Chants (TELAMO #405380431121)\05. Gregorian - Fairytale of New York.wav

Pre-gap length 0:00:02.00

Peak level 70.6 %
Extraction speed 2.4 X
Track quality 100.0 %
Test CRC B4ED5F50
Copy CRC B4ED5F50
Accurately ripped (confidence 1) [CA825545] (AR v2)
Copy OK

Track 6

Filename I:\2017 - Gregorian - Holy Chants (TELAMO #405380431121)\06. Gregorian - You are Not Alone.wav

Pre-gap length 0:00:02.00

Peak level 94.1 %
Extraction speed 2.4 X
Track quality 100.0 %
Test CRC FEB6960B
Copy CRC FEB6960B
Accurately ripped (confidence 1) [626C1026] (AR v2)
Copy OK

Track 7

Filename I:\2017 - Gregorian - Holy Chants (TELAMO #405380431121)\07. Gregorian - Panis Angelicus.wav

Pre-gap length 0:00:02.00

Peak level 89.1 %
Extraction speed 2.5 X
Track quality 100.0 %
Test CRC 56D5E541
Copy CRC 56D5E541
Accurately ripped (confidence 1) [F17BC072] (AR v2)
Copy OK

Track 8

Filename I:\2017 - Gregorian - Holy Chants (TELAMO #405380431121)\08. Gregorian - You are Loved.wav

Pre-gap length 0:00:02.00

Peak level 83.9 %
Extraction speed 2.2 X
Track quality 99.9 %
Test CRC 927FD212
Copy CRC 927FD212
Accurately ripped (confidence 1) [1E5A6AF1] (AR v2)
Copy OK

Track 9

Filename I:\2017 - Gregorian - Holy Chants (TELAMO #405380431121)\09. Gregorian - Huron Carol.wav

Pre-gap length 0:00:02.00

Peak level 95.2 %
Extraction speed 1.8 X
Track quality 99.9 %
Test CRC BED8378D
Copy CRC BED8378D
Accurately ripped (confidence 1) [E3077A6A] (AR v2)
Copy OK

Track 10

Filename I:\2017 - Gregorian - Holy Chants (TELAMO #405380431121)\10. Gregorian feat. Amelia Brightman - Saviour.wav

Pre-gap length 0:00:02.00

Peak level 65.1 %
Extraction speed 3.0 X
Track quality 100.0 %
Test CRC B7C7F66E
Copy CRC B7C7F66E
Accurately ripped (confidence 1) [DBF96767] (AR v2)
Copy OK

Track 11

Filename I:\2017 - Gregorian - Holy Chants (TELAMO #405380431121)\11. Gregorian - Gaudete.wav

Pre-gap length 0:00:02.00

Peak level 98.6 %
Extraction speed 2.6 X
Track quality 100.0 %
Test CRC D832BBA7
Copy CRC D832BBA7
Accurately ripped (confidence 1) [FA8D48D5] (AR v2)
Copy OK

Track 12

Filename I:\2017 - Gregorian - Holy Chants (TELAMO #405380431121)\12. Gregorian - Joy to the World.wav

Pre-gap length 0:00:02.00

Peak level 80.1 %
Extraction speed 3.0 X
Track quality 100.0 %
Test CRC A9B3628F
Copy CRC A9B3628F
Accurately ripped (confidence 1) [E1E60BE2] (AR v2)
Copy OK


All tracks accurately ripped

No errors occurred

End of status report

–– CUETools DB Plugin V2.1.6

[CTDB TOCID: 3R07sSZdoprhzCRy1CaUhvBBeEA-] found
Submit result: already submitted
Track | CTDB Status
1 | (14/14) Accurately ripped
2 | (14/14) Accurately ripped
3 | (14/14) Accurately ripped
4 | (14/14) Accurately ripped
5 | (14/14) Accurately ripped
6 | (14/14) Accurately ripped
7 | (14/14) Accurately ripped
8 | (14/14) Accurately ripped
9 | (14/14) Accurately ripped
10 | (14/14) Accurately ripped
11 | (14/14) Accurately ripped
12 | (14/14) Accurately ripped


==== Log checksum 6441AFEDDE854B0B1DD81D23AAC102750037BFC7FC7F1C97AA5D010C58B352A2 ====

[CUETools log; Date: 13.06.2021 23:29:34; Version: 2.1.4]
[CTDB TOCID: 3R07sSZdoprhzCRy1CaUhvBBeEA-] found.
Track | CTDB Status
1 | (42/42) Accurately ripped
2 | (42/42) Accurately ripped
3 | (42/42) Accurately ripped
4 | (42/42) Accurately ripped
5 | (42/42) Accurately ripped
6 | (42/42) Accurately ripped
7 | (42/42) Accurately ripped
8 | (42/42) Accurately ripped
9 | (42/42) Accurately ripped
10 | (42/42) Accurately ripped
11 | (42/42) Accurately ripped
12 | (42/42) Accurately ripped
[AccurateRip ID: 0011d46d-00a66161-8509280c] found.
Track [ CRC | V2 ] Status
01 [9e90fd43|f23cd1db] (00+09/09) Accurately ripped
02 [aa886d4c|2f1d877e] (00+09/09) Accurately ripped
03 [c8152828|58afacdc] (00+09/09) Accurately ripped
04 [ffb8b8a6|c83ff900] (00+09/09) Accurately ripped
05 [c3e6ecc8|ca825545] (00+09/09) Accurately ripped
06 [a6a82c00|626c1026] (00+09/09) Accurately ripped
07 [f0f54010|f17bc072] (00+09/09) Accurately ripped
08 [0e25af08|1e5a6af1] (00+09/09) Accurately ripped
09 [b1082e9e|e3077a6a] (00+09/09) Accurately ripped
10 [4bf86bb3|dbf96767] (00+09/09) Accurately ripped
11 [15ed8ff1|fa8d48d5] (00+09/09) Accurately ripped
12 [c799789d|e1e60be2] (00+10/10) Accurately ripped

Track Peak [ CRC32 ] [W/O NULL] [ LOG ]
– 98,6 [107C6169] [8A1C4E63]
01 86,0 [C0E3B650] [912F6A68] CRC32
02 85,3 [67EFE74B] [860B30FD] CRC32
03 82,2 [BA5A92A7] [5F91186C] CRC32
04 94,1 [55E428E1] [311A6798] CRC32
05 70,6 [B4ED5F50] [5D603FA9] CRC32
06 94,1 [FEB6960B] [7FA1AC1D] CRC32
07 89,1 [56D5E541] [96D4B985] CRC32
08 83,9 [927FD212] [C683765D] CRC32
09 95,2 [BED8378D] [332CDE2D] CRC32
10 65,1 [B7C7F66E] [7E495DF7] CRC32
11 98,6 [D832BBA7] [FF69253E] CRC32
12 80,1 [A9B3628F] [27B1B9D0] CRC32

Thanks to DrStandBy

See also:
Gregorian - Masters Of Chant Chapter II (2001) [Japanese Edition]
Gregorian - The Dark Side (2004) [Special Rock Edition]
Gregorian - Masters Of Chant Chapter V (2006) [Japanese Edition]
Gregorian - Masters of Chant X...15) [2CD Limited Tour Edition]
Gregorian - Masters of Chant: ...ollection [5CD Box Set] (2017)