Subcategories
Tags
Language
Tags

Honk - Five Summer Stories (1972) {2005 GNP/Crescendo} **[RE-UP]**

Posted By: TestTickles
Honk - Five Summer Stories (1972) {2005 GNP/Crescendo} **[RE-UP]**

Honk - Five Summer Stories (1972) {2005 GNP/Crescendo}
EAC Rip | FLAC with CUE and log | scans | 204 mb
MP3 CBR 320kbps | RAR | 84 mb
Genre: country rock, classic rock, soundtrack

Five Summer Stories is the 1972 soundtrack album by Honk. Five Summer Stories was a surf film directed by Greg MacGillivray. The album and the group is known for their song "Pipeline Sequence" which closes the album. Drummer Tris Imboden later became a member of the band Chicago. This CD was released in 2005.
Every place has its homegrown sound. Southern California is legendary for surf music, the ladies of the canyon, country-influenced rock as exemplified by the latter-day Byrds and the early Eagles, and great pop music. All those diverse elements came together, for a brief period, in a band called Honk.

Back in the day, they provided the soundtrack to what’s generally thought of as the premier Seventies surf film (Five Summer Stories), played as headliners at countless venues, had a #1 hit in Hawaii, and opened for the likes of Linda Ronstadt, Loggins & Messina, Jackson Browne, among others.

Honk - Five Summer Stories (1972) {2005 GNP/Crescendo} **[RE-UP]**

01. Creation
02. Blue Of Your Backdrop
03. Brad And David's Theme
04. High In The Middle
05. Hum Drums
06. Bear's Country
07. Made My Statement (Love You Baby)
08. Don't Let Your Goodbye Stand
09. Lopez
10. Blue Of Your Backdrop (Instrumental)
11. Tunnel Of Love
12. Pipeline Sequence

–-
HONK are:
Richard Stekol
Steve Wood
Tris Imboden
Craig Buhler
Beth Fitchet
Don Whaley

Recording produced by Honk and Terry Wright
Engineered by Fred Borkgren
–-
The soundtrack to Five Summer Stories, and the success it had throughout California and Hawaii, lead to the band being signed to 20th Century Records. There were hopes and dreams of success, but it was not meant to be.

If the group are to be remembered for anything, it is this soundtrack, more specifically the song they called "Pipeline Sequence". The title was a reference to the part of the film where surfer Gerry Lopez goes out to a surfing spot in Hawaii known affectionately as Pipeline. The sound of Tris Imboden's hi-hat in the introduction was anticipation of what was to come, and the cheering going on in the theater for the next four minutes is something that is very unique to the song and the film. Just as the Endless Summer soundtrack defined surfing, surf films, and surf music in the 1960's, "Pipeline Sequence" did that for the 1970's.

EAC extraction logfile from 25. April 2006, 20:00 for CD
Honk / Five Summer Stories

Used drive : LITE-ON DVDRW SOHW-1633S Adapter: 0 ID: 0
Read mode : Secure with NO C2, accurate stream, disable cache
Read offset correction : 12
Overread into Lead-In and Lead-Out : No

Used output format : Internal WAV Routines
44.100 Hz; 16 Bit; Stereo

Other options :
Fill up missing offset samples with silence : Yes
Delete leading and trailing silent blocks : No
Installed external ASPI interface


Track 1
Filename D:\FLAC\Honk - Five Summer Stories (1972) [FLAC] {2005 GNP-Crescendo}\01 - Creation.wav

Pre-gap length 0:00:02.00

Peak level 54.9 %
Track quality 100.0 %
Test CRC 7325814C
Copy CRC 7325814C
Copy OK

Track 2
Filename D:\FLAC\Honk - Five Summer Stories (1972) [FLAC] {2005 GNP-Crescendo}\02 - Blue Of Your Backdrop.wav

Peak level 89.5 %
Track quality 100.0 %
Test CRC 0C391694
Copy CRC 0C391694
Copy OK

Track 3
Filename D:\FLAC\Honk - Five Summer Stories (1972) [FLAC] {2005 GNP-Crescendo}\03 - Brad And David's Theme.wav

Pre-gap length 0:00:00.33

Peak level 87.3 %
Track quality 99.9 %
Test CRC DE2C66D8
Copy CRC DE2C66D8
Copy OK

Track 4
Filename D:\FLAC\Honk - Five Summer Stories (1972) [FLAC] {2005 GNP-Crescendo}\04 - High In The Middle.wav

Pre-gap length 0:00:01.13

Peak level 100.0 %
Track quality 100.0 %
Test CRC A9F345E0
Copy CRC A9F345E0
Copy OK

Track 5
Filename D:\FLAC\Honk - Five Summer Stories (1972) [FLAC] {2005 GNP-Crescendo}\05 - Hum Drums.wav

Pre-gap length 0:00:00.97

Peak level 86.4 %
Track quality 100.0 %
Test CRC 9EEEEBA1
Copy CRC 9EEEEBA1
Copy OK

Track 6
Filename D:\FLAC\Honk - Five Summer Stories (1972) [FLAC] {2005 GNP-Crescendo}\06 - Bear's Country.wav

Peak level 96.7 %
Track quality 100.0 %
Test CRC E59E1240
Copy CRC E59E1240
Copy OK

Track 7
Filename D:\FLAC\Honk - Five Summer Stories (1972) [FLAC] {2005 GNP-Crescendo}\07 - Made My Statement (Love You Baby).wav

Pre-gap length 0:00:00.73

Peak level 100.0 %
Track quality 100.0 %
Test CRC 6022F63B
Copy CRC 6022F63B
Copy OK

Track 8
Filename D:\FLAC\Honk - Five Summer Stories (1972) [FLAC] {2005 GNP-Crescendo}\08 - Don't Let Your Goodbye Stand.wav

Pre-gap length 0:00:00.60

Peak level 100.0 %
Track quality 100.0 %
Test CRC EDE05CBD
Copy CRC EDE05CBD
Copy OK

Track 9
Filename D:\FLAC\Honk - Five Summer Stories (1972) [FLAC] {2005 GNP-Crescendo}\09 - Lopez.wav

Pre-gap length 0:00:00.89

Peak level 94.1 %
Track quality 100.0 %
Test CRC 5398C36C
Copy CRC 5398C36C
Copy OK

Track 10
Filename D:\FLAC\Honk - Five Summer Stories (1972) [FLAC] {2005 GNP-Crescendo}\10 - Blue Of Your Backdrop (Instrumental).wav

Pre-gap length 0:00:00.46

Peak level 88.9 %
Track quality 100.0 %
Test CRC 1AC2DE6B
Copy CRC 1AC2DE6B
Copy OK

Track 11
Filename D:\FLAC\Honk - Five Summer Stories (1972) [FLAC] {2005 GNP-Crescendo}\11 - Tunnel Of Love.wav

Pre-gap length 0:00:01.37

Peak level 100.0 %
Track quality 100.0 %
Test CRC 096A7D51
Copy CRC 096A7D51
Copy OK

Track 12
Filename D:\FLAC\Honk - Five Summer Stories (1972) [FLAC] {2005 GNP-Crescendo}\12 - Pipeline Sequence.wav

Pre-gap length 0:00:01.73

Peak level 98.0 %
Track quality 100.0 %
Test CRC EAD90CBD
Copy CRC EAD90CBD
Copy OK

No errors occured


End of status report


Honk - Five Summer Stories (1972) {2005 GNP/Crescendo} **[RE-UP]**