Subcategories
Tags
Language
Tags

VA - Hendrix Hits (2000) {Zounds Music}

Posted By: TestTickles
VA - Hendrix Hits (2000) {Zounds Music}

VA - Hendrix Hits (2000) {Zounds Music}
EAC Rip | FLAC with CUE and LOG | scans | 472 mb
MP3 CBR 320 kbps | RAR | 162 mb
Genre: blues rock, hard rock

Hendrix Hits is a 2000 compilation CD featuring different artists covering songs done by Jimi Hendrix or songs Hendrix made famous (i.e. "All Along The Watchtower", "Hey Joe".) This was released in Germany by the Zounds Music label.

01. Scott Holt - Crosstown Traffic (3:41)
02. Frank Marino & Mahogany Rush - All Along The Watchtower (4:39)
03. Stevie Ray Vaughan & Double Trouble - Voodoo Child (Slight Return) (8:02)
04. Steve Lukather - Freedom (4:11)
05. Roy Buchanan - Hey Joe (5:29)
06. Jeff Healey Band - Angel (4:32)
07. Darby Slick - Red House (5:23)
08. Nawfel - May This Be Love (3:56)
09. Chris Whitley - Drifting (2:35)
10. Tuck & Patti - Castles Made Of Sand/Little Wing (6:00)
11. Stevie Ray Vaughan - Little Wing (6:51)
12. Roy Buchanan - If 6 Was 9 (3:49)
13. Inga Rumpf - Foxy Lady (Live) (4:46)
14. Frank Marino & Mahogany Rush - Purple Haze (Live) (4:11)
15. Nigel Kennedy - Purple Haze (5:18)

Exact Audio Copy V1.0 beta 1 from 15. November 2010

EAC Auslese-Logdatei vom 22. August 2011, 12:10

VA / Hendrix Hits

Benutztes Laufwerk : HL-DT-STDVDRAM GH20NS15 Adapter: 0 ID: 1

Lesemodus : Sicher
Benutze Accurate Stream : Ja
Audio Puffer abgeschaltet : Ja
Benutze C2 Fehlerinformationen : Nein

Leseoffset Korrektur : 667
Überlesen in das Lead-In und Lead-Out : Nein
Fülle fehlende Offsetsample mit Stille auf : Ja
Lösche führende und nachfolgende stille Blöcke : Nein
Null Samples gehen in CRC Berechnungen ein : Ja
Benutzte Schnittstelle : Natürliche Win32 Schnittstelle für Win NT/2000/XP
Pausenbehandlung : Hinter dem vorigen Track angehängt

Benutztes Ausgabeformat : Interne WAV Routinen
Sampleformat : 44.100 Hz; 16 Bit; Stereo


TOC der ausgelesenen CD

Track | Start | Länge | Startsektor | Endsektor
–––––––––––––––––––––––––––-
1 | 0:00.00 | 3:40.74 | 0 | 16573
2 | 3:40.74 | 4:39.16 | 16574 | 37514
3 | 8:20.15 | 8:01.69 | 37515 | 73658
4 | 16:22.09 | 4:10.72 | 73659 | 92480
5 | 20:33.06 | 5:29.36 | 92481 | 117191
6 | 26:02.42 | 4:31.40 | 117192 | 137556
7 | 30:34.07 | 5:23.04 | 137557 | 161785
8 | 35:57.11 | 3:56.32 | 161786 | 179517
9 | 39:53.43 | 2:35.32 | 179518 | 191174
10 | 42:29.00 | 6:00.33 | 191175 | 218207
11 | 48:29.33 | 6:50.43 | 218208 | 249000
12 | 55:20.01 | 3:49.01 | 249001 | 266176
13 | 59:09.02 | 4:45.49 | 266177 | 287600
14 | 63:54.51 | 4:11.22 | 287601 | 306447
15 | 68:05.73 | 5:18.17 | 306448 | 330314


Track 1

Dateiname C:\cuntfist\FLAC\VA - Hendrix Hits (2000) [FLAC] {Zounds Music}\01 - Scott Holt - Crosstown Traffic.wav

Pausenlänge 0:00:02.00

Spitzenpegel 100.0 %
Auslesegeschwindigkeit 4.5 X
Track Qualität 100.0 %
Test CRC 8FB636F1
Kopie CRC 8FB636F1
Akkurat gelesen (Zuversicht 2) [591E8CF1]
Kopie OK

Track 2

Dateiname C:\cuntfist\FLAC\VA - Hendrix Hits (2000) [FLAC] {Zounds Music}\02 - Frank Marino & Mahogany Rush - All Along The Watchtower.wav

Pausenlänge 0:00:02.25

Spitzenpegel 99.8 %
Auslesegeschwindigkeit 5.1 X
Track Qualität 100.0 %
Test CRC 68B76417
Kopie CRC 68B76417
Akkurat gelesen (Zuversicht 2) [31041123]
Kopie OK

Track 3

Dateiname C:\cuntfist\FLAC\VA - Hendrix Hits (2000) [FLAC] {Zounds Music}\03 - Stevie Ray Vaughan & Double Trouble - Voodoo Child (Slight Return).wav

Pausenlänge 0:00:02.25

Spitzenpegel 99.7 %
Auslesegeschwindigkeit 6.1 X
Track Qualität 100.0 %
Test CRC 0B407D17
Kopie CRC 0B407D17
Akkurat gelesen (Zuversicht 2) [FBC8E0D1]
Kopie OK

Track 4

Dateiname C:\cuntfist\FLAC\VA - Hendrix Hits (2000) [FLAC] {Zounds Music}\04 - Steve Lukather - Freedom.wav

Pausenlänge 0:00:02.25

Spitzenpegel 99.4 %
Auslesegeschwindigkeit 6.1 X
Track Qualität 100.0 %
Test CRC 14F32DC4
Kopie CRC 14F32DC4
Akkurat gelesen (Zuversicht 2) [55B798A8]
Kopie OK

Track 5

Dateiname C:\cuntfist\FLAC\VA - Hendrix Hits (2000) [FLAC] {Zounds Music}\05 - Roy Buchanan - Hey Joe.wav

Pausenlänge 0:00:02.25

Spitzenpegel 98.5 %
Auslesegeschwindigkeit 6.8 X
Track Qualität 100.0 %
Test CRC F107956E
Kopie CRC F107956E
Akkurat gelesen (Zuversicht 2) [F8717865]
Kopie OK

Track 6

Dateiname C:\cuntfist\FLAC\VA - Hendrix Hits (2000) [FLAC] {Zounds Music}\06 - Jeff Healey Band - Angel.wav

Pausenlänge 0:00:02.25

Spitzenpegel 99.8 %
Auslesegeschwindigkeit 6.9 X
Track Qualität 100.0 %
Test CRC AC74E65E
Kopie CRC AC74E65E
Akkurat gelesen (Zuversicht 2) [BF7375FB]
Kopie OK

Track 7

Dateiname C:\cuntfist\FLAC\VA - Hendrix Hits (2000) [FLAC] {Zounds Music}\07 - Darby Slick - Red House.wav

Pausenlänge 0:00:02.25

Spitzenpegel 98.7 %
Auslesegeschwindigkeit 7.3 X
Track Qualität 100.0 %
Test CRC B911377F
Kopie CRC B911377F
Akkurat gelesen (Zuversicht 2) [48C32B89]
Kopie OK

Track 8

Dateiname C:\cuntfist\FLAC\VA - Hendrix Hits (2000) [FLAC] {Zounds Music}\08 - Nawfel - May This Be Love.wav

Pausenlänge 0:00:02.25

Spitzenpegel 100.0 %
Auslesegeschwindigkeit 6.0 X
Track Qualität 99.9 %
Test CRC C1F83B44
Kopie CRC C1F83B44
Akkurat gelesen (Zuversicht 2) [774429CC]
Kopie OK

Track 9

Dateiname C:\cuntfist\FLAC\VA - Hendrix Hits (2000) [FLAC] {Zounds Music}\09 - Chris Whitley - Drifting.wav

Pausenlänge 0:00:02.26

Spitzenpegel 94.1 %
Auslesegeschwindigkeit 7.0 X
Track Qualität 100.0 %
Test CRC A603DF6C
Kopie CRC A603DF6C
Akkurat gelesen (Zuversicht 2) [2A8427B8]
Kopie OK

Track 10

Dateiname C:\cuntfist\FLAC\VA - Hendrix Hits (2000) [FLAC] {Zounds Music}\10 - Tuck & Patti - Castles Made Of Sand, Little Wing.wav

Pausenlänge 0:00:02.25

Spitzenpegel 89.9 %
Auslesegeschwindigkeit 8.4 X
Track Qualität 100.0 %
Test CRC 4B5CEF05
Kopie CRC 4B5CEF05
Akkurat gelesen (Zuversicht 2) [9078EDCF]
Kopie OK

Track 11

Dateiname C:\cuntfist\FLAC\VA - Hendrix Hits (2000) [FLAC] {Zounds Music}\11 - Stevie Ray Vaughan - Little Wing.wav

Pausenlänge 0:00:02.25

Spitzenpegel 99.4 %
Auslesegeschwindigkeit 8.8 X
Track Qualität 100.0 %
Test CRC 4AE0675B
Kopie CRC 4AE0675B
Akkurat gelesen (Zuversicht 2) [56ECEFD3]
Kopie OK

Track 12

Dateiname C:\cuntfist\FLAC\VA - Hendrix Hits (2000) [FLAC] {Zounds Music}\12 - Roy Buchanan - If 6 Was 9.wav

Pausenlänge 0:00:02.25

Spitzenpegel 100.0 %
Auslesegeschwindigkeit 8.1 X
Track Qualität 100.0 %
Test CRC 465631DD
Kopie CRC 465631DD
Akkurat gelesen (Zuversicht 2) [9E524206]
Kopie OK

Track 13

Dateiname C:\cuntfist\FLAC\VA - Hendrix Hits (2000) [FLAC] {Zounds Music}\13 - Inga Rumpf - Foxy Lady (Live).wav

Pausenlänge 0:00:02.25

Spitzenpegel 98.4 %
Auslesegeschwindigkeit 9.0 X
Track Qualität 100.0 %
Test CRC 5E9815C7
Kopie CRC 5E9815C7
Akkurat gelesen (Zuversicht 2) [7B3C274D]
Kopie OK

Track 14

Dateiname C:\cuntfist\FLAC\VA - Hendrix Hits (2000) [FLAC] {Zounds Music}\14 - Frank Marino & Mahogany Rush - Purple Haze (Live).wav

Pausenlänge 0:00:01.25

Spitzenpegel 99.8 %
Auslesegeschwindigkeit 8.8 X
Track Qualität 100.0 %
Test CRC 2D4A1F2B
Kopie CRC 2D4A1F2B
Akkurat gelesen (Zuversicht 2) [E13C89E8]
Kopie OK

Track 15

Dateiname C:\cuntfist\FLAC\VA - Hendrix Hits (2000) [FLAC] {Zounds Music}\15 - Nigel Kennedy - Purple Haze.wav

Pausenlänge 0:00:02.25

Spitzenpegel 80.8 %
Auslesegeschwindigkeit 9.5 X
Track Qualität 100.0 %
Test CRC 51ACA21A
Kopie CRC 51ACA21A
Akkurat gelesen (Zuversicht 2) [BBFB8ADA]
Kopie OK


Alle Tracks wurden akkurat gelesen

Keine Fehler aufgetreten

Ende des Statusreports

==== Report Prüfsumme 84112A1D1D09674EF0615D03B906879CF9E4E3397269AB9EB851751530F4921E ====


VA - Hendrix Hits (2000) {Zounds Music}


Thank you to the original uploader.