Subcategories

Harmonium - s/t (1974) {198x Polydor Canada}

Posted By: TestTickles
Harmonium - s/t (1974) {198x Polydor Canada}

Harmonium - s/t (1974) {198x Polydor Canada}
EAC Rip | FLAC with CUE and log | scans | 242 mb
MP3 CBR 320kbps | RAR | 106 mb
Genre: progressive rock, folk rock

Harmonium is the 1974 debut album by Harmonium. This was released by Polydor Canada, no release date but it was either in the late 1980's or early 1990's, sometime before 1991.
Harmonium were one of the most influential rock bands from Quebec. Lead vocalist and guitarist Serge Fiori met Michel Normandeau (vocals and guitar) in a theatre music meeting. Later on in 1973 they met bassist Louis Valois and became Harmonium. In November of 1973 the group performed their first air play on CHOM-FM. They played 3 tracks: "Pour un instant", "Un musicien parmi tant d'autres", and "Un refrain parmi tant d'autres". The first 2 songs were demos at the time and were later recorded professionally to be put on their first album, Harmonium. The last song was a sequel to "Un musicien parmi tant d'autres", but never made the album cut, staying as a b-side. Apart from the album, one single was recorded at the time: "Pour un instant", featuring 2 tracks (one on each side), the title song and "100,000 Raisons", only released on the CD version of the album almost 20 years later.

Harmonium - s/t (1974) {198x Polydor Canada}

1. Harmonium (6:36)
2. Si Doucement (4:25)
3. Aujourd'hui, Je Dis Bonjour A La Vie (5:44)
4. Veilles Courroies (5:47)
5. 100,000 Raisons (3:42)
6. Attends-Moi (4:40)
7. Pour Un Instant (3:21)
8. De La Chambre Au Salon (5:43)
9. Un Musicien Parmi Tant D'autres (7:05)

Serge Fiori-guitar, flute, zither harp, bass drum, vocals
Michel Normandeau-guitar, accordion, vocals
Louis Valois-bass guitar, electric piano, vocals

Alan Penfold-flugelhorn
Réjean Émond-drums

Producteurs: R.A. (Bob) Morten
Ingenieur: Michel Lachance
Enregistere: A Montreal, Janvier 1974, Studio Tempo Inc.

EAC extraction logfile from 29. April 2006, 14:55 for CD
Harmonium / Harmonium

Used drive : _NEC DVD_RW ND-3540A Adapter: 1 ID: 0
Read mode : Secure with NO C2, accurate stream, disable cache
Read offset correction : 48
Overread into Lead-In and Lead-Out : No

Used output format : G:\Tools\DOS\audio\flac.exe (User Defined Encoder)
320 kBit/s
Additional command line options : %s

Other options :
Fill up missing offset samples with silence : Yes
Delete leading and trailing silent blocks : No
Installed external ASPI interface


Track 1
Filename C:\FLAC\Harmonium - s-t (1974) [FLAC] {198x Polydor Canada}\01 - Harmonium.wav

Pre-gap length 0:00:02.00

Peak level 83.3 %
Track quality 100.0 %
Test CRC FC0996BE
Copy CRC FC0996BE
Copy OK

Track 2
Filename C:\FLAC\Harmonium - s-t (1974) [FLAC] {198x Polydor Canada}\02 - Si Doucement.wav

Pre-gap length 0:00:02.17

Peak level 51.7 %
Track quality 100.0 %
Test CRC 7E0A9AFB
Copy CRC 7E0A9AFB
Copy OK

Track 3
Filename C:\FLAC\Harmonium - s-t (1974) [FLAC] {198x Polydor Canada}\03 - Aujourd'hui, je dis bonjour a la vie.wav

Pre-gap length 0:00:03.02

Peak level 63.9 %
Track quality 100.0 %
Test CRC 99B3D252
Copy CRC 99B3D252
Copy OK

Track 4
Filename C:\FLAC\Harmonium - s-t (1974) [FLAC] {198x Polydor Canada}\04 - Vieilles courroies.wav

Peak level 81.0 %
Track quality 100.0 %
Test CRC 5A387BA9
Copy CRC 5A387BA9
Copy OK

Track 5
Filename C:\FLAC\Harmonium - s-t (1974) [FLAC] {198x Polydor Canada}\05 - 100,000 raisons.wav

Pre-gap length 0:00:03.16

Peak level 55.6 %
Track quality 100.0 %
Test CRC 7E6536BC
Copy CRC 7E6536BC
Copy OK

Track 6
Filename C:\FLAC\Harmonium - s-t (1974) [FLAC] {198x Polydor Canada}\06 - Attends-moi.wav

Pre-gap length 0:00:02.06

Peak level 60.8 %
Track quality 100.0 %
Test CRC 5D03539C
Copy CRC 5D03539C
Copy OK

Track 7
Filename C:\FLAC\Harmonium - s-t (1974) [FLAC] {198x Polydor Canada}\07 - Pour un instant.wav

Peak level 46.8 %
Track quality 100.0 %
Test CRC ADDDF289
Copy CRC ADDDF289
Copy OK

Track 8
Filename C:\FLAC\Harmonium - s-t (1974) [FLAC] {198x Polydor Canada}\08 - De la Chambre au Salon.wav

Pre-gap length 0:00:02.40

Peak level 44.0 %
Track quality 100.0 %
Test CRC DE4B6A3D
Copy CRC DE4B6A3D
Copy OK

Track 9
Filename C:\FLAC\Harmonium - s-t (1974) [FLAC] {198x Polydor Canada}\09 - Un musicien Parmi tant d'Autres.wav

Pre-gap length 0:00:02.42

Peak level 82.2 %
Track quality 99.9 %
Test CRC 0299436A
Copy CRC 0299436A
Copy OK

No errors occured


End of status report


Harmonium - s/t (1974) {198x Polydor Canada}


Thank you to the original uploader