Tags
Language
Tags

Hae-won Chang - Jacques Ibert: Complete Piano Music (1992) Reissue 2000

Posted By: Designol
Hae-won Chang - Jacques Ibert: Complete Piano Music (1992) Reissue 2000

Hae-won Chang - Jacques Ibert: Complete Piano Music (1992) Reissue 2000
EAC | FLAC | Tracks (Cue&Log) ~ 204 Mb | Mp3 (CBR320) ~ 172 Mb | Scans included
Genre: Classical | Label: Naxos | # 8.554720 | Time: 01:10:45

Jacques Ibert’s piano music isn’t exactly the most exciting part of his output, amounting to a series of short picturesque pieces written in a bland neo-classical vein, with just a hint of impressionism or humor here and there to liven up the expression. Lack of both imagination and strong features have kept these pieces away from the current concert repertoire, but on CD they make nice if quickly forgotten listening. The collection of Histoires, including the famous Le petit âne blanc (The Little White Donkey), comes off the best, along with Les rencontres, a little suite in the form of a ballet that displays some lively melodic figures underlined by slightly spicy harmonies, as in the softly swinging The Creoles. The other pieces do little else than round off the total timing of the CD. Hae-won Chang plays with charm and delicacy, with a clean and neat technique that is just what these unpretentious pieces require. The recording is well balanced and truthful.

Review by ClassicsToday

"Again, Naxos ferrets out unfamiliar repertory that delights as it teases with the question: why didn't somebody think of this before? Ibert's piano music is a bit reminiscent of Poulenc's but more straightforward. These tiny Pictures, Stories, Encounters, and sundry musical images - some 36 of them before this generous program has run its course - enchant even if they don't cut very deeply. The Romance offers Schumannesque Lyricism; the 'Abandoned Palace' and ' The Wind Over The Ruins' have spooky Gothic atmosphere; the brilliant 'Cabman's Dance' sprints off the keyboard and out of sight; the children's pieces evoke innocence and wonder in the mode of Ravel's Mother Goose.

"As usual, Naxos serves up a fresh, impressive musician along with the novel music. Korean pianist He-won Chang plays with crisp rhythms, subtle colors, and a sense of joy. The sound is warm and resplendent. This enterprising label shows that there is no reason for brainless "easy listening". Plenty of great music with a light touch is out there, waiting to be unearthed."

American Record Guide

Hae-won Chang - Jacques Ibert: Complete Piano Music (1992) Reissue 2000



Recorded at Tonstudio van Geest in Heidelberg, Germany from 29th to 30th September, 1991

Tracklist:

01. Scherzetto (02:50)
02. Pièce romantique (05:54)
03. Toccata sur le nom d'Albert Roussel (01:00)
04. L'espiègle au village de Lilliput (01:00)
05. Française: 'Guitarre' pour le piano (02:37)
06. Le vent dans les ruines (02:58)
07. Petite suite - Prélude (01:46)
08. Petite suite - Ronde (00:42)
09. Petite suite - Le gai vigneron (00:49)
10. Petite suite - Berceuse aux étoiles (01:44)
11. Le cavalier Sans-Souci (00:58)
12. Petite suite - Parade (01:19)
13. Petite suite - La promenade en traîneau (00:58)
14. Petite suite - Romance (01:17)
15. Petite suite - Quadrille (00:36)
16. Petite suite - Sérénade sur l'eau (01:06)
17. Petite suite - La machine à coudre (00:34)
18. Petite suite - L'Adieu (02:09)
19. Petite suite - Les crocus (00:58)
20. Petite suite - Premier bal (00:45)
21. Petite suite - Danse du cocher (00:38)
22. Histoires - La meneuse de tortues d'or (03:41)
23. Histoires - Le petit âne blanc (02:03)
24. Histoires - Le vieux mendiant (03:03)
25. Histoires - A giddy girl (01:24)
26. Histoires - Dans la maison triste (01:51)
27. Histoires - Le palais abandonné (02:07)
28. Histoires - Bajo la mesa (02:03)
29. Histoires - La cage de cristal (01:26)
30. Histoires - La marchande d'eau fraîche (02:09)
31. Histoires - Le cortège de Balkis (02:00)
32. Les rencontres - Les bouquetières (03:08)
33. Les rencontres - Les créoles (04:04)
34. Les rencontres - Les mignardes (03:01)
35. Les rencontres - Les bergères (03:39)
36. Les rencontres - Les bavardes (02:18)


Exact Audio Copy V1.1 from 23. June 2015

EAC extraction logfile from 31. July 2016, 23:20

Ibert, Jacques / Piano Music - Hae-won Chang (piano)

Used drive : PLEXTOR CD-R PREMIUM2 Adapter: 5 ID: 1

Read mode : Secure
Utilize accurate stream : Yes
Defeat audio cache : Yes
Make use of C2 pointers : No

Read offset correction : 30
Overread into Lead-In and Lead-Out : Yes
Fill up missing offset samples with silence : Yes
Delete leading and trailing silent blocks : No
Null samples used in CRC calculations : Yes
Used interface : Installed external ASPI interface
Gap handling : Appended to previous track

Used output format : User Defined Encoder
Selected bitrate : 896 kBit/s
Quality : High
Add ID3 tag : No
Command line compressor : C:\Program Files\Exact Audio Copy\Flac\flac.exe
Additional command line options : -6 -V -T "ARTIST=%artist%" -T "TITLE=%title%" -T "ALBUM=%albumtitle%" -T "DATE=%year%" -T "PERFORMER=%albuminterpret%" -T "TRACKNUMBER=%tracknr%" -T "TOTALTRACKS=%numtracks%" -T "GENRE=%genre%" -T "COMPOSER=%composer%" -T "ALBUMARTIST=%albumartist%" -T "ALBUM ARTIST=%albumartist%" -T "COMMENT=EAC Secure Mode, Test & Copy, AccurateRip, FLAC -6" %source%


TOC of the extracted CD

Track | Start | Length | Start sector | End sector
––––––––––––––––––––––––––––-
1 | 0:00.00 | 2:50.02 | 0 | 12751
2 | 2:50.02 | 5:54.73 | 12752 | 39374
3 | 8:45.00 | 1:00.00 | 39375 | 43874
4 | 9:45.00 | 1:00.00 | 43875 | 48374
5 | 10:45.00 | 2:37.00 | 48375 | 60149
6 | 13:22.00 | 2:58.00 | 60150 | 73499
7 | 16:20.00 | 1:46.12 | 73500 | 81461
8 | 18:06.12 | 0:42.63 | 81462 | 84674
9 | 18:49.00 | 0:49.10 | 84675 | 88359
10 | 19:38.10 | 1:44.62 | 88360 | 96221
11 | 21:22.72 | 0:58.10 | 96222 | 100581
12 | 22:21.07 | 1:19.00 | 100582 | 106506
13 | 23:40.07 | 0:58.65 | 106507 | 110921
14 | 24:38.72 | 1:17.13 | 110922 | 116709
15 | 25:56.10 | 0:36.65 | 116710 | 119474
16 | 26:33.00 | 1:06.00 | 119475 | 124424
17 | 27:39.00 | 0:34.10 | 124425 | 126984
18 | 28:13.10 | 2:09.00 | 126985 | 136659
19 | 30:22.10 | 0:58.27 | 136660 | 141036
20 | 31:20.37 | 0:45.25 | 141037 | 144436
21 | 32:05.62 | 0:38.73 | 144437 | 147359
22 | 32:44.60 | 3:41.00 | 147360 | 163934
23 | 36:25.60 | 2:03.02 | 163935 | 173161
24 | 38:28.62 | 3:03.08 | 173162 | 186894
25 | 41:31.70 | 1:24.00 | 186895 | 193194
26 | 42:55.70 | 1:51.00 | 193195 | 201519
27 | 44:46.70 | 2:07.67 | 201520 | 211111
28 | 46:54.62 | 2:03.08 | 211112 | 220344
29 | 48:57.70 | 1:26.02 | 220345 | 226796
30 | 50:23.72 | 2:09.73 | 226797 | 236544
31 | 52:33.70 | 2:00.65 | 236545 | 245609
32 | 54:34.60 | 3:08.00 | 245610 | 259709
33 | 57:42.60 | 4:04.00 | 259710 | 278009
34 | 61:46.60 | 3:01.00 | 278010 | 291584
35 | 64:47.60 | 3:39.00 | 291585 | 308009
36 | 68:26.60 | 2:18.27 | 308010 | 318386


Track 1

Filename D:\EAC extraction\01 - Scherzetto.wav

Pre-gap length 0:00:02.00

Peak level 86.1 %
Extraction speed 1.8 X
Track quality 100.0 %
Test CRC 39EF5D7B
Copy CRC 39EF5D7B
Cannot be verified as accurate (confidence 4) [D85075BD], AccurateRip returned [8FA0B788] (AR v2)
Copy OK

Track 2

Filename D:\EAC extraction\02 - Piece romantique.wav

Pre-gap length 0:00:03.30

Peak level 89.6 %
Extraction speed 1.9 X
Track quality 100.0 %
Test CRC C5D2CF2A
Copy CRC C5D2CF2A
Cannot be verified as accurate (confidence 4) [BC8DE01B], AccurateRip returned [40B71548] (AR v2)
Copy OK

Track 3

Filename D:\EAC extraction\03 - Toccata sur le nom d'Albert Roussel.wav

Pre-gap length 0:00:01.67

Peak level 46.9 %
Extraction speed 1.8 X
Track quality 100.0 %
Test CRC 5ED7FD3D
Copy CRC 5ED7FD3D
Cannot be verified as accurate (confidence 4) [4DA383B9], AccurateRip returned [9E4EC74B] (AR v2)
Copy OK

Track 4

Filename D:\EAC extraction\04 - L'espiegle au village de Lilliput.wav

Pre-gap length 0:00:01.70

Peak level 46.6 %
Extraction speed 1.7 X
Track quality 100.0 %
Test CRC 4F7BE25F
Copy CRC 4F7BE25F
Cannot be verified as accurate (confidence 4) [81132E0B], AccurateRip returned [61520DF8] (AR v2)
Copy OK

Track 5

Filename D:\EAC extraction\05 - Francaise; 'Guitarre' pour le piano.wav

Pre-gap length 0:00:05.23

Peak level 79.3 %
Extraction speed 1.8 X
Track quality 99.9 %
Test CRC E58AFDE4
Copy CRC E58AFDE4
Cannot be verified as accurate (confidence 4) [BECDB07B], AccurateRip returned [84A208F2] (AR v2)
Copy OK

Track 6

Filename D:\EAC extraction\06 - Le vent dans les ruines.wav

Pre-gap length 0:00:02.71

Peak level 86.6 %
Extraction speed 1.8 X
Track quality 100.0 %
Test CRC 0F4055F8
Copy CRC 0F4055F8
Cannot be verified as accurate (confidence 4) [7F2CFAFE], AccurateRip returned [85FCFB18] (AR v2)
Copy OK

Track 7

Filename D:\EAC extraction\07 - Petite suite - Prelude.wav

Pre-gap length 0:00:05.23

Peak level 14.0 %
Extraction speed 1.8 X
Track quality 100.0 %
Test CRC EF67FD07
Copy CRC EF67FD07
Cannot be verified as accurate (confidence 4) [AC8D3A06], AccurateRip returned [71669C25] (AR v2)
Copy OK

Track 8

Filename D:\EAC extraction\08 - Petite suite - Ronde.wav

Peak level 29.1 %
Extraction speed 1.6 X
Track quality 99.7 %
Test CRC C8705011
Copy CRC C8705011
Cannot be verified as accurate (confidence 4) [91B5BBAE], AccurateRip returned [DCF5345A] (AR v2)
Copy OK

Track 9

Filename D:\EAC extraction\09 - Petite suite - Le gai vigneron.wav

Pre-gap length 0:00:02.15

Peak level 55.1 %
Extraction speed 1.6 X
Track quality 99.7 %
Test CRC 191A111E
Copy CRC 191A111E
Cannot be verified as accurate (confidence 4) [90D1E16C], AccurateRip returned [3B1FA269] (AR v2)
Copy OK

Track 10

Filename D:\EAC extraction\10 - Petite suite - Berceuse aux etoiles.wav

Peak level 13.8 %
Extraction speed 1.8 X
Track quality 100.0 %
Test CRC 2639EBE4
Copy CRC 2639EBE4
Cannot be verified as accurate (confidence 4) [9BA7A1CC], AccurateRip returned [23E3D085] (AR v2)
Copy OK

Track 11

Filename D:\EAC extraction\11 - Le cavalier Sans-Souci.wav

Pre-gap length 0:00:01.47

Peak level 28.5 %
Extraction speed 1.7 X
Track quality 100.0 %
Test CRC 3FCFA795
Copy CRC 3FCFA795
Cannot be verified as accurate (confidence 4) [516B4028], AccurateRip returned [FD90E04B] (AR v2)
Copy OK

Track 12

Filename D:\EAC extraction\12 - Petite suite - Parade.wav

Peak level 45.0 %
Extraction speed 1.7 X
Track quality 99.8 %
Test CRC 7CBBADCE
Copy CRC 7CBBADCE
Cannot be verified as accurate (confidence 4) [32CB93CE], AccurateRip returned [1A1C5EA5] (AR v2)
Copy OK

Track 13

Filename D:\EAC extraction\13 - Petite suite - La promenade en traineau.wav

Peak level 41.3 %
Extraction speed 1.7 X
Track quality 100.0 %
Test CRC 04BFDD90
Copy CRC 04BFDD90
Cannot be verified as accurate (confidence 4) [5907F42D], AccurateRip returned [B6883618] (AR v2)
Copy OK

Track 14

Filename D:\EAC extraction\14 - Petite suite - Romance.wav

Pre-gap length 0:00:01.69

Peak level 26.5 %
Extraction speed 1.8 X
Track quality 100.0 %
Test CRC 495B6BC5
Copy CRC 495B6BC5
Cannot be verified as accurate (confidence 4) [093860A0], AccurateRip returned [34AB0929] (AR v2)
Copy OK

Track 15

Filename D:\EAC extraction\15 - Petite suite - Quadrille.wav

Peak level 81.6 %
Extraction speed 1.6 X
Track quality 99.7 %
Test CRC 4869ED1C
Copy CRC 4869ED1C
Cannot be verified as accurate (confidence 4) [19DF44B3], AccurateRip returned [26ABAF6C] (AR v2)
Copy OK

Track 16

Filename D:\EAC extraction\16 - Petite suite - Serenade sur l'eau.wav

Pre-gap length 0:00:01.13

Peak level 29.3 %
Extraction speed 1.8 X
Track quality 100.0 %
Test CRC D789C57C
Copy CRC D789C57C
Cannot be verified as accurate (confidence 4) [CFC6DD32], AccurateRip returned [88E3919C] (AR v2)
Copy OK

Track 17

Filename D:\EAC extraction\17 - Petite suite - La machine a coudre.wav

Pre-gap length 0:00:02.15

Peak level 26.4 %
Extraction speed 1.7 X
Track quality 100.0 %
Test CRC 55B6CF85
Copy CRC 55B6CF85
Cannot be verified as accurate (confidence 4) [38A6B5B8], AccurateRip returned [AA71D9FD] (AR v2)
Copy OK

Track 18

Filename D:\EAC extraction\18 - Petite suite - L'Adieu.wav

Peak level 18.4 %
Extraction speed 1.8 X
Track quality 100.0 %
Test CRC 6CF6DB77
Copy CRC 6CF6DB77
Cannot be verified as accurate (confidence 4) [04ABC82A], AccurateRip returned [B1CECF9A] (AR v2)
Copy OK

Track 19

Filename D:\EAC extraction\19 - Petite suite - Les crocus.wav

Peak level 37.8 %
Extraction speed 1.7 X
Track quality 100.0 %
Test CRC 2BD3C5F6
Copy CRC 2BD3C5F6
Cannot be verified as accurate (confidence 4) [7B56EFB6], AccurateRip returned [D7D0C454] (AR v2)
Copy OK

Track 20

Filename D:\EAC extraction\20 - Petite suite - Premier bal.wav

Pre-gap length 0:00:01.36

Peak level 43.6 %
Extraction speed 1.7 X
Track quality 100.0 %
Test CRC A78C8F2B
Copy CRC A78C8F2B
Cannot be verified as accurate (confidence 4) [3BD4E838], AccurateRip returned [DF69FFCC] (AR v2)
Copy OK

Track 21

Filename D:\EAC extraction\21 - Petite suite - Danse du cocher.wav

Pre-gap length 0:00:01.40

Peak level 96.3 %
Extraction speed 1.7 X
Track quality 100.0 %
Test CRC A416386B
Copy CRC A416386B
Cannot be verified as accurate (confidence 4) [0CB27FDB], AccurateRip returned [2E541D2D] (AR v2)
Copy OK

Track 22

Filename D:\EAC extraction\22 - Histoires - La meneuse de tortues d'or.wav

Pre-gap length 0:00:05.33

Peak level 36.7 %
Extraction speed 1.9 X
Track quality 100.0 %
Test CRC C55D5C2B
Copy CRC C55D5C2B
Cannot be verified as accurate (confidence 4) [3F29DBCE], AccurateRip returned [251C6D6C] (AR v2)
Copy OK

Track 23

Filename D:\EAC extraction\23 - Histoires - Le petit ane blanc.wav

Pre-gap length 0:00:01.57

Peak level 67.7 %
Extraction speed 1.8 X
Track quality 100.0 %
Test CRC 8CB4DB03
Copy CRC 8CB4DB03
Cannot be verified as accurate (confidence 4) [FD6CFDC2], AccurateRip returned [577BE9A7] (AR v2)
Copy OK

Track 24

Filename D:\EAC extraction\24 - Histoires - Le vieux mendiant.wav

Peak level 15.2 %
Extraction speed 1.8 X
Track quality 100.0 %
Test CRC 531CB5E9
Copy CRC 531CB5E9
Cannot be verified as accurate (confidence 4) [47D00087], AccurateRip returned [AC46D094] (AR v2)
Copy OK

Track 25

Filename D:\EAC extraction\25 - Histoires - A giddy girl.wav

Peak level 39.9 %
Extraction speed 1.7 X
Track quality 99.8 %
Test CRC 4FDEDEB9
Copy CRC 4FDEDEB9
Cannot be verified as accurate (confidence 3) [079DCD99], AccurateRip returned [872C3299] (AR v2)
Copy OK

Track 26

Filename D:\EAC extraction\26 - Histoires - Dans la maison triste.wav

Peak level 18.0 %
Extraction speed 1.8 X
Track quality 100.0 %
Test CRC 95D7B76B
Copy CRC 95D7B76B
Cannot be verified as accurate (confidence 3) [D3BBBAE8], AccurateRip returned [7C41D3EF] (AR v2)
Copy OK

Track 27

Filename D:\EAC extraction\27 - Histoires - Le palais abandonne.wav

Peak level 18.8 %
Extraction speed 1.8 X
Track quality 100.0 %
Test CRC 1D49E6EE
Copy CRC 1D49E6EE
Cannot be verified as accurate (confidence 3) [0AF41073], AccurateRip returned [EB968559] (AR v2)
Copy OK

Track 28

Filename D:\EAC extraction\28 - Histoires - Bajo la mesa.wav

Pre-gap length 0:00:02.45

Peak level 82.1 %
Extraction speed 1.8 X
Track quality 100.0 %
Test CRC B54C2AD0
Copy CRC B54C2AD0
Cannot be verified as accurate (confidence 3) [69C5343C], AccurateRip returned [6EB77C15] (AR v2)
Copy OK

Track 29

Filename D:\EAC extraction\29 - Histoires - La cage de cristal.wav

Peak level 35.2 %
Extraction speed 1.7 X
Track quality 100.0 %
Test CRC 47D5ACF9
Copy CRC 47D5ACF9
Cannot be verified as accurate (confidence 4) [55794AF0], AccurateRip returned [F8210482] (AR v2)
Copy OK

Track 30

Filename D:\EAC extraction\30 - Histoires - La marchande d'eau fraiche.wav

Peak level 77.8 %
Extraction speed 1.8 X
Track quality 100.0 %
Test CRC 4E740E23
Copy CRC 4E740E23
Cannot be verified as accurate (confidence 4) [B3D62BC3], AccurateRip returned [F684C877] (AR v2)
Copy OK

Track 31

Filename D:\EAC extraction\31 - Histoires - Le cortege de Balkis.wav

Peak level 36.3 %
Extraction speed 1.8 X
Track quality 100.0 %
Test CRC F91AFDCD
Copy CRC F91AFDCD
Cannot be verified as accurate (confidence 4) [DF6A69EB], AccurateRip returned [32403897] (AR v2)
Copy OK

Track 32

Filename D:\EAC extraction\32 - Les rencontres - Les bouquetieres.wav

Pre-gap length 0:00:07.33

Peak level 62.2 %
Extraction speed 1.8 X
Track quality 100.0 %
Test CRC D60DBC93
Copy CRC D60DBC93
Cannot be verified as accurate (confidence 4) [A2551F81], AccurateRip returned [F978B2DF] (AR v2)
Copy OK

Track 33

Filename D:\EAC extraction\33 - Les rencontres - Les creoles.wav

Pre-gap length 0:00:02.13

Peak level 40.3 %
Extraction speed 1.8 X
Track quality 99.9 %
Test CRC 6D21F856
Copy CRC 6D21F856
Cannot be verified as accurate (confidence 4) [29315301], AccurateRip returned [398A7B48] (AR v2)
Copy OK

Track 34

Filename D:\EAC extraction\34 - Les rencontres - Les mignardes.wav

Pre-gap length 0:00:02.31

Peak level 73.6 %
Extraction speed 1.8 X
Track quality 100.0 %
Test CRC 704EC8C6
Copy CRC 704EC8C6
Cannot be verified as accurate (confidence 4) [07BD8EE8], AccurateRip returned [16FBB2F1] (AR v2)
Copy OK

Track 35

Filename D:\EAC extraction\35 - Les rencontres - Les bergeres.wav

Pre-gap length 0:00:02.19

Peak level 40.9 %
Extraction speed 1.8 X
Track quality 100.0 %
Test CRC D79BF821
Copy CRC D79BF821
Cannot be verified as accurate (confidence 4) [7C1E0FF9], AccurateRip returned [FD690790] (AR v2)
Copy OK

Track 36

Filename D:\EAC extraction\36 - Les rencontres - Les bavardes.wav

Pre-gap length 0:00:02.13

Peak level 94.7 %
Extraction speed 1.9 X
Track quality 100.0 %
Test CRC 8F689519
Copy CRC 8F689519
Cannot be verified as accurate (confidence 4) [1A1D5A8F], AccurateRip returned [695DA1EE] (AR v2)
Copy OK


No tracks could be verified as accurate
You may have a different pressing from the one(s) in the database

No errors occurred

End of status report

–– CUETools DB Plugin V2.1.6

[CTDB TOCID: wBH91YtncTW2uMvOeMARg2aahDM-] found
Submit result: wBH91YtncTW2uMvOeMARg2aahDM- has been confirmed
Track | CTDB Status
1 | (9/9) Accurately ripped
2 | (9/9) Accurately ripped
3 | (9/9) Accurately ripped
4 | (9/9) Accurately ripped
5 | (9/9) Accurately ripped
6 | (9/9) Accurately ripped
7 | (9/9) Accurately ripped
8 | (9/9) Accurately ripped
9 | (9/9) Accurately ripped
10 | (9/9) Accurately ripped
11 | (9/9) Accurately ripped
12 | (9/9) Accurately ripped
13 | (9/9) Accurately ripped
14 | (9/9) Accurately ripped
15 | (9/9) Accurately ripped
16 | (9/9) Accurately ripped
17 | (9/9) Accurately ripped
18 | (9/9) Accurately ripped
19 | (9/9) Accurately ripped
20 | (9/9) Accurately ripped
21 | (9/9) Accurately ripped
22 | (9/9) Accurately ripped
23 | (9/9) Accurately ripped
24 | (9/9) Accurately ripped
25 | (9/9) Accurately ripped
26 | (9/9) Accurately ripped
27 | (9/9) Accurately ripped
28 | (9/9) Accurately ripped
29 | (9/9) Accurately ripped
30 | (9/9) Accurately ripped
31 | (9/9) Accurately ripped
32 | (9/9) Accurately ripped
33 | (9/9) Accurately ripped
34 | (9/9) Accurately ripped
35 | (9/9) Accurately ripped
36 | (9/9) Accurately ripped


==== Log checksum 0091E46980A1C3F43FD72986BDE546CACA995D760E17321F499461F1CFD9FD3B ====

foobar2000 1.2 / Dynamic Range Meter 1.1.1
log date: 2016-08-12 20:38:29

––––––––––––––––––––––––––––––––––––––––
Analyzed: Ibert, Jacques / Piano Music - Hae-won Chang (piano)
––––––––––––––––––––––––––––––––––––––––

DR Peak RMS Duration Track
––––––––––––––––––––––––––––––––––––––––
DR13 -1.30 dB -21.28 dB 2:50 01-Scherzetto
DR13 -0.95 dB -20.20 dB 5:55 02-Pièce romantique
DR11 -6.57 dB -21.38 dB 1:00 03-Toccata sur le nom d'Albert Roussel
DR12 -6.63 dB -24.13 dB 1:00 04-L'espiègle au village de Lilliput
DR13 -2.01 dB -21.23 dB 2:37 05-Française: 'Guitarre' pour le piano
DR14 -1.25 dB -21.71 dB 2:58 06-Le vent dans les ruines
DR12 -17.02 dB -33.52 dB 1:46 07-Petite suite - Prélude
DR10 -10.71 dB -24.08 dB 0:43 08-Petite suite - Ronde
DR10 -5.18 dB -21.42 dB 0:49 09-Petite suite - Le gai vigneron
DR13 -17.18 dB -33.85 dB 1:45 10-Petite suite - Berceuse aux étoiles
DR12 -10.90 dB -27.24 dB 0:58 11-Le cavalier Sans-Souci
DR13 -6.93 dB -26.28 dB 1:19 12-Petite suite - Parade
DR10 -7.67 dB -23.06 dB 0:59 13-Petite suite - La promenade en traîneau
DR11 -11.50 dB -27.71 dB 1:17 14-Petite suite - Romance
DR12 -1.76 dB -19.46 dB 0:37 15-Petite suite - Quadrille
DR10 -10.66 dB -26.98 dB 1:06 16-Petite suite - Sérénade sur l'eau
DR10 -11.54 dB -26.03 dB 0:34 17-Petite suite - La machine à coudre
DR13 -14.70 dB -32.78 dB 2:09 18-Petite suite - L'Adieu
DR10 -8.44 dB -24.55 dB 0:58 19-Petite suite - Les crocus
DR11 -7.20 dB -23.82 dB 0:45 20-Petite suite - Premier bal
DR11 -0.32 dB -17.43 dB 0:39 21-Petite suite - Danse du cocher
DR14 -8.68 dB -30.07 dB 3:41 22-Histoires - La meneuse de tortues d'or
DR13 -3.38 dB -23.97 dB 2:03 23-Histoires - Le petit âne blanc
DR13 -16.33 dB -34.42 dB 3:03 24-Histoires - Le vieux mendiant
DR12 -7.96 dB -24.29 dB 1:24 25-Histoires - A giddy girl
DR13 -14.89 dB -35.62 dB 1:51 26-Histoires - Dans la maison triste
DR15 -14.47 dB -33.21 dB 2:08 27-Histoires - Le palais abandonné
DR15 -1.71 dB -22.24 dB 2:03 28-Histoires - Bajo la mesa
DR13 -9.06 dB -27.41 dB 1:26 29-Histoires - La cage de cristal
DR15 -2.17 dB -22.52 dB 2:10 30-Histoires - La marchande d'eau fraîche
DR12 -8.78 dB -26.54 dB 2:01 31-Histoires - Le cortège de Balkis
DR13 -4.11 dB -23.52 dB 3:08 32-Les rencontres - Les bouquetières
DR14 -7.89 dB -27.45 dB 4:04 33-Les rencontres - Les créoles
DR12 -2.65 dB -21.62 dB 3:01 34-Les rencontres - Les mignardes
DR15 -7.76 dB -29.22 dB 3:39 35-Les rencontres - Les bergères
DR13 -0.47 dB -17.85 dB 2:18 36-Les rencontres - Les bavardes
––––––––––––––––––––––––––––––––––––––––

Number of tracks: 36
Official DR value: DR12

Samplerate: 44100 Hz
Channels: 2
Bits per sample: 16
Bitrate: 498 kbps
Codec: FLAC
================================================================================

Hae-won Chang - Jacques Ibert: Complete Piano Music (1992) Reissue 2000

Hae-won Chang - Jacques Ibert: Complete Piano Music (1992) Reissue 2000

All thanks to original releaser - quivive

More interesting music in My Blog