Tags
Language
Tags

Hans-Christoph Rademann, Berlin RIAS Chamber Choir, Akademie für Alte Musik Berlin - Felix Mendelssohn: Elias (2016)

Posted By: ArlegZ
Hans-Christoph Rademann, Berlin RIAS Chamber Choir, Akademie für Alte Musik Berlin - Felix Mendelssohn: Elias (2016)

Hans-Christoph Rademann, Berlin RIAS Chamber Choir, Akademie für Alte Musik Berlin - Felix Mendelssohn: Elias (2016)
EAC | FLAC | Image (Cue & Log) ~ 541 Mb | Total time: 126:07 | Scans included
Classical | Label: Accentus Music | # ACC-30356 | Recorded: 2015

"Never was there a more complete triumph - never a more thorough and speedy recognition of a great work of art." This was the response of the critic in the London Times to the wildly successful premiere of Felix Mendelssohn's Elias in 1846. Hans-Christoph Rademann began his tenure as Principal Conductor of the RIAS Chamber Choir with this groundbreaking oratorio. After eight productive and successful years, his final concert in July 2015 also featured the work.
It was a "Farewell Performance with Furor" (Der Tagesspiegel), not least because of the impressive performers involved: the RIAS Chamber Choir, the Akademie for Alte Musik Berlin, and the soloists Marlis Petersen, Lioba Braun, Maximilian Schmitt, and Thomas Oliemans.
Hans-Christoph Rademann is one of the world's most sought after choral conductors, a specialist in the sound of choral ensembles. From 2007 to 2015, he expanded the reputation and repertoire of the RIAS Chamber Choir, helping the group to achieve a remarkable spiritual and emotional identification with the subject matter of the works it performed. Rademann has said, "I want us to not only be involved with perfect singing, but to embody a certain attitude and convey a message that will touch listeners all over the world."

Performer:
Marlis Petersen, soprano
Lioba Braun, mezzo-soprano
Maximilian Schmitt, tenor
Thomas Oliemans, baritone
Berlin RIAS Chamber Choir
Akademie für Alte Musik Berlin
Hans-Christoph Rademann, conductor

Track List:
CD1:
Elias Op. 70, MWV A25
01. Einleitung: So wahr der Herr, der Gott Israels, lebet: Grave
02. Ouvertüre: Moderato
03. 1. Coro: Hilf, Herr! Willst du uns denn gar vertilgen?: Andante lento
04. 2. Duetto con Coro: Herr, höre unser Gebet: Sostenuto ma non troppo
05. 3. Recitativo: Zerreißet eure Herzen
06. 4. Aria: So ihr mich von ganzem Herzen suchet: Andante con moto
07. 5. Coro: Aber der Herr sieht es nicht: Allegro vivace - Grave
08. 6. Recitativo: Elias! Gehe weg von hinnen
09. 7. Doppelquartett: Denn er hat seinen Engeln befohlen über dir: Allegro non troppo
10. 8. Recitativo, Aria e Duetto: Was hast du an mir getan: Andante agitato - Andante sostenuto - Andante con moto
11. 9. Coro: Wohl dem, der den Herrn fürchtet: Allegro moderato
12. 10. Recitativo con Coro: So wahr der Herr Zebaoth leber: Grave - Allegro vivace
13. 11. Coro: Baal, erhöre uns!: Andante grave e maestoso - Allegro non troppo
14. 12. Recitativo e Coro: Rufet lauter!: Allegro
15. 13. Recitativo e Coro: Rufet lauter! Er hört euch nicht: Allegro molto - Presto
16. 14. Aria: Herr, Gott Abrahams: Adagio
17. 15. Quartetto: Wirf dein Anliegen auf den Herrn: Più Adagio
18. 16. Recitativo con Coro: Der du deine Diener machst zu Geistern: Allegro con fuoco
19. 17. Aria: Ist nicht des Herrn Wort wie ein Feuer: Allegro con fuoco e marcato
20. 18. Arioso: Weh' ihnen, dass sie von mir weichen!: Lento
21. 19. Recitativo con Coro: Hilf deinem Volk, du Mann Gottes!: Andante sostenuto
22. 20. Coro: Dank sei dir Gott: Allegro moderato ma con fuoco
CD2:
01. 21. Aria: Höre, Israel, höre des Herrn Stimme!: Adagio - Allegro maestoso
02. 22. Coro: Fürchte dich nicht, spricht unser Gott: Allegro maestoso ma moderato
03. 23. Recitato con Coro: Der Herr hat dich erhoben: Andante - a tempo Allegro moderato
04. 24. Coro: Wehe ihm! Er muß sterben!: Allegro moderato
05. 25. Recitativo: Du Mann Gottes, lass meine Rede
06. 26. Aria: Es ist genug!: Adagio - Molto Allegro vivace - Adagio
07. 27. Recitativo: Siehe, er schläft unter dem Wacholder
08. 28. Terzetto: Hebe deine Augen auf: Andante con moto
09. 29. Coro: Siehe, der Hüter Israels: Allegro moderato
10. 30. Recitativo: Stehe auf, Elias
11. 31. Aria: Sei stille dem Herrn: Andantino
12. 32. Coro: Wer bis an des Ende beharrt: Andante sostenuto
13. 33. Recitativo: Herr, es wird Nacht um mich
14. 34. Coro: Der Herr ging vorüber: Allegro molto
15. 35. Recitativo: Seraphim standen über ihm: Quartetto con Coro: Heilig, heilig, heilig ist Gott der Herr: Adagio non troppo
16. 35. Coro-Recitativo: Gehe wiederum hinab!: a tempo Adagio non troppo
17. 37. Arioso: Ja, es sollen wohl Berge weichen: Andante sostenuto
18. 38. Coro: Und der Prophet Elias brach hervor: Moderato maestoso
19. 39. Aria: Dann werden die Gerechten leuchten: Andante
20. 40. Recitativo: Darum ward gesendet der Prophet Elias: Andante sostenuto
21. 41. Coro: Aber einer erwacht von Mitternacht: Andante con moto
22. Quatetto: Wohlan, elle die ihr durstig seid: Andante sostenuto
23. 42. Coro: Alsdann wird euer Licht hervorbrechen: Andante maestoso - Allegro. Doppio movimento


Exact Audio Copy V1.3 from 2. September 2016

EAC extraction logfile from 7. January 2020, 8:13

Hans-Christoph Rademann / Mendelssohn - Elias CD1

Used drive : HL-DT-STBD-RE WH16NS40 Adapter: 1 ID: 0

Read mode : Secure
Utilize accurate stream : Yes
Defeat audio cache : Yes
Make use of C2 pointers : No

Read offset correction : 6
Overread into Lead-In and Lead-Out : No
Fill up missing offset samples with silence : Yes
Delete leading and trailing silent blocks : No
Null samples used in CRC calculations : Yes
Used interface : Native Win32 interface for Win NT & 2000

Used output format : User Defined Encoder
Selected bitrate : 1024 kBit/s
Quality : High
Add ID3 tag : No
Command line compressor : C:\Program Files (x86)\Exact Audio Copy\FLAC\FLAC.EXE
Additional command line options : -6 -V -T "ARTIST=%artist%" -T "TITLE=%title%" -T "ALBUM=%albumtitle%" -T "DATE=%year%" -T "TRACKNUMBER=%tracknr%" -T "GENRE=%genre%" -T "COMMENT=%comment%" -T "BAND=%albuminterpret%" -T "ALBUMARTIST=%albuminterpret%" -T "COMPOSER=%composer%" %haslyrics%–tag-from-file=LYRICS="%lyricsfile%"%haslyrics% -T "DISCNUMBER=%cdnumber%" -T "TOTALDISCS=%totalcds%" -T "TOTALTRACKS=%numtracks%" %hascover%–picture="%coverfile%"%hascover% %source% -o %dest%


TOC of the extracted CD

Track | Start | Length | Start sector | End sector
––––––––––––––––––––––––––––-
1 | 0:00.00 | 0:55.66 | 0 | 4190
2 | 0:55.66 | 3:25.55 | 4191 | 19620
3 | 4:21.46 | 4:23.23 | 19621 | 39368
4 | 8:44.69 | 1:56.06 | 39369 | 48074
5 | 10:41.00 | 0:47.66 | 48075 | 51665
6 | 11:28.66 | 2:30.46 | 51666 | 62961
7 | 13:59.37 | 4:07.43 | 62962 | 81529
8 | 18:07.05 | 0:52.27 | 81530 | 85456
9 | 18:59.32 | 4:06.04 | 85457 | 103910
10 | 23:05.36 | 6:08.21 | 103911 | 131531
11 | 29:13.57 | 2:59.06 | 131532 | 144962
12 | 32:12.63 | 3:41.01 | 144963 | 161538
13 | 35:53.64 | 2:59.20 | 161539 | 174983
14 | 38:53.09 | 0:56.18 | 174984 | 179201
15 | 39:49.27 | 1:52.54 | 179202 | 187655
16 | 41:42.06 | 3:15.01 | 187656 | 202281
17 | 44:57.07 | 1:43.37 | 202282 | 210043
18 | 46:40.44 | 2:46.08 | 210044 | 222501
19 | 49:26.52 | 2:02.16 | 222502 | 231667
20 | 51:28.68 | 2:43.47 | 231668 | 243939
21 | 54:12.40 | 5:22.07 | 243940 | 268096
22 | 59:34.47 | 3:38.34 | 268097 | 284480


Range status and errors

Selected range

Filename C:\Users\Grant\Desktop\Hans-Christoph Rademann - Mendelssohn - Elias CD1.wav

Peak level 95.4 %
Extraction speed 8.0 X
Range quality 99.9 %
Test CRC A9BE90B7
Copy CRC A9BE90B7
Copy OK

No errors occurred


AccurateRip summary

Track 1 accurately ripped (confidence 7) [8DAC5C21] (AR v2)
Track 2 accurately ripped (confidence 7) [A7BB6787] (AR v2)
Track 3 accurately ripped (confidence 7) [9F671EE3] (AR v2)
Track 4 accurately ripped (confidence 7) [4F0ADABA] (AR v2)
Track 5 accurately ripped (confidence 7) [CB513DB5] (AR v2)
Track 6 accurately ripped (confidence 7) [8CF8A9FF] (AR v2)
Track 7 accurately ripped (confidence 7) [64979CC9] (AR v2)
Track 8 accurately ripped (confidence 7) [3066932C] (AR v2)
Track 9 accurately ripped (confidence 7) [1C93A3D4] (AR v2)
Track 10 accurately ripped (confidence 7) [FA5F412A] (AR v2)
Track 11 accurately ripped (confidence 7) [4402B5DF] (AR v2)
Track 12 accurately ripped (confidence 7) [92811B48] (AR v2)
Track 13 accurately ripped (confidence 7) [5D6F6BEF] (AR v2)
Track 14 accurately ripped (confidence 7) [8A000A7C] (AR v2)
Track 15 accurately ripped (confidence 7) [6B79AD0B] (AR v2)
Track 16 accurately ripped (confidence 7) [7E117D34] (AR v2)
Track 17 accurately ripped (confidence 7) [1085EF6E] (AR v2)
Track 18 accurately ripped (confidence 7) [15AA450E] (AR v2)
Track 19 accurately ripped (confidence 7) [3EB8DF4E] (AR v2)
Track 20 accurately ripped (confidence 7) [2A4F622A] (AR v2)
Track 21 accurately ripped (confidence 7) [D61E4342] (AR v2)
Track 22 accurately ripped (confidence 7) [12638AA3] (AR v2)

All tracks accurately ripped

End of status report

–– CUETools DB Plugin V2.1.6

[CTDB TOCID: C5xbNIkEG.0KsKcuiB.nqmotKyE-] found
Submit result: C5xbNIkEG.0KsKcuiB.nqmotKyE- has been confirmed
Track | CTDB Status
1 | (30/30) Accurately ripped
2 | (30/30) Accurately ripped
3 | (30/30) Accurately ripped
4 | (30/30) Accurately ripped
5 | (30/30) Accurately ripped
6 | (30/30) Accurately ripped
7 | (30/30) Accurately ripped
8 | (30/30) Accurately ripped
9 | (30/30) Accurately ripped
10 | (30/30) Accurately ripped
11 | (30/30) Accurately ripped
12 | (30/30) Accurately ripped
13 | (30/30) Accurately ripped
14 | (30/30) Accurately ripped
15 | (30/30) Accurately ripped
16 | (30/30) Accurately ripped
17 | (30/30) Accurately ripped
18 | (30/30) Accurately ripped
19 | (30/30) Accurately ripped
20 | (30/30) Accurately ripped
21 | (30/30) Accurately ripped
22 | (30/30) Accurately ripped


==== Log checksum 7EB71B2E6CB7D2E6B5A9F1409AFA2A3DEE76F4984D15C5FD36ED97716FFF4A30 ====


Exact Audio Copy V1.3 from 2. September 2016

EAC extraction logfile from 7. January 2020, 8:32

Mendelssohn / Mendelssohn - Elias CD2

Used drive : HL-DT-STBD-RE WH16NS40 Adapter: 1 ID: 0

Read mode : Secure
Utilize accurate stream : Yes
Defeat audio cache : Yes
Make use of C2 pointers : No

Read offset correction : 6
Overread into Lead-In and Lead-Out : No
Fill up missing offset samples with silence : Yes
Delete leading and trailing silent blocks : No
Null samples used in CRC calculations : Yes
Used interface : Native Win32 interface for Win NT & 2000

Used output format : User Defined Encoder
Selected bitrate : 1024 kBit/s
Quality : High
Add ID3 tag : No
Command line compressor : C:\Program Files (x86)\Exact Audio Copy\FLAC\FLAC.EXE
Additional command line options : -6 -V -T "ARTIST=%artist%" -T "TITLE=%title%" -T "ALBUM=%albumtitle%" -T "DATE=%year%" -T "TRACKNUMBER=%tracknr%" -T "GENRE=%genre%" -T "COMMENT=%comment%" -T "BAND=%albuminterpret%" -T "ALBUMARTIST=%albuminterpret%" -T "COMPOSER=%composer%" %haslyrics%–tag-from-file=LYRICS="%lyricsfile%"%haslyrics% -T "DISCNUMBER=%cdnumber%" -T "TOTALDISCS=%totalcds%" -T "TOTALTRACKS=%numtracks%" %hascover%–picture="%coverfile%"%hascover% %source% -o %dest%


TOC of the extracted CD

Track | Start | Length | Start sector | End sector
––––––––––––––––––––––––––––-
1 | 0:00.00 | 5:06.26 | 0 | 22975
2 | 5:06.26 | 4:00.35 | 22976 | 41010
3 | 9:06.61 | 3:40.02 | 41011 | 57512
4 | 12:46.63 | 1:47.16 | 57513 | 65553
5 | 14:34.04 | 2:15.54 | 65554 | 75732
6 | 16:49.58 | 4:59.36 | 75733 | 98193
7 | 21:49.19 | 0:45.61 | 98194 | 101629
8 | 22:35.05 | 1:39.45 | 101630 | 109099
9 | 24:14.50 | 3:05.47 | 109100 | 123021
10 | 27:20.22 | 1:53.50 | 123022 | 131546
11 | 29:13.72 | 3:05.31 | 131547 | 145452
12 | 32:19.28 | 2:07.26 | 145453 | 155003
13 | 34:26.54 | 1:47.04 | 155004 | 163032
14 | 36:13.58 | 4:05.33 | 163033 | 181440
15 | 40:19.16 | 2:54.53 | 181441 | 194543
16 | 43:13.69 | 1:23.09 | 194544 | 200777
17 | 44:37.03 | 2:31.19 | 200778 | 212121
18 | 47:08.22 | 2:38.00 | 212122 | 223971
19 | 49:46.22 | 2:28.55 | 223972 | 235126
20 | 52:15.02 | 1:02.74 | 235127 | 239850
21 | 53:18.01 | 3:16.24 | 239851 | 254574
22 | 56:34.25 | 3:18.63 | 254575 | 269487
23 | 59:53.13 | 2:56.15 | 269488 | 282702


Range status and errors

Selected range

Filename C:\Users\Grant\Desktop\Mendelssohn - Mendelssohn - Elias CD2.wav

Peak level 95.6 %
Extraction speed 8.0 X
Range quality 100.0 %
Test CRC CA0258A0
Copy CRC CA0258A0
Copy OK

No errors occurred


AccurateRip summary

Track 1 accurately ripped (confidence 7) [0C8B7F09] (AR v2)
Track 2 accurately ripped (confidence 7) [CD42CBCD] (AR v2)
Track 3 accurately ripped (confidence 7) [1A13A84E] (AR v2)
Track 4 accurately ripped (confidence 7) [BB014A91] (AR v2)
Track 5 accurately ripped (confidence 7) [16ED87C7] (AR v2)
Track 6 accurately ripped (confidence 7) [D62C8130] (AR v2)
Track 7 accurately ripped (confidence 7) [D86BE297] (AR v2)
Track 8 accurately ripped (confidence 7) [D62D57BC] (AR v2)
Track 9 accurately ripped (confidence 7) [49A068EA] (AR v2)
Track 10 accurately ripped (confidence 7) [8AFAB5CE] (AR v2)
Track 11 accurately ripped (confidence 7) [0E522530] (AR v2)
Track 12 accurately ripped (confidence 7) [65EFEA74] (AR v2)
Track 13 accurately ripped (confidence 7) [E7362179] (AR v2)
Track 14 accurately ripped (confidence 7) [C309EE88] (AR v2)
Track 15 accurately ripped (confidence 7) [F5EC81A4] (AR v2)
Track 16 accurately ripped (confidence 7) [FB7CA81C] (AR v2)
Track 17 accurately ripped (confidence 7) [B77AFB68] (AR v2)
Track 18 accurately ripped (confidence 7) [15C078B8] (AR v2)
Track 19 accurately ripped (confidence 7) [B045DC04] (AR v2)
Track 20 accurately ripped (confidence 7) [41C84D02] (AR v2)
Track 21 accurately ripped (confidence 7) [5E8E71A7] (AR v2)
Track 22 accurately ripped (confidence 7) [B0493B09] (AR v2)
Track 23 accurately ripped (confidence 6) [E5E9007D] (AR v2)

All tracks accurately ripped

End of status report

–– CUETools DB Plugin V2.1.6

[CTDB TOCID: JeAalSh8glfOy9gjFViwbwVHlng-] found
Submit result: JeAalSh8glfOy9gjFViwbwVHlng- has been confirmed
Track | CTDB Status
1 | (31/31) Accurately ripped
2 | (31/31) Accurately ripped
3 | (31/31) Accurately ripped
4 | (31/31) Accurately ripped
5 | (31/31) Accurately ripped
6 | (31/31) Accurately ripped
7 | (31/31) Accurately ripped
8 | (31/31) Accurately ripped
9 | (31/31) Accurately ripped
10 | (31/31) Accurately ripped
11 | (31/31) Accurately ripped
12 | (31/31) Accurately ripped
13 | (31/31) Accurately ripped
14 | (31/31) Accurately ripped
15 | (31/31) Accurately ripped
16 | (31/31) Accurately ripped
17 | (31/31) Accurately ripped
18 | (31/31) Accurately ripped
19 | (31/31) Accurately ripped
20 | (31/31) Accurately ripped
21 | (31/31) Accurately ripped
22 | (31/31) Accurately ripped
23 | (30/31) Accurately ripped


==== Log checksum E62C71087197895561A509BE0AE80FF36F2ABC5E573482C0B09C223D2F8A0182 ====

Hans-Christoph Rademann, Berlin RIAS Chamber Choir, Akademie für Alte Musik Berlin - Felix Mendelssohn: Elias (2016)

Thanks to the original releaser