Subcategories

Haruomi Hosono - N.D.E. (1995)

Posted By: gribovar
Haruomi Hosono - N.D.E. (1995)

Haruomi Hosono - N.D.E. (1995)
EAC Rip | FLAC (image+.cue+log) - 309 MB | MP3 CBR 320 kbps (LAME 3.93) - 147 MB | Covers (12 MB) included
Genre: Electronic, Ambient | RAR 3% Rec. | Label: Studio Garage, Inc./Antilles (314 528 038-2), 1996

Like his fellow Yellow Magic Orchestra alumnus Ryuichi Sakamoto, keyboardist and programmer Haruomi Hosono has a taste for exotic experimentation. But the similarities pretty much end there. Sakamoto's solo work runs to a sort of light contemporary classical music, and his collaborations have tended to be with pop musicians. On N.D.E., Hosono teams up with a host of sidemen both famous (bassist Bill Laswell) and obscure (saxophonist Yasuaki Shimizu, violinist Arun Bagal) to create a beautiful, funky, and yet strangely creepy collage of electronic beats, modal melodies, and exotic samples. Not surprisingly, Laswell's is the strongest presence here - on "Navigations" he pretty much takes over with his trademark punchy basslines and samples of North African ululations, while the textures and drones of "Edge of the End" recall his own Hear No Evil album of a few years earlier. Another strong voice here is that of Bagal, whose keening modal violin make "Strange Attractor" and "Aero" two of the most compelling items on this album.
Tracklist:
01. Spinning Spirits
02. Navigations
03. Teaching Of Sphinx
04. Strange Attractor
05. Heliotherapy
06. Higher Flyer
07. Edge Of The End
08. Aero

Total time: 57:20

Exact Audio Copy V0.99 prebeta 5 from 4. May 2009

EAC extraction logfile from 2. October 2010, 14:32

Haruomi Hosono / N.D.E.

Used drive : PIONEER DVD-RW DVR-111 Adapter: 2 ID: 0

Read mode : Secure
Utilize accurate stream : Yes
Defeat audio cache : Yes
Make use of C2 pointers : No

Read offset correction : 48
Overread into Lead-In and Lead-Out : No
Fill up missing offset samples with silence : Yes
Delete leading and trailing silent blocks : No
Null samples used in CRC calculations : Yes
Used interface : Installed external ASPI interface

Used output format : User Defined Encoder
Selected bitrate : 1024 kBit/s
Quality : High
Add ID3 tag : No
Command line compressor : C:\Program Files\Exact Audio Copy\FLAC\FLAC.EXE
Additional command line options : -8 -V -T "ARTIST=%a" -T "ALBUM=%g" -T "DATE=%y" -T "GENRE=%m" %s -o %d


TOC of the extracted CD

Track | Start | Length | Start sector | End sector
––––––––––––––––––––––––––––-
1 | 0:00.00 | 6:01.37 | 0 | 27111
2 | 6:01.37 | 9:28.45 | 27112 | 69756
3 | 15:30.07 | 6:28.08 | 69757 | 98864
4 | 21:58.15 | 9:48.52 | 98865 | 143016
5 | 31:46.67 | 4:23.08 | 143017 | 162749
6 | 36:10.00 | 6:01.37 | 162750 | 189861
7 | 42:11.37 | 8:37.58 | 189862 | 228694
8 | 50:49.20 | 6:31.17 | 228695 | 258036


Range status and errors

Selected range

Filename J:\temp\nnm\Haruomi Hosono - N D E.wav

Peak level 100.0 %
Range quality 99.9 %
Test CRC F42EBCD8
Copy CRC F42EBCD8
Copy OK

No errors occurred


AccurateRip summary

Track 1 not present in database
Track 2 not present in database
Track 3 not present in database
Track 4 not present in database
Track 5 not present in database
Track 6 not present in database
Track 7 not present in database
Track 8 not present in database

None of the tracks are present in the AccurateRip database

End of status report

[CUETools log; Date: 05.09.2017 9:20:40; Version: 2.1.4]
[CTDB TOCID: 6.ZqYpm2z1wzTxPVT9vE80AMMVo-] found.
Track | CTDB Status
1 | (4/4) Accurately ripped
2 | (4/4) Accurately ripped
3 | (4/4) Accurately ripped
4 | (4/4) Accurately ripped
5 | (4/4) Accurately ripped
6 | (4/4) Accurately ripped
7 | (4/4) Accurately ripped
8 | (4/4) Accurately ripped
[AccurateRip ID: 0011f9ef-00777fac-560d7008] found.
Track [ CRC | V2 ] Status
01 [4213e1a7|3474dc28] (2+2/4) Accurately ripped
02 [63ee034d|7fcc0855] (2+2/4) Accurately ripped
03 [f0bf522c|ee7381b3] (2+2/4) Accurately ripped
04 [65bd8c82|de02b190] (2+2/4) Accurately ripped
05 [b5b4baf3|db824d1e] (2+2/4) Accurately ripped
06 [a6ade3bc|29a5fe5b] (2+2/4) Accurately ripped
07 [00b4a15a|0525c196] (2+2/4) Accurately ripped
08 [54e6c86a|778d0ab8] (2+2/4) Accurately ripped

Track Peak [ CRC32 ] [W/O NULL] [ LOG ]
– 100,0 [F42EBCD8] [B75BDA59] CRC32
01 100,0 [306753C1] [2AC2DA1D]
02 100,0 [C5D31FEC] [E0055A4C]
03 100,0 [003A3E49] [4261EA3E]
04 100,0 [3107545C] [5CF845A9]
05 100,0 [15537FAD] [CF95D5E6]
06 100,0 [8DC10E1A] [C0319F7D]
07 100,0 [B39EBD70] [CC00F688]
08 100,0 [B3180778] [0E5752F4]

Thanks to _ok