Subcategories

Heart: Singles, EPs & Promo Collection (1987 - 2012)

Posted By: v3122
Heart: Singles, EPs & Promo Collection (1987 - 2012)

Heart: Singles, EPs & Promo Collection (1987 - 2012)
EAC | Flac(Image) + Cue + Log & MP3 CBR 320Kbps
18CD | Label: Various | ~ 1692 or 540 Mb | Artwork(jpg) -> 166 Mb
Hard Rock, Pop Rock, Arena Rock, Classic Rock

Rock group that was started in Seattle, in 1967, as "The Army" by bassist Steve Fossen, along with Roger Fisher on guitar, Don Wilhelm on guitar, keyboards and lead vocals, and Ray Schaefer on drums.

Changed name to White Heart, then to Hocus Pocus shortly before Ann Wilson's joining in 1970, then finally to Heart in 1972. Nancy Wilson joined after sitting in and auditioning in 1974.

Members: Ann Wilson, Nancy Wilson, Craig Bartock, Dan Rothchild, Chris Joyner, Ben Smith

~ discogs
Heart: Singles, EPs & Promo Collection (1987 - 2012)

Heart: Singles, EPs & Promo Collection (1987 - 2012):

Heart: Singles, EPs & Promo Collection (1987 - 2012)

Tracklist CD1. 1987 - There's The Girl (Capitol, CDCL 473, England):

1. There's The Girl (12" Remix)
2. Alone
3. Bad Animals
4. There's The Girl (7" Remix)

Exact Audio Copy V1.1 from 23. June 2015

EAC extraction logfile from 23. May 2017, 22:56

Heart / There's The Girl (EP)

Used drive : ASUS DRW-24B1ST Adapter: 1 ID: 1

Read mode : Secure
Utilize accurate stream : Yes
Defeat audio cache : Yes
Make use of C2 pointers : No

Read offset correction : 6
Overread into Lead-In and Lead-Out : No
Fill up missing offset samples with silence : Yes
Delete leading and trailing silent blocks : No
Null samples used in CRC calculations : Yes
Used interface : Native Win32 interface for Win NT & 2000

Used output format : User Defined Encoder
Selected bitrate : 1024 kBit/s
Quality : High
Add ID3 tag : No
Command line compressor : C:\Program Files (x86)\Exact Audio Copy\Flac\flac.exe
Additional command line options : -V -8 -T "Genre=%genre%" -T "Artist=%artist%" -T "Title=%title%" -T "Album=%albumtitle%" -T "Date=%year%" -T "Tracknumber=%tracknr%" -T "Comment=%comment%" %source%


TOC of the extracted CD

Track | Start | Length | Start sector | End sector
––––––––––––––––––––––––––––-
1 | 0:00.33 | 7:22.07 | 33 | 33189
2 | 7:22.40 | 3:40.60 | 33190 | 49749
3 | 11:03.25 | 4:53.13 | 49750 | 71737
4 | 15:56.38 | 3:43.52 | 71738 | 88514


Range status and errors

Selected range

Filename E:\Torrent\# MY\# Подготовка раздач\Heart\1987 - There's The Girl (EP)\Heart - There's The Girl (EP).wav

Peak level 100.0 %
Extraction speed 2.3 X
Range quality 100.0 %
Test CRC AD0A5303
Copy CRC AD0A5303
Copy OK

No errors occurred


AccurateRip summary

Track 1 accurately ripped (confidence 5) [097A358A] (AR v2)
Track 2 accurately ripped (confidence 4) [2F48C847] (AR v2)
Track 3 accurately ripped (confidence 4) [B5A6D016] (AR v2)
Track 4 accurately ripped (confidence 5) [93AB6512] (AR v2)

All tracks accurately ripped

End of status report

–– CUETools DB Plugin V2.1.6

[CTDB TOCID: NBazVoXKSEED9bWukDhekQATRe0-] found
Submit result: already submitted
Track | CTDB Status
1 | (5/5) Accurately ripped
2 | (5/5) Accurately ripped
3 | (5/5) Accurately ripped
4 | (5/5) Accurately ripped


==== Log checksum 6D732DC316674BCD0FC7161951F410A193AD3A26D08265321F0FE27F07F711C4 ====


Heart: Singles, EPs & Promo Collection (1987 - 2012)

Tracklist CD2. 1987 - Who Will You Run To (Capitol, CDCL 457, England):

1. Who Will You Run To (Rock mix)
2. These Dreams
3. Nobody Home
4. Who Will You Run To (Single version)

Exact Audio Copy V1.1 from 23. June 2015

EAC extraction logfile from 23. May 2017, 21:17

Heart / Who Will You Run To (EP)

Used drive : ASUS DRW-24B1ST Adapter: 1 ID: 1

Read mode : Secure
Utilize accurate stream : Yes
Defeat audio cache : Yes
Make use of C2 pointers : No

Read offset correction : 6
Overread into Lead-In and Lead-Out : No
Fill up missing offset samples with silence : Yes
Delete leading and trailing silent blocks : No
Null samples used in CRC calculations : Yes
Used interface : Native Win32 interface for Win NT & 2000

Used output format : User Defined Encoder
Selected bitrate : 1024 kBit/s
Quality : High
Add ID3 tag : No
Command line compressor : C:\Program Files (x86)\Exact Audio Copy\Flac\flac.exe
Additional command line options : -V -8 -T "Genre=%genre%" -T "Artist=%artist%" -T "Title=%title%" -T "Album=%albumtitle%" -T "Date=%year%" -T "Tracknumber=%tracknr%" -T "Comment=%comment%" %source%


TOC of the extracted CD

Track | Start | Length | Start sector | End sector
––––––––––––––––––––––––––––-
1 | 0:00.72 | 5:10.65 | 72 | 23386
2 | 5:11.62 | 4:15.35 | 23387 | 42546
3 | 9:27.22 | 4:08.20 | 42547 | 61166
4 | 13:35.42 | 3:48.13 | 61167 | 78279


Range status and errors

Selected range

Filename E:\Torrent\# MY\# Подготовка раздач\Heart\1987 - Who Will You Run To (EP)\Heart - Who Will You Run To (EP).wav

Peak level 93.5 %
Extraction speed 2.4 X
Range quality 100.0 %
Test CRC F4A22DB8
Copy CRC F4A22DB8
Copy OK

No errors occurred


AccurateRip summary

Track 1 accurately ripped (confidence 2) [E3D3626D] (AR v2)
Track 2 accurately ripped (confidence 2) [ACC3FCE2] (AR v2)
Track 3 accurately ripped (confidence 2) [320622D6] (AR v2)
Track 4 accurately ripped (confidence 2) [FBF33B7C] (AR v2)

All tracks accurately ripped

End of status report

–– CUETools DB Plugin V2.1.6

[CTDB TOCID: 6n6mwD7ixums97RZLd57YLBiLXc-] found
Submit result: 6n6mwD7ixums97RZLd57YLBiLXc- has been confirmed
Track | CTDB Status
1 | (5/5) Accurately ripped
2 | (5/5) Accurately ripped
3 | (5/5) Accurately ripped
4 | (5/5) Accurately ripped


==== Log checksum C40DDFF918B826C537CA8922EA6E73DB2E37AD95EC8C3BD85507237F3A24D55C ====


Heart: Singles, EPs & Promo Collection (1987 - 2012)

Tracklist CD3. 1988 - Never / These Dreams (Capitol, CDCL 482, England):

1. Never (Extended remix)
2. These Dreams (7" version)
3. Heart Of Darkness
4. If Looks Could Kill (Live)

Exact Audio Copy V1.1 from 23. June 2015

EAC extraction logfile from 23. May 2017, 22:03

Heart / Never / These Dreams (EP)

Used drive : ASUS DRW-24B1ST Adapter: 1 ID: 1

Read mode : Secure
Utilize accurate stream : Yes
Defeat audio cache : Yes
Make use of C2 pointers : No

Read offset correction : 6
Overread into Lead-In and Lead-Out : No
Fill up missing offset samples with silence : Yes
Delete leading and trailing silent blocks : No
Null samples used in CRC calculations : Yes
Used interface : Native Win32 interface for Win NT & 2000

Used output format : User Defined Encoder
Selected bitrate : 1024 kBit/s
Quality : High
Add ID3 tag : No
Command line compressor : C:\Program Files (x86)\Exact Audio Copy\Flac\flac.exe
Additional command line options : -V -8 -T "Genre=%genre%" -T "Artist=%artist%" -T "Title=%title%" -T "Album=%albumtitle%" -T "Date=%year%" -T "Tracknumber=%tracknr%" -T "Comment=%comment%" %source%


TOC of the extracted CD

Track | Start | Length | Start sector | End sector
––––––––––––––––––––––––––––-
1 | 0:00.00 | 5:08.60 | 0 | 23159
2 | 5:08.60 | 3:48.00 | 23160 | 40259
3 | 8:56.60 | 3:38.42 | 40260 | 56651
4 | 12:35.27 | 5:09.60 | 56652 | 79886


Range status and errors

Selected range

Filename E:\Torrent\# MY\# Подготовка раздач\Heart\1988 - Never - These Dreams (EP)\Heart - Never - These Dreams (EP).wav

Peak level 100.0 %
Extraction speed 2.4 X
Range quality 100.0 %
Test CRC 99EC0A46
Copy CRC 99EC0A46
Copy OK

No errors occurred


AccurateRip summary

Track 1 accurately ripped (confidence 6) [5999215F] (AR v2)
Track 2 accurately ripped (confidence 6) [E04C64E4] (AR v2)
Track 3 accurately ripped (confidence 6) [763FEC7A] (AR v2)
Track 4 accurately ripped (confidence 6) [DDB474EB] (AR v2)

All tracks accurately ripped

End of status report

–– CUETools DB Plugin V2.1.6

[CTDB TOCID: hGfqNXbk97tNhgaqD2R6hbZ2dDY-] found
Submit result: hGfqNXbk97tNhgaqD2R6hbZ2dDY- has been confirmed
Track | CTDB Status
1 | (7/7) Accurately ripped
2 | (6/7) Accurately ripped
3 | (7/7) Accurately ripped
4 | (7/7) Accurately ripped


==== Log checksum E3260A0424B204F1E9ACE32580798225AACB28282FA30ECF591E1C27DC44C50B ====


Heart: Singles, EPs & Promo Collection (1987 - 2012)

Tracklist CD4. 1988 - Nothin' At All (Capitol, CDCL 507, England):

1. Nothin' At All (Remix)
2. I've Got The Music In Me
3. I Want You So Bad
4. Nothin' At All (Extended remix)

Exact Audio Copy V1.1 from 23. June 2015

EAC extraction logfile from 23. May 2017, 23:15

Heart / Nothin' At All (EP)

Used drive : ASUS DRW-24B1ST Adapter: 1 ID: 1

Read mode : Secure
Utilize accurate stream : Yes
Defeat audio cache : Yes
Make use of C2 pointers : No

Read offset correction : 6
Overread into Lead-In and Lead-Out : No
Fill up missing offset samples with silence : Yes
Delete leading and trailing silent blocks : No
Null samples used in CRC calculations : Yes
Used interface : Native Win32 interface for Win NT & 2000

Used output format : User Defined Encoder
Selected bitrate : 1024 kBit/s
Quality : High
Add ID3 tag : No
Command line compressor : C:\Program Files (x86)\Exact Audio Copy\Flac\flac.exe
Additional command line options : -V -8 -T "Genre=%genre%" -T "Artist=%artist%" -T "Title=%title%" -T "Album=%albumtitle%" -T "Date=%year%" -T "Tracknumber=%tracknr%" -T "Comment=%comment%" %source%


TOC of the extracted CD

Track | Start | Length | Start sector | End sector
––––––––––––––––––––––––––––-
1 | 0:00.33 | 4:07.45 | 33 | 18602
2 | 4:08.03 | 6:17.57 | 18603 | 46934
3 | 10:25.60 | 4:19.63 | 46935 | 66422
4 | 14:45.48 | 5:08.55 | 66423 | 89577


Range status and errors

Selected range

Filename E:\Torrent\# MY\# Подготовка раздач\Heart\1988 - Nothin' At All (EP)\Heart - Nothin' At All (EP).wav

Peak level 100.0 %
Extraction speed 2.6 X
Range quality 100.0 %
Test CRC 5230B570
Copy CRC 5230B570
Copy OK

No errors occurred


AccurateRip summary

Track 1 accurately ripped (confidence 4) [A04A7921] (AR v2)
Track 2 accurately ripped (confidence 4) [5F5FEAA0] (AR v2)
Track 3 accurately ripped (confidence 4) [BD78EC83] (AR v2)
Track 4 accurately ripped (confidence 4) [62B823D8] (AR v2)

All tracks accurately ripped

End of status report

–– CUETools DB Plugin V2.1.6

[CTDB TOCID: FvndL56R.2gw33HOFSr3Waia_Ng-] found
Submit result: already submitted
Track | CTDB Status
1 | (4/4) Accurately ripped
2 | (4/4) Accurately ripped
3 | (4/4) Accurately ripped
4 | (4/4) Accurately ripped


==== Log checksum 08D534C907FC74B564EAF14B2068E106BD1C77803558AB40105D1D0E0E84A06A ====


Heart: Singles, EPs & Promo Collection (1987 - 2012)

Tracklist CD5. 1988 - What About Love? (Capitol, CDCL 487, England):

1. What About Love? (Extended version)
2. Shell Shock
3. Crazy On You
4. Dreamboat Annie

Exact Audio Copy V1.1 from 23. June 2015

EAC extraction logfile from 23. May 2017, 22:21

Heart / What About Love? (EP)

Used drive : ASUS DRW-24B1ST Adapter: 1 ID: 1

Read mode : Secure
Utilize accurate stream : Yes
Defeat audio cache : Yes
Make use of C2 pointers : No

Read offset correction : 6
Overread into Lead-In and Lead-Out : No
Fill up missing offset samples with silence : Yes
Delete leading and trailing silent blocks : No
Null samples used in CRC calculations : Yes
Used interface : Native Win32 interface for Win NT & 2000

Used output format : User Defined Encoder
Selected bitrate : 1024 kBit/s
Quality : High
Add ID3 tag : No
Command line compressor : C:\Program Files (x86)\Exact Audio Copy\Flac\flac.exe
Additional command line options : -V -8 -T "Genre=%genre%" -T "Artist=%artist%" -T "Title=%title%" -T "Album=%albumtitle%" -T "Date=%year%" -T "Tracknumber=%tracknr%" -T "Comment=%comment%" %source%


TOC of the extracted CD

Track | Start | Length | Start sector | End sector
––––––––––––––––––––––––––––-
1 | 0:00.33 | 3:43.55 | 33 | 16812
2 | 3:44.13 | 3:45.45 | 16813 | 33732
3 | 7:29.58 | 4:19.47 | 33733 | 53204
4 | 11:49.30 | 3:47.48 | 53205 | 70277


Range status and errors

Selected range

Filename E:\Torrent\# MY\# Подготовка раздач\Heart\1988 - What About Love (EP)\Heart - What About Love (EP).wav

Peak level 84.1 %
Extraction speed 2.2 X
Range quality 100.0 %
Test CRC C5152162
Copy CRC C5152162
Copy OK

No errors occurred


AccurateRip summary

Track 1 accurately ripped (confidence 2) [1299510E] (AR v2)
Track 2 accurately ripped (confidence 2) [5121EEE2] (AR v2)
Track 3 accurately ripped (confidence 2) [FB973867] (AR v2)
Track 4 accurately ripped (confidence 2) [E81EF621] (AR v2)

All tracks accurately ripped

End of status report

–– CUETools DB Plugin V2.1.6

[CTDB TOCID: ncQ3xYbU4aADDkx_gV7BWjrnp1Q-] found
Submit result: ncQ3xYbU4aADDkx_gV7BWjrnp1Q- has been confirmed
Track | CTDB Status
1 | (7/7) Accurately ripped
2 | (7/7) Accurately ripped
3 | (7/7) Accurately ripped
4 | (7/7) Accurately ripped


==== Log checksum B7DDA3E5F604FF1A681CCF772874A7EE0CBA8725D6089B211307257C95B173F5 ====


Heart: Singles, EPs & Promo Collection (1987 - 2012)

Tracklist CD6. 1990 - All I Wanna Do Is Make Love To You (Promo) (Capitol, DPRO-79909, U.S.A.):

1. All I Wanna Do Is Make Love To You (Edit)
2. All I Wanna Do Is Make Love To You (LP)

Exact Audio Copy V1.1 from 23. June 2015

EAC extraction logfile from 24. May 2017, 19:59

Heart / All I Wanna Do Is Make Love To You (Promo)

Used drive : ASUS DRW-24B1ST Adapter: 1 ID: 1

Read mode : Secure
Utilize accurate stream : Yes
Defeat audio cache : Yes
Make use of C2 pointers : No

Read offset correction : 6
Overread into Lead-In and Lead-Out : No
Fill up missing offset samples with silence : Yes
Delete leading and trailing silent blocks : No
Null samples used in CRC calculations : Yes
Used interface : Native Win32 interface for Win NT & 2000

Used output format : User Defined Encoder
Selected bitrate : 1024 kBit/s
Quality : High
Add ID3 tag : No
Command line compressor : C:\Program Files (x86)\Exact Audio Copy\Flac\flac.exe
Additional command line options : -V -8 -T "Genre=%genre%" -T "Artist=%artist%" -T "Title=%title%" -T "Album=%albumtitle%" -T "Date=%year%" -T "Tracknumber=%tracknr%" -T "Comment=%comment%" %source%


TOC of the extracted CD

Track | Start | Length | Start sector | End sector
––––––––––––––––––––––––––––-
1 | 0:00.00 | 4:37.27 | 0 | 20801
2 | 4:37.27 | 5:08.05 | 20802 | 43906


Range status and errors

Selected range

Filename E:\Torrent\# MY\# Подготовка раздач\Heart\1990 - All I Wanna Do Is Make Love To You (Promo)\Heart - All I Wanna Do Is Make Love To You (Promo).wav

Peak level 100.0 %
Extraction speed 3.9 X
Range quality 100.0 %
Test CRC DA3BA04F
Copy CRC DA3BA04F
Copy OK

No errors occurred


AccurateRip summary

Track 1 accurately ripped (confidence 2) [02178617] (AR v1)
Track 2 accurately ripped (confidence 2) [42CADEF7] (AR v1)

All tracks accurately ripped

End of status report

–– CUETools DB Plugin V2.1.6

[CTDB TOCID: DIAJeydhFHmBDNr6iHvmk5s5v3o-] found
Submit result: DIAJeydhFHmBDNr6iHvmk5s5v3o- has been confirmed
Track | CTDB Status
1 | (2/2) Accurately ripped
2 | (2/2) Accurately ripped


==== Log checksum 3BF62AD875DD40EB7756B889158184C8B94F550F9887999184ECF3BED7EB3204 ====


Heart: Singles, EPs & Promo Collection (1987 - 2012)

Tracklist CD7. 1990 - I Didn't Want To Need You (Capitol, CD 560-20 3908 2, Germany):

1. I Didn't Want To Need You
2. The Night
3. The Will To Love

Exact Audio Copy V1.1 from 23. June 2015

EAC extraction logfile from 31. May 2017, 17:59

Heart / I Didn't Want To Need You (EP)

Used drive : ASUS DRW-24B1ST Adapter: 1 ID: 1

Read mode : Secure
Utilize accurate stream : Yes
Defeat audio cache : Yes
Make use of C2 pointers : No

Read offset correction : 6
Overread into Lead-In and Lead-Out : No
Fill up missing offset samples with silence : Yes
Delete leading and trailing silent blocks : No
Null samples used in CRC calculations : Yes
Used interface : Native Win32 interface for Win NT & 2000

Used output format : User Defined Encoder
Selected bitrate : 1024 kBit/s
Quality : High
Add ID3 tag : No
Command line compressor : C:\Program Files (x86)\Exact Audio Copy\Flac\flac.exe
Additional command line options : -V -8 -T "Genre=%genre%" -T "Artist=%artist%" -T "Title=%title%" -T "Album=%albumtitle%" -T "Date=%year%" -T "Tracknumber=%tracknr%" -T "Comment=%comment%" %source%


TOC of the extracted CD

Track | Start | Length | Start sector | End sector
––––––––––––––––––––––––––––-
1 | 0:00.00 | 4:08.22 | 0 | 18621
2 | 4:08.22 | 4:55.13 | 18622 | 40759
3 | 9:03.35 | 4:22.07 | 40760 | 60416


Range status and errors

Selected range

Filename E:\Torrent\# MY\# Подготовка раздач\Heart\1990 - I Didn't Want To Need You\Heart - I Didn't Want To Need You (EP).wav

Peak level 100.0 %
Extraction speed 4.0 X
Range quality 100.0 %
Test CRC AA1B96F3
Copy CRC AA1B96F3
Copy OK

No errors occurred


AccurateRip summary

Track 1 accurately ripped (confidence 1) [26E79BD0] (AR v2)
Track 2 accurately ripped (confidence 1) [B50A19D5] (AR v2)
Track 3 accurately ripped (confidence 1) [50A22E8E] (AR v2)

All tracks accurately ripped

End of status report

–– CUETools DB Plugin V2.1.6

[CTDB TOCID: x61oU_oizOboLUY54uib5WZx..k-] found
Submit result: x61oU_oizOboLUY54uib5WZx..k- has been confirmed
Track | CTDB Status
1 | (3/3) Accurately ripped
2 | (3/3) Accurately ripped
3 | (3/3) Accurately ripped


==== Log checksum F2A703242BA12891593915D73D66188602D3D1E5F45CDC7EEA1D5F864CFD9CBA ====


Heart: Singles, EPs & Promo Collection (1987 - 2012)

Tracklist CD8. 1990 - Stranded (Promo) (Capitol, DPRO-79270, U.S.A.):

1. Stranded

Exact Audio Copy V1.3 from 2. September 2016

EAC extraction logfile from 31. October 2018, 9:52

Heart / Stranded (Single)

Used drive : HL-DT-STDVDROM DH18NS61 Adapter: 1 ID: 0

Read mode : Secure
Utilize accurate stream : Yes
Defeat audio cache : Yes
Make use of C2 pointers : No

Read offset correction : 6
Overread into Lead-In and Lead-Out : No
Fill up missing offset samples with silence : Yes
Delete leading and trailing silent blocks : No
Null samples used in CRC calculations : Yes
Used interface : Native Win32 interface for Win NT & 2000

Used output format : User Defined Encoder
Selected bitrate : 1024 kBit/s
Quality : High
Add ID3 tag : No
Command line compressor : G:\Install\All for Music\Lossless\FLAC 1.3.2\flac-1.3.2-win original\flac-1.3.2-win\win64\flac.exe
Additional command line options : -V -8 -T "Genre=%genre%" -T "Artist=%artist%" -T "Title=%title%" -T "Album=%albumtitle%" -T "Date=%year%" -T "Tracknumber=%tracknr%" -T "Comment=%comment%" %source%


TOC of the extracted CD

Track | Start | Length | Start sector | End sector
––––––––––––––––––––––––––––-
1 | 0:00.00 | 3:55.72 | 0 | 17696


Range status and errors

Selected range

Filename F:\# Torrent\Ginger Devil\Heart\1990 - Stranded (Single)\Heart - Stranded (Single).wav

Peak level 80.3 %
Extraction speed 1.2 X
Range quality 100.0 %
Test CRC EDA8290F
Copy CRC EDA8290F
Copy OK

No errors occurred


AccurateRip summary

Track 1 cannot be verified as accurate (confidence 2) [160D3D6E], AccurateRip returned [B7777E10] (AR v2)

No tracks could be verified as accurate
You may have a different pressing from the one(s) in the database

End of status report

–– CUETools DB Plugin V2.1.6

[CTDB TOCID: z37_6_Yd_z.xuCVMUJdZxJ9BtkA-] found
Submit result: z37_6_Yd_z.xuCVMUJdZxJ9BtkA- has been confirmed
Track | CTDB Status
1 | ( 1/11) Accurately ripped


==== Log checksum F8EC481302DFB9768EF32551B772AFD5DE2C9909A92AA8015FE22B86363D56BF ====


Heart: Singles, EPs & Promo Collection (1987 - 2012)

Tracklist CD9. 1991 - Secret (Capitol, CDCL 603, U.K.):

1. Secret
2. I Love You
3. How Can I Refuse (Live)

Exact Audio Copy V1.1 from 23. June 2015

EAC extraction logfile from 23. May 2017, 22:41

Heart / Secret (EP)

Used drive : ASUS DRW-24B1ST Adapter: 1 ID: 1

Read mode : Secure
Utilize accurate stream : Yes
Defeat audio cache : Yes
Make use of C2 pointers : No

Read offset correction : 6
Overread into Lead-In and Lead-Out : No
Fill up missing offset samples with silence : Yes
Delete leading and trailing silent blocks : No
Null samples used in CRC calculations : Yes
Used interface : Native Win32 interface for Win NT & 2000

Used output format : User Defined Encoder
Selected bitrate : 1024 kBit/s
Quality : High
Add ID3 tag : No
Command line compressor : C:\Program Files (x86)\Exact Audio Copy\Flac\flac.exe
Additional command line options : -V -8 -T "Genre=%genre%" -T "Artist=%artist%" -T "Title=%title%" -T "Album=%albumtitle%" -T "Date=%year%" -T "Tracknumber=%tracknr%" -T "Comment=%comment%" %source%


TOC of the extracted CD

Track | Start | Length | Start sector | End sector
––––––––––––––––––––––––––––-
1 | 0:00.33 | 4:14.60 | 33 | 19142
2 | 4:15.18 | 3:51.20 | 19143 | 36487
3 | 8:06.38 | 5:36.40 | 36488 | 61727


Range status and errors

Selected range

Filename E:\Torrent\# MY\# Подготовка раздач\Heart\1991 - Secret (EP)\Heart - Secret (EP).wav

Peak level 100.0 %
Extraction speed 2.0 X
Range quality 99.9 %
Test CRC 53E5B3B0
Copy CRC 53E5B3B0
Copy OK

No errors occurred


AccurateRip summary

Track 1 not present in database
Track 2 not present in database
Track 3 not present in database

None of the tracks are present in the AccurateRip database

End of status report

–– CUETools DB Plugin V2.1.6

[CTDB TOCID: tXpwC8xXBHnJg7Tn_qaGcbCjLr4-] found
Submit result: tXpwC8xXBHnJg7Tn_qaGcbCjLr4- has been confirmed
Track | CTDB Status
1 | (1/1) Accurately ripped
2 | (1/1) Accurately ripped
3 | (1/1) Accurately ripped


==== Log checksum FB18088D76CF7397035343ABB0F48F2320C52B9A76B363E1A07F6025D2FC14DE ====


Heart: Singles, EPs & Promo Collection (1987 - 2012)

Tracklist CD10. 1991 - You're The Voice (Capitol, CDCL 624, U.K.):

1. You're The Voice (Live)
2. Call Of The Wild (Live)
3. Barracuda (Live)

Exact Audio Copy V1.1 from 23. June 2015

EAC extraction logfile from 31. May 2017, 19:28

Heart / You're The Voice (EP)

Used drive : ASUS DRW-24B1ST Adapter: 1 ID: 1

Read mode : Secure
Utilize accurate stream : Yes
Defeat audio cache : Yes
Make use of C2 pointers : No

Read offset correction : 6
Overread into Lead-In and Lead-Out : No
Fill up missing offset samples with silence : Yes
Delete leading and trailing silent blocks : No
Null samples used in CRC calculations : Yes
Used interface : Native Win32 interface for Win NT & 2000

Used output format : User Defined Encoder
Selected bitrate : 1024 kBit/s
Quality : High
Add ID3 tag : No
Command line compressor : C:\Program Files (x86)\Exact Audio Copy\Flac\flac.exe
Additional command line options : -V -8 -T "Genre=%genre%" -T "Artist=%artist%" -T "Title=%title%" -T "Album=%albumtitle%" -T "Date=%year%" -T "Tracknumber=%tracknr%" -T "Comment=%comment%" %source%


TOC of the extracted CD

Track | Start | Length | Start sector | End sector
––––––––––––––––––––––––––––-
1 | 0:00.33 | 5:19.50 | 33 | 24007
2 | 5:20.08 | 4:08.05 | 24008 | 42612
3 | 9:28.13 | 4:12.30 | 42613 | 61542


Range status and errors

Selected range

Filename E:\Torrent\# MY\# Подготовка раздач\Heart\1991 - You're The Voice (EP)\Heart - You're The Voice (EP).wav

Peak level 97.2 %
Extraction speed 3.9 X
Range quality 99.9 %
Test CRC B32C1BD3
Copy CRC B32C1BD3
Copy OK

No errors occurred


AccurateRip summary

Track 1 accurately ripped (confidence 1) [EE3561F7] (AR v1)
Track 2 accurately ripped (confidence 1) [C79700A6] (AR v1)
Track 3 accurately ripped (confidence 1) [A03C0B51] (AR v1)

All tracks accurately ripped

End of status report

–– CUETools DB Plugin V2.1.6

[CTDB TOCID: i6fhpyZp4EY1gKtgK6gQmwzSols-] found
Submit result: i6fhpyZp4EY1gKtgK6gQmwzSols- has been confirmed
Track | CTDB Status
1 | (3/3) Accurately ripped
2 | (3/3) Accurately ripped
3 | (3/3) Accurately ripped


==== Log checksum 704E2B3A7D384C7BA9415EC528A0803732ED4ACEC9D18DF2DD0660FCA1C09421 ====


Heart: Singles, EPs & Promo Collection (1987 - 2012)

Tracklist CD11. 1991 - You're The Voice (Promo) (Capitol, DPRO-79010, U.S.A.):

1. You're The Voice (Edit)
2. You're The Voice (LP version)

Exact Audio Copy V1.1 from 23. June 2015

EAC extraction logfile from 25. May 2017, 22:47

Heart / You're The Voice (Promo)

Used drive : ASUS DRW-24B1ST Adapter: 1 ID: 1

Read mode : Secure
Utilize accurate stream : Yes
Defeat audio cache : Yes
Make use of C2 pointers : No

Read offset correction : 6
Overread into Lead-In and Lead-Out : No
Fill up missing offset samples with silence : Yes
Delete leading and trailing silent blocks : No
Null samples used in CRC calculations : Yes
Used interface : Native Win32 interface for Win NT & 2000

Used output format : User Defined Encoder
Selected bitrate : 1024 kBit/s
Quality : High
Add ID3 tag : No
Command line compressor : C:\Program Files (x86)\Exact Audio Copy\Flac\flac.exe
Additional command line options : -V -8 -T "Genre=%genre%" -T "Artist=%artist%" -T "Title=%title%" -T "Album=%albumtitle%" -T "Date=%year%" -T "Tracknumber=%tracknr%" -T "Comment=%comment%" %source%


TOC of the extracted CD

Track | Start | Length | Start sector | End sector
––––––––––––––––––––––––––––-
1 | 0:00.32 | 4:24.73 | 32 | 19904
2 | 4:25.30 | 5:05.07 | 19905 | 42786


Range status and errors

Selected range

Filename E:\Torrent\# MY\# Подготовка раздач\Heart\1991 - You're The Voice (Promo)\Heart - You're The Voice (Promo).wav

Peak level 100.0 %
Extraction speed 2.1 X
Range quality 100.0 %
Test CRC EF172430
Copy CRC EF172430
Copy OK

No errors occurred


AccurateRip summary

Track 1 accurately ripped (confidence 1) [BFF45E6C] (AR v1)
Track 2 accurately ripped (confidence 1) [305944F6] (AR v1)

All tracks accurately ripped

End of status report

–– CUETools DB Plugin V2.1.6

[CTDB TOCID: SepGw3cWoBKquZKnegmXVEwDyfk-] found
Submit result: SepGw3cWoBKquZKnegmXVEwDyfk- has been confirmed
Track | CTDB Status
1 | (1/1) Accurately ripped
2 | (1/1) Accurately ripped


==== Log checksum C74A720C91D8B6CC801BF48A1F3F71B6291D04E140D04CC1BED91A8C6D676676 ====


Heart: Singles, EPs & Promo Collection (1987 - 2012)

Tracklist CD12. 1993 - Will You Be There (In The Morning) (Capitol, CDCLS 700 / CDCL 700, U.K.) CD1:

1. Will You Be There (In The Morning)
2. What About Love?
3. Risin' Suspicion (Previously unreleased)
4. Who Will You Run To

Exact Audio Copy V1.1 from 23. June 2015

EAC extraction logfile from 15. May 2017, 19:57

Heart / Will You Be There (In The Morning)

Used drive : ASUS DRW-24B1ST Adapter: 1 ID: 1

Read mode : Secure
Utilize accurate stream : Yes
Defeat audio cache : Yes
Make use of C2 pointers : No

Read offset correction : 6
Overread into Lead-In and Lead-Out : No
Fill up missing offset samples with silence : Yes
Delete leading and trailing silent blocks : No
Null samples used in CRC calculations : Yes
Used interface : Native Win32 interface for Win NT & 2000

Used output format : User Defined Encoder
Selected bitrate : 1024 kBit/s
Quality : High
Add ID3 tag : No
Command line compressor : C:\Program Files (x86)\Exact Audio Copy\Flac\flac.exe
Additional command line options : -V -8 -T "Genre=%genre%" -T "Artist=%artist%" -T "Title=%title%" -T "Album=%albumtitle%" -T "Date=%year%" -T "Tracknumber=%tracknr%" -T "Comment=%comment%" %source%


TOC of the extracted CD

Track | Start | Length | Start sector | End sector
––––––––––––––––––––––––––––-
1 | 0:00.33 | 4:31.17 | 33 | 20374
2 | 4:31.50 | 3:40.53 | 20375 | 36927
3 | 8:12.28 | 3:04.17 | 36928 | 50744
4 | 11:16.45 | 4:03.53 | 50745 | 69022


Range status and errors

Selected range

Filename E:\Torrent\# MY\# Подготовка раздач\Heart\1993 - Will You Be There (In The Morning) (Double CD set)\Part 1\Heart - Will You Be There (In The Morning) (Part 1).wav

Peak level 100.0 %
Extraction speed 2.1 X
Range quality 99.9 %
Test CRC F29FC467
Copy CRC F29FC467
Copy OK

No errors occurred


AccurateRip summary

Track 1 accurately ripped (confidence 2) [A6118A3F] (AR v1)
Track 2 accurately ripped (confidence 2) [BB08C518] (AR v1)
Track 3 accurately ripped (confidence 2) [4EB26AA3] (AR v2)
Track 4 accurately ripped (confidence 2) [AC7508B9] (AR v1)

All tracks accurately ripped

End of status report

–– CUETools DB Plugin V2.1.6

[CTDB TOCID: KUnRoTH_1rPzQj9bB0.bHAViyfM-] found
Submit result: already submitted
Track | CTDB Status
1 | (4/4) Accurately ripped
2 | (4/4) Accurately ripped
3 | (4/4) Accurately ripped
4 | (4/4) Accurately ripped


==== Log checksum 865EAA1B20E4960EB4380D73106C30467318696E554C6F67801AF6D1EBA4958A ====


Heart: Singles, EPs & Promo Collection (1987 - 2012)

Tracklist CD13. 1993 - Will You Be There (In The Morning) (Capitol, CDCLS 700 / CDCL 700, U.K.) CD2:

1. Will You Be There (In The Morning)
2. Love Hurts (Live)
3. These Dreams (Live)
4. All I Wanna Do Is Make Love To You (Edit)

Exact Audio Copy V1.1 from 23. June 2015

EAC extraction logfile from 15. May 2017, 20:10

Heart / Will You Be There (In The Morning)

Used drive : ASUS DRW-24B1ST Adapter: 1 ID: 1

Read mode : Secure
Utilize accurate stream : Yes
Defeat audio cache : Yes
Make use of C2 pointers : No

Read offset correction : 6
Overread into Lead-In and Lead-Out : No
Fill up missing offset samples with silence : Yes
Delete leading and trailing silent blocks : No
Null samples used in CRC calculations : Yes
Used interface : Native Win32 interface for Win NT & 2000

Used output format : User Defined Encoder
Selected bitrate : 1024 kBit/s
Quality : High
Add ID3 tag : No
Command line compressor : C:\Program Files (x86)\Exact Audio Copy\Flac\flac.exe
Additional command line options : -V -8 -T "Genre=%genre%" -T "Artist=%artist%" -T "Title=%title%" -T "Album=%albumtitle%" -T "Date=%year%" -T "Tracknumber=%tracknr%" -T "Comment=%comment%" %source%


TOC of the extracted CD

Track | Start | Length | Start sector | End sector
––––––––––––––––––––––––––––-
1 | 0:00.33 | 4:31.45 | 33 | 20402
2 | 4:32.03 | 4:36.10 | 20403 | 41112
3 | 9:08.13 | 4:24.35 | 41113 | 60947
4 | 13:32.48 | 4:33.37 | 60948 | 81459


Range status and errors

Selected range

Filename E:\Torrent\# MY\# Подготовка раздач\Heart\1993 - Will You Be There (In The Morning) (Double CD set)\Part 2\Heart - Will You Be There (In The Morning) (Part 2).wav

Peak level 98.8 %
Extraction speed 2.4 X
Range quality 100.0 %
Test CRC FABB8E1E
Copy CRC FABB8E1E
Copy OK

No errors occurred


AccurateRip summary

Track 1 accurately ripped (confidence 2) [FDDF081D] (AR v1)
Track 2 accurately ripped (confidence 2) [9F6A6412] (AR v1)
Track 3 accurately ripped (confidence 2) [D288F072] (AR v1)
Track 4 accurately ripped (confidence 2) [9B07D7CA] (AR v1)

All tracks accurately ripped

End of status report

–– CUETools DB Plugin V2.1.6

[CTDB TOCID: JyGQqKh92bONIs283nfABkGLvos-] found
Submit result: already submitted
Track | CTDB Status
1 | (5/5) Accurately ripped
2 | (5/5) Accurately ripped
3 | (5/5) Accurately ripped
4 | (5/5) Accurately ripped


==== Log checksum 8D1700BA64511F02753652D61981BF51CF76D0AB6D54CD5BBA0ECC2D946833A5 ====


Heart: Singles, EPs & Promo Collection (1987 - 2012)

Tracklist CD14. 1994 - Back To Avalon (Promo) (Capitol, CDCLDJ 710, U.K.):

1. Back To Avalon
2. Will You Be There (In The Morning)
3. All I Wanna Do Is Make Love To You

Exact Audio Copy V1.1 from 23. June 2015

EAC extraction logfile from 29. June 2017, 22:10

Heart / Back To Avalon

Used drive : ASUS DRW-24B1ST Adapter: 1 ID: 1

Read mode : Secure
Utilize accurate stream : Yes
Defeat audio cache : Yes
Make use of C2 pointers : No

Read offset correction : 6
Overread into Lead-In and Lead-Out : No
Fill up missing offset samples with silence : Yes
Delete leading and trailing silent blocks : No
Null samples used in CRC calculations : Yes
Used interface : Native Win32 interface for Win NT & 2000

Used output format : User Defined Encoder
Selected bitrate : 128 kBit/s
Quality : High
Add ID3 tag : No
Command line compressor : C:\Program Files (x86)\Exact Audio Copy\Flac\flac.exe
Additional command line options : -V -8 -T "Genre=%genre%" -T "Artist=%artist%" -T "Title=%title%" -T "Album=%albumtitle%" -T "Date=%year%" -T "Tracknumber=%tracknr%" -T "Comment=%comment%" %source%


TOC of the extracted CD

Track | Start | Length | Start sector | End sector
––––––––––––––––––––––––––––-
1 | 0:00.33 | 3:42.60 | 33 | 16742
2 | 3:43.18 | 4:29.72 | 16743 | 36989
3 | 8:13.15 | 4:31.20 | 36990 | 57334


Range status and errors

Selected range

Filename E:\Torrent\# MY\# Подготовка раздач\Heart\1994 - Back To Avalon (Promo)\Heart - Back To Avalon.wav

Peak level 100.0 %
Extraction speed 4.1 X
Range quality 100.0 %
Test CRC F1005797
Copy CRC F1005797
Copy OK

No errors occurred


AccurateRip summary

Track 1 accurately ripped (confidence 1) [76D3C36E] (AR v2)
Track 2 accurately ripped (confidence 1) [B0A9F511] (AR v2)
Track 3 accurately ripped (confidence 1) [518E0493] (AR v2)

All tracks accurately ripped

End of status report

–– CUETools DB Plugin V2.1.6

[CTDB TOCID: xEC017F9I3hXslKWk3pUOXMSBdA-] found
Submit result: xEC017F9I3hXslKWk3pUOXMSBdA- has been confirmed
Track | CTDB Status
1 | (2/2) Accurately ripped
2 | (2/2) Accurately ripped
3 | (2/2) Accurately ripped


==== Log checksum DC9A1BDD6C7D93C2D10F259C2DB1A2F9E7DA30D7B4BE26B881BBDFBD8BEDC985 ====


Heart: Singles, EPs & Promo Collection (1987 - 2012)

Tracklist CD15. 1994 - The Woman In Me (Promo) (Capitol, DPRO-79298, U.S.A.):

1. The Woman In Me (Remix)

Exact Audio Copy V1.1 from 23. June 2015

EAC extraction logfile from 25. May 2017, 22:35

Heart / The Woman In Me (Promo single)

Used drive : ASUS DRW-24B1ST Adapter: 1 ID: 1

Read mode : Secure
Utilize accurate stream : Yes
Defeat audio cache : Yes
Make use of C2 pointers : No

Read offset correction : 6
Overread into Lead-In and Lead-Out : No
Fill up missing offset samples with silence : Yes
Delete leading and trailing silent blocks : No
Null samples used in CRC calculations : Yes
Used interface : Native Win32 interface for Win NT & 2000

Used output format : User Defined Encoder
Selected bitrate : 1024 kBit/s
Quality : High
Add ID3 tag : No
Command line compressor : C:\Program Files (x86)\Exact Audio Copy\Flac\flac.exe
Additional command line options : -V -8 -T "Genre=%genre%" -T "Artist=%artist%" -T "Title=%title%" -T "Album=%albumtitle%" -T "Date=%year%" -T "Tracknumber=%tracknr%" -T "Comment=%comment%" %source%


TOC of the extracted CD

Track | Start | Length | Start sector | End sector
––––––––––––––––––––––––––––-
1 | 0:00.00 | 4:00.20 | 0 | 18019


Range status and errors

Selected range

Filename E:\Torrent\# MY\# Подготовка раздач\Heart\1994 - The Woman In Me (Promo single)\Heart - The Woman In Me (Promo single).wav

Peak level 100.0 %
Extraction speed 3.3 X
Range quality 100.0 %
Test CRC 877BAB4E
Copy CRC 877BAB4E
Copy OK

No errors occurred


AccurateRip summary

Track 1 accurately ripped (confidence 1) [39A8FABA] (AR v1)

All tracks accurately ripped

End of status report

–– CUETools DB Plugin V2.1.6

[CTDB TOCID: dORSjs7nZtBcJl5nU545xfNcYz0-] found
Submit result: dORSjs7nZtBcJl5nU545xfNcYz0- has been confirmed
Track | CTDB Status
1 | (1/3) Accurately ripped


==== Log checksum 18368970D7198B4964CDEBDD2F495E678D77D6BDA44838D30FB79250B9A313DC ====


Heart: Singles, EPs & Promo Collection (1987 - 2012)

Tracklist CD16. 2004 - Oldest Story In The World (Heart Promo CD) (Sovereign Artists, PROCD 195, U.S.A.):

1. Oldest Story In The World
2. The Perfect Goodbye

Exact Audio Copy V1.1 from 23. June 2015

EAC extraction logfile from 25. May 2017, 23:00

Heart / Heart Promo CD

Used drive : ASUS DRW-24B1ST Adapter: 1 ID: 1

Read mode : Secure
Utilize accurate stream : Yes
Defeat audio cache : Yes
Make use of C2 pointers : No

Read offset correction : 6
Overread into Lead-In and Lead-Out : No
Fill up missing offset samples with silence : Yes
Delete leading and trailing silent blocks : No
Null samples used in CRC calculations : Yes
Used interface : Native Win32 interface for Win NT & 2000

Used output format : User Defined Encoder
Selected bitrate : 1024 kBit/s
Quality : High
Add ID3 tag : No
Command line compressor : C:\Program Files (x86)\Exact Audio Copy\Flac\flac.exe
Additional command line options : -V -8 -T "Genre=%genre%" -T "Artist=%artist%" -T "Title=%title%" -T "Album=%albumtitle%" -T "Date=%year%" -T "Tracknumber=%tracknr%" -T "Comment=%comment%" %source%


TOC of the extracted CD

Track | Start | Length | Start sector | End sector
––––––––––––––––––––––––––––-
1 | 0:00.00 | 3:53.15 | 0 | 17489
2 | 3:53.15 | 3:37.35 | 17490 | 33799


Range status and errors

Selected range

Filename E:\Torrent\# MY\# Подготовка раздач\Heart\2004 - Heart Promo CD\Heart - Heart Promo CD.wav

Peak level 98.8 %
Extraction speed 2.0 X
Range quality 100.0 %
Test CRC 4846DFB1
Copy CRC 4846DFB1
Copy OK

No errors occurred


AccurateRip summary

Track 1 not present in database
Track 2 not present in database

None of the tracks are present in the AccurateRip database

End of status report

–– CUETools DB Plugin V2.1.6

[CTDB TOCID: hUPXYnm1VINOibX8kesA.S94j9E-] found
Submit result: hUPXYnm1VINOibX8kesA.S94j9E- has been confirmed
Track | CTDB Status
1 | (1/1) Accurately ripped
2 | (1/1) Accurately ripped


==== Log checksum DB5AEF86D98B62F0699C072EE683D8D966EDC8343864A28F8872CD8A304E953E ====


Heart: Singles, EPs & Promo Collection (1987 - 2012)

Tracklist CD17. 2010 - WTF+4 (Legacy, 88697 74775 2, U.S.A.):

1. WTF
2. Sand
3. Barracuda (Live)
4. Alone (Live)
5. Crazy On You (Live)

Exact Audio Copy V1.1 from 23. June 2015

EAC extraction logfile from 24. May 2017, 20:23

Heart / WTF + 4

Used drive : ASUS DRW-24B1ST Adapter: 1 ID: 1

Read mode : Secure
Utilize accurate stream : Yes
Defeat audio cache : Yes
Make use of C2 pointers : No

Read offset correction : 6
Overread into Lead-In and Lead-Out : No
Fill up missing offset samples with silence : Yes
Delete leading and trailing silent blocks : No
Null samples used in CRC calculations : Yes
Used interface : Native Win32 interface for Win NT & 2000

Used output format : User Defined Encoder
Selected bitrate : 1024 kBit/s
Quality : High
Add ID3 tag : No
Command line compressor : C:\Program Files (x86)\Exact Audio Copy\Flac\flac.exe
Additional command line options : -V -8 -T "Genre=%genre%" -T "Artist=%artist%" -T "Title=%title%" -T "Album=%albumtitle%" -T "Date=%year%" -T "Tracknumber=%tracknr%" -T "Comment=%comment%" %source%


TOC of the extracted CD

Track | Start | Length | Start sector | End sector
––––––––––––––––––––––––––––-
1 | 0:00.00 | 3:25.35 | 0 | 15409
2 | 3:25.35 | 4:07.74 | 15410 | 34008
3 | 7:33.34 | 5:57.32 | 34009 | 60815
4 | 13:30.66 | 4:14.50 | 60816 | 79915
5 | 17:45.41 | 5:30.59 | 79916 | 104724


Range status and errors

Selected range

Filename E:\Torrent\# MY\# Подготовка раздач\Heart\2010 - WTF + 4\Heart - WTF + 4.wav

Peak level 100.0 %
Extraction speed 2.7 X
Range quality 100.0 %
Test CRC 0175E31D
Copy CRC 0175E31D
Copy OK

No errors occurred


AccurateRip summary

Track 1 accurately ripped (confidence 3) [D81305BE] (AR v2)
Track 2 accurately ripped (confidence 3) [996AF631] (AR v2)
Track 3 accurately ripped (confidence 3) [12429021] (AR v2)
Track 4 accurately ripped (confidence 3) [2D495987] (AR v2)
Track 5 accurately ripped (confidence 3) [8514176F] (AR v2)

All tracks accurately ripped

End of status report

–– CUETools DB Plugin V2.1.6

[CTDB TOCID: hd1Zd0b2SjykINN0r4tYzrKVT7M-] found
Submit result: hd1Zd0b2SjykINN0r4tYzrKVT7M- has been confirmed
Track | CTDB Status
1 | (2/2) Accurately ripped
2 | (2/2) Accurately ripped
3 | (2/2) Accurately ripped
4 | (2/2) Accurately ripped
5 | (2/2) Accurately ripped


==== Log checksum 6F4C1AA58D86F448199DC63A0C442535BD766DEEF4F43341F5BB403B33F44A17 ====


Heart: Singles, EPs & Promo Collection (1987 - 2012)

Tracklist CD18. 2012 - Walkin' Good (with Sarah McLachlan) (Promo) (Legacy, n/a, U.S.A.):

1. Walkin' Good (with Sarah McLachlan)

Exact Audio Copy V1.1 from 23. June 2015

EAC extraction logfile from 25. May 2017, 22:16

Heart with Sarah McLachlan / Walkin' Good (Promo single)

Used drive : ASUS DRW-24B1ST Adapter: 1 ID: 1

Read mode : Secure
Utilize accurate stream : Yes
Defeat audio cache : Yes
Make use of C2 pointers : No

Read offset correction : 6
Overread into Lead-In and Lead-Out : No
Fill up missing offset samples with silence : Yes
Delete leading and trailing silent blocks : No
Null samples used in CRC calculations : Yes
Used interface : Native Win32 interface for Win NT & 2000

Used output format : User Defined Encoder
Selected bitrate : 1024 kBit/s
Quality : High
Add ID3 tag : No
Command line compressor : C:\Program Files (x86)\Exact Audio Copy\Flac\flac.exe
Additional command line options : -V -8 -T "Genre=%genre%" -T "Artist=%artist%" -T "Title=%title%" -T "Album=%albumtitle%" -T "Date=%year%" -T "Tracknumber=%tracknr%" -T "Comment=%comment%" %source%


TOC of the extracted CD

Track | Start | Length | Start sector | End sector
––––––––––––––––––––––––––––-
1 | 0:00.00 | 3:44.27 | 0 | 16826


Range status and errors

Selected range

Filename E:\Torrent\# MY\# Подготовка раздач\Heart\2012 - Walkin' Good (Promo single)\Heart with Sarah McLachlan - Walkin' Good (Promo single).wav

Peak level 89.1 %
Extraction speed 3.6 X
Range quality 100.0 %
Test CRC DD4EC4E5
Copy CRC DD4EC4E5
Copy OK

No errors occurred


AccurateRip summary

Track 1 cannot be verified as accurate (confidence 2) [8F11F105], AccurateRip returned [0089ADF1] (AR v2)

No tracks could be verified as accurate
You may have a different pressing from the one(s) in the database

End of status report

–– CUETools DB Plugin V2.1.6

[CTDB TOCID: 0h22fnU5WIOfg4WSLJv1LCfSjgg-] found
Submit result: 0h22fnU5WIOfg4WSLJv1LCfSjgg- has been confirmed
Track | CTDB Status
1 | (1/4) Accurately ripped


==== Log checksum 23D4021753B6755FA09FDE8A34A789263968BBF5FFC053109541C8573C84E079 ====


All thanks go to the original releasers

Heart in my Blog

Download Heart: Singles, EPs & Promo Collection (1987 - 2012):