Subcategories
Tags
Language
Tags

Helge Sunde, Ensemble Denada - Finding Nymo (2009) [Re-Up]

Posted By: Designol
Helge Sunde, Ensemble Denada - Finding Nymo (2009) [Re-Up]

Helge Sunde, Ensemble Denada - Finding Nymo (2009)
EAC | FLAC | Tracks (Cue&Log) ~ 305 Mb | Mp3 (CBR320) ~ 141 Mb | Scans included
Contemporary Jazz, Modern Big Band | Label: ACT | # 9492-2 | Time: 00:53:10

Helge Sunde is a 44-year-old Norwegian trombonist and composer who often works with jazz/classical composer Geir Lysne, sounds as if he checks out Hermeto Pascoal, Django Bates, Carla Bley, and British jazz and TV composer Colin Towns – and who has produced a cracker of a contemporary big-band album with this set. Sunde's Denada ensemble has produced powerful work before, but the balance of moods, melodic variety and arranging ingenuity on Finding Nymo (the sax-playing Nymo brothers Frode and Atle are star soloists) ought to raise his standing outside continental Europe. He throws listeners off the big-band scent with the eerie vocoder whispers at the start, but busy phrase-swapping between the horns, and arrhythmic ensemble riffs with solo-sax wails rising out of them introduce a Django Bates feel. When In Rome is a hooting, swaggering theme with revving engines and street noise, Valse Triste starts like a funeral lament and turns into a demonically waltzing dance, and the title track begins as tentative, sputtery improv, then coalesces into a melody. Guests Olka Konkova (piano) and Marilyn Mazur add flourishes to an already formidable set.

Review by John Fordham, The Guardian

Helge Sunde, Ensemble Denada - Finding Nymo (2009) [Re-Up]



Ensemble Denada (big band)
directed by Helge Sunde (trombone, electronics)
with Olga Konkova (piano)
Marilyn Mazur (percussion)

Tracklist:

01. One Word (01:10)
02. Obstler (05:21)
03. Italian Suite - When In Rome (04:10)
04. Italian Suite - Valse Trieste (05:52)
05. Italian Suite - Molto Alghero (06:28)
06. Finding Nymo (06:49)
07. MoonCrier (07:37)
08. Knegg (Dark Horse) (03:54)
09. Bryk (Omkalfatra) (07:51)
10. Lullaby Of Broltesia (03:53)


Exact Audio Copy V0.99 prebeta 5 from 4. May 2009

EAC extraction logfile from 1. June 2010, 7:45

Helge Sunde Ensemble Denada / Finding Nymo

Used drive : PLEXTOR CD-R PREMIUM2 Adapter: 3 ID: 0

Read mode : Secure
Utilize accurate stream : Yes
Defeat audio cache : Yes
Make use of C2 pointers : No

Read offset correction : 30
Overread into Lead-In and Lead-Out : Yes
Fill up missing offset samples with silence : Yes
Delete leading and trailing silent blocks : No
Null samples used in CRC calculations : Yes
Used interface : Native Win32 interface for Win NT & 2000
Gap handling : Appended to previous track

Used output format : User Defined Encoder
Selected bitrate : 128 kBit/s
Quality : High
Add ID3 tag : No
Command line compressor : D:\Programme\EAC099\Flac\flac.exe
Additional command line options : -5 -V -T "ARTIST=%a" -T "TITLE=%t" -T "ALBUM=%g" -T "DATE=%y" -T "TRACKNUMBER=%n" -T "TOTALTRACKS=%x" -T "GENRE=%m" -T "ALBUM ARTIST=%v" -T "ALBUMARTIST=%v" -T "COMMENT=EAC V0.99 prebeta 5, Secure Mode, Test & Copy, Accurat


TOC of the extracted CD

Track | Start | Length | Start sector | End sector
––––––––––––––––––––––––––––-
1 | 0:00.00 | 1:10.08 | 0 | 5257
2 | 1:10.08 | 5:21.67 | 5258 | 29399
3 | 6:32.00 | 4:10.20 | 29400 | 48169
4 | 10:42.20 | 5:52.65 | 48170 | 74634
5 | 16:35.10 | 6:28.47 | 74635 | 103781
6 | 23:03.57 | 6:49.67 | 103782 | 134523
7 | 29:53.49 | 7:37.15 | 134524 | 168813
8 | 37:30.64 | 3:54.18 | 168814 | 186381
9 | 41:25.07 | 7:51.44 | 186382 | 221750
10 | 49:16.51 | 3:53.42 | 221751 | 239267


Track 1

Filename E:\Share\Jazz\P-T\Helge Sunde Ensemble Denada - Finding Nymo (2009) [FLAC] {ACT 9492-2}\01 - One Word.wav

Pre-gap length 0:00:02.00

Peak level 92.6 %
Track quality 100.0 %
Test CRC 1AA684A5
Copy CRC 1AA684A5
Accurately ripped (confidence 2) [20AF7EAF]
Copy OK

Track 2

Filename E:\Share\Jazz\P-T\Helge Sunde Ensemble Denada - Finding Nymo (2009) [FLAC] {ACT 9492-2}\02 - Obstler.wav

Peak level 100.0 %
Track quality 100.0 %
Test CRC C6BCB8C2
Copy CRC C6BCB8C2
Accurately ripped (confidence 2) [25154D9E]
Copy OK

Track 3

Filename E:\Share\Jazz\P-T\Helge Sunde Ensemble Denada - Finding Nymo (2009) [FLAC] {ACT 9492-2}\03 - Italian Suite - When In Rome.wav

Peak level 100.0 %
Track quality 100.0 %
Test CRC F93310E6
Copy CRC F93310E6
Accurately ripped (confidence 2) [5057350B]
Copy OK

Track 4

Filename E:\Share\Jazz\P-T\Helge Sunde Ensemble Denada - Finding Nymo (2009) [FLAC] {ACT 9492-2}\04 - Italian Suite - Valse Trieste.wav

Peak level 97.7 %
Track quality 100.0 %
Test CRC C9085F6D
Copy CRC C9085F6D
Accurately ripped (confidence 2) [86A164A9]
Copy OK

Track 5

Filename E:\Share\Jazz\P-T\Helge Sunde Ensemble Denada - Finding Nymo (2009) [FLAC] {ACT 9492-2}\05 - Italian Suite - Molto Alghero.wav

Peak level 98.6 %
Track quality 100.0 %
Test CRC 6853C576
Copy CRC 6853C576
Accurately ripped (confidence 2) [723A8B9C]
Copy OK

Track 6

Filename E:\Share\Jazz\P-T\Helge Sunde Ensemble Denada - Finding Nymo (2009) [FLAC] {ACT 9492-2}\06 - Finding Nymo.wav

Pre-gap length 0:00:01.40

Peak level 100.0 %
Track quality 100.0 %
Test CRC AEB66EE0
Copy CRC AEB66EE0
Accurately ripped (confidence 2) [DC659944]
Copy OK

Track 7

Filename E:\Share\Jazz\P-T\Helge Sunde Ensemble Denada - Finding Nymo (2009) [FLAC] {ACT 9492-2}\07 - MoonCrier.wav

Peak level 64.8 %
Track quality 100.0 %
Test CRC 218E0BFD
Copy CRC 218E0BFD
Accurately ripped (confidence 2) [E5CC2BCF]
Copy OK

Track 8

Filename E:\Share\Jazz\P-T\Helge Sunde Ensemble Denada - Finding Nymo (2009) [FLAC] {ACT 9492-2}\08 - Knegg (Dark Horse).wav

Peak level 100.0 %
Track quality 100.0 %
Test CRC 8F8E3292
Copy CRC 8F8E3292
Accurately ripped (confidence 2) [4EBC551E]
Copy OK

Track 9

Filename E:\Share\Jazz\P-T\Helge Sunde Ensemble Denada - Finding Nymo (2009) [FLAC] {ACT 9492-2}\09 - Bryk (Omkalfatra).wav

Pre-gap length 0:00:02.60

Peak level 100.0 %
Track quality 100.0 %
Test CRC 72955185
Copy CRC 72955185
Accurately ripped (confidence 2) [A688D836]
Copy OK

Track 10

Filename E:\Share\Jazz\P-T\Helge Sunde Ensemble Denada - Finding Nymo (2009) [FLAC] {ACT 9492-2}\10 - Lullaby Of Broltesia.wav

Pre-gap length 0:00:01.00

Peak level 49.1 %
Track quality 100.0 %
Test CRC 6BA98F68
Copy CRC 6BA98F68
Accurately ripped (confidence 2) [C9523832]
Copy OK


All tracks accurately ripped

No errors occurred

End of status report

foobar2000 1.2 / Dynamic Range Meter 1.1.1
log date: 2015-12-17 03:22:49

––––––––––––––––––––––––––––––––––––––––
Analyzed: Helge Sunde Ensemble Denada / Finding Nymo
––––––––––––––––––––––––––––––––––––––––

DR Peak RMS Duration Track
––––––––––––––––––––––––––––––––––––––––
DR16 -0.66 dB -24.71 dB 1:10 01-One Word
DR14 0.00 dB -17.04 dB 5:22 02-Obstler
DR13 0.00 dB -15.85 dB 4:10 03-Italian Suite - When In Rome
DR16 -0.19 dB -20.60 dB 5:53 04-Italian Suite - Valse Trieste
DR13 -0.12 dB -16.95 dB 6:29 05-Italian Suite - Molto Alghero
DR15 0.00 dB -17.83 dB 6:50 06-Finding Nymo
DR13 -3.76 dB -21.00 dB 7:37 07-MoonCrier
DR15 0.00 dB -17.87 dB 3:54 08-Knegg (Dark Horse)
DR16 0.00 dB -19.75 dB 7:52 09-Bryk (Omkalfatra)
DR10 -6.18 dB -23.49 dB 3:54 10-Lullaby Of Broltesia
––––––––––––––––––––––––––––––––––––––––

Number of tracks: 10
Official DR value: DR14

Samplerate: 44100 Hz
Channels: 2
Bits per sample: 16
Bitrate: 540 kbps
Codec: FLAC
================================================================================

Helge Sunde, Ensemble Denada - Finding Nymo (2009) [Re-Up]

Helge Sunde, Ensemble Denada - Finding Nymo (2009) [Re-Up]

All thanks to original releaser

More interesting music in My Blog