Subcategories

Helloween - United Alive In Madrid (2019) (3CD Box Set}

Posted By: popsakov
Helloween - United Alive In Madrid (2019) (3CD Box Set}

Helloween - United Alive In Madrid (2019) (3CD Box Set}
EAC Rip | FLAC (Img) + Cue + Log ~ 1,12 Gb | Full Scans ~ 158 Mb | 02:40:46 | RAR 5% Recovery
Power Metal, Heavy Metal | Nuclear Blast #NB 4859-2

Celebrating Helloweens greatest hits from three decades and offering a breakneck trip through time and the bands entire repertoire, United Alive was recorded over the bands 14-month Pumpkins United World that began in the Fall of 2017. Made up of the core past & current members Andi Deris, Michael Kiske, Michael Weikath, Kai Hansen, Markus Grosskopf, Sascha Gerstner, and Daniel Lble, Helloween delivered 69 shows, including 14 headlining spots at the biggest festivals, in front of over one million people in 32 countries and on three continents. The 2-disc Blu-Ray & 3-cd United Alive nails the phenomenal sets with close quarters recordings from Wacken in front of 75,000 metal heads and 14,000 fans in the Madrid arena, and as a bonus tops it off with the legendary gig at the Espao das Amricas in front of 8,000 Fans in So Paulo. Over three hours of live material in stereo and premium 5.1 surround sound, plus extensive background material, a movie compilation with the essentials of the concerts LED content, all cartoon clips of Seth and Doc as well as a very personal 30-minute band interview about the past, present, and future.
***************

Track List CD1:

01. Halloween (Live 2017) [13:38]
02. Dr. Stein (Live 2017) [5:36]
03. I'm Alive (Live 2017) [3:48]
04. If I Could Fly (Live 2017) [4:01]
05. Are You Metal? (Live 2017) [4:28]
06. Rise And Fall (Live 2017) [4:22]
07. Waiting For The Thunder (Live 2017) [4:02]
08. Perfect Gentleman (Live 2017) [4:50]
09. Kai's Medley (Live 2017) [13:52]
10. Forever And One (Live 2017) [5:22]
11. A Tale That Wasn't Right (Live 2017) [5:44]

Exact Audio Copy V1.3 from 2. September 2016

EAC extraction logfile from 8. December 2019, 18:52

Helloween / United Alive In Madrid (CD1)

Used drive : PIONEER DVD-RW DVR-221 Adapter: 1 ID: 0

Read mode : Secure
Utilize accurate stream : Yes
Defeat audio cache : Yes
Make use of C2 pointers : No

Read offset correction : 6
Overread into Lead-In and Lead-Out : No
Fill up missing offset samples with silence : Yes
Delete leading and trailing silent blocks : No
Null samples used in CRC calculations : Yes
Used interface : Installed external ASPI interface

Used output format : User Defined Encoder
Selected bitrate : 1024 kBit/s
Quality : High
Add ID3 tag : No
Command line compressor : C:\Program Files\Exact Audio Copy\FLAC\FLAC.EXE
Additional command line options : -V -8 -T "Date=%year%" -T "Genre=%genre%" -T "COMMENT=Ripped by Hellwings71" -8 -V %source%


TOC of the extracted CD

Track | Start | Length | Start sector | End sector
––––––––––––––––––––––––––––-
1 | 0:00.00 | 13:37.46 | 0 | 61320
2 | 13:37.46 | 5:36.11 | 61321 | 86531
3 | 19:13.57 | 3:47.56 | 86532 | 103612
4 | 23:01.38 | 4:00.47 | 103613 | 121659
5 | 27:02.10 | 4:27.63 | 121660 | 141747
6 | 31:29.73 | 4:21.40 | 141748 | 161362
7 | 35:51.38 | 4:01.51 | 161363 | 179488
8 | 39:53.14 | 4:49.72 | 179489 | 201235
9 | 44:43.11 | 13:52.05 | 201236 | 263640
10 | 58:35.16 | 5:21.50 | 263641 | 287765
11 | 63:56.66 | 5:43.41 | 287766 | 313531


Range status and errors

Selected range

Filename D:\Program Files\CD Images\Hellwings71\Helloween - United Alive In Madrid 2019 (3 CD) (Lossless)\CD1\Helloween - United Alive In Madrid (CD1).wav

Peak level 94.3 %
Extraction speed 5.0 X
Range quality 100.0 %
Test CRC E4CEDC25
Copy CRC E4CEDC25
Copy OK

No errors occurred


AccurateRip summary

Track 1 accurately ripped (confidence 9) [F070F741] (AR v2)
Track 2 accurately ripped (confidence 9) [E30CCD83] (AR v2)
Track 3 accurately ripped (confidence 9) [AA8983D1] (AR v2)
Track 4 accurately ripped (confidence 9) [8C0EDF36] (AR v2)
Track 5 accurately ripped (confidence 9) [A362C6CD] (AR v2)
Track 6 accurately ripped (confidence 9) [907A8AC3] (AR v2)
Track 7 accurately ripped (confidence 9) [095EE27E] (AR v2)
Track 8 accurately ripped (confidence 9) [C990979C] (AR v2)
Track 9 accurately ripped (confidence 9) [26107266] (AR v2)
Track 10 accurately ripped (confidence 9) [CA6C5D22] (AR v2)
Track 11 accurately ripped (confidence 9) [663E6699] (AR v2)

All tracks accurately ripped

End of status report

–– CUETools DB Plugin V2.1.6

[CTDB TOCID: 0GH_K979fn9bv8aP9fRBz6N6MXA-] found
Submit result: already submitted
Track | CTDB Status
1 | (87/87) Accurately ripped
2 | (87/87) Accurately ripped
3 | (87/87) Accurately ripped
4 | (87/87) Accurately ripped
5 | (87/87) Accurately ripped
6 | (87/87) Accurately ripped
7 | (87/87) Accurately ripped
8 | (87/87) Accurately ripped
9 | (87/87) Accurately ripped
10 | (87/87) Accurately ripped
11 | (83/87) Accurately ripped


==== Log checksum 0E917044C25214BB32934D8652D5EF0EBD9E5FCD9AAB66E799770ABA33E00978 ====

Track List CD2:

01. I Can (Live 2017) [4:57]
02. Living Ain't No Crime / A Little Time (Live 2017) [6:39]
03. Sole Survivor (Live 2017) [4:58]
04. Power (Live 2017) [4:11]
05. How Many Tears (Live 2017) [10:56]
06. Invitation / Eagle Fly Free (Live 2017) [7:13]
07. Keeper Of The Seven Keys (Live 2017) [17:03]
08. Future World (Live 2017) [5:36]
09. I Want Out (Live 2017) [8:48]

Exact Audio Copy V1.3 from 2. September 2016

EAC extraction logfile from 8. December 2019, 18:20

Helloween / United Alive In Madrid (CD2)

Used drive : PIONEER DVD-RW DVR-221 Adapter: 1 ID: 0

Read mode : Secure
Utilize accurate stream : Yes
Defeat audio cache : Yes
Make use of C2 pointers : No

Read offset correction : 6
Overread into Lead-In and Lead-Out : No
Fill up missing offset samples with silence : Yes
Delete leading and trailing silent blocks : No
Null samples used in CRC calculations : Yes
Used interface : Installed external ASPI interface

Used output format : User Defined Encoder
Selected bitrate : 1024 kBit/s
Quality : High
Add ID3 tag : No
Command line compressor : C:\Program Files\Exact Audio Copy\FLAC\FLAC.EXE
Additional command line options : -V -8 -T "Date=%year%" -T "Genre=%genre%" -T "COMMENT=Ripped by Hellwings71" -8 -V %source%


TOC of the extracted CD

Track | Start | Length | Start sector | End sector
––––––––––––––––––––––––––––-
1 | 0:00.00 | 4:57.18 | 0 | 22292
2 | 4:57.18 | 6:39.37 | 22293 | 52254
3 | 11:36.55 | 4:57.70 | 52255 | 74599
4 | 16:34.50 | 4:10.71 | 74600 | 93420
5 | 20:45.46 | 10:55.47 | 93421 | 142592
6 | 31:41.18 | 7:13.36 | 142593 | 175103
7 | 38:54.54 | 17:03.04 | 175104 | 251832
8 | 55:57.58 | 5:35.70 | 251833 | 277027
9 | 61:33.53 | 8:47.68 | 277028 | 316620


Range status and errors

Selected range

Filename D:\Program Files\CD Images\Hellwings71\Helloween - United Alive In Madrid 2019 (3 CD) (Lossless)\CD2\Helloween - United Alive In Madrid (CD2).wav

Peak level 94.3 %
Extraction speed 5.0 X
Range quality 100.0 %
Test CRC 826135F0
Copy CRC 826135F0
Copy OK

No errors occurred


AccurateRip summary

Track 1 accurately ripped (confidence 8) [A91B4668] (AR v2)
Track 2 accurately ripped (confidence 8) [2A007825] (AR v2)
Track 3 accurately ripped (confidence 8) [A2F258C9] (AR v2)
Track 4 accurately ripped (confidence 8) [8294C8DB] (AR v2)
Track 5 accurately ripped (confidence 8) [F10A116C] (AR v2)
Track 6 accurately ripped (confidence 8) [05D00BB3] (AR v2)
Track 7 accurately ripped (confidence 8) [1EB05F08] (AR v2)
Track 8 accurately ripped (confidence 8) [809A555A] (AR v2)
Track 9 accurately ripped (confidence 8) [F4D2E7EE] (AR v2)

All tracks accurately ripped

End of status report

–– CUETools DB Plugin V2.1.6

[CTDB TOCID: d5Z0IKng4FMdIvyBnu6izrsC1jw-] found
Submit result: d5Z0IKng4FMdIvyBnu6izrsC1jw- has been confirmed
Track | CTDB Status
1 | (83/83) Accurately ripped
2 | (83/83) Accurately ripped
3 | (83/83) Accurately ripped
4 | (83/83) Accurately ripped
5 | (83/83) Accurately ripped
6 | (83/83) Accurately ripped
7 | (82/83) Accurately ripped
8 | (82/83) Accurately ripped
9 | (81/83) Accurately ripped


==== Log checksum BD011BB092A1BE16A617CF0392CFB51C28E4F91C6D9CBA5D7811A6822D693E02 ====

Track List CD3:

01. March Of Time (Live 2018) [5:29]
02. Kids Of The Century (Live 2017) [4:02]
03. Why (Live 2017) [4:42]
04. Pumpkins United (Live 2018) [6:32]

Exact Audio Copy V1.3 from 2. September 2016

EAC extraction logfile from 8. December 2019, 19:09

Helloween / United Alive In Madrid (CD3)

Used drive : PIONEER DVD-RW DVR-221 Adapter: 1 ID: 0

Read mode : Secure
Utilize accurate stream : Yes
Defeat audio cache : Yes
Make use of C2 pointers : No

Read offset correction : 6
Overread into Lead-In and Lead-Out : No
Fill up missing offset samples with silence : Yes
Delete leading and trailing silent blocks : No
Null samples used in CRC calculations : Yes
Used interface : Installed external ASPI interface

Used output format : User Defined Encoder
Selected bitrate : 1024 kBit/s
Quality : High
Add ID3 tag : No
Command line compressor : C:\Program Files\Exact Audio Copy\FLAC\FLAC.EXE
Additional command line options : -V -8 -T "Date=%year%" -T "Genre=%genre%" -T "COMMENT=Ripped by Hellwings71" -8 -V %source%


TOC of the extracted CD

Track | Start | Length | Start sector | End sector
––––––––––––––––––––––––––––-
1 | 0:00.00 | 5:28.56 | 0 | 24655
2 | 5:28.56 | 4:01.44 | 24656 | 42774
3 | 9:30.25 | 4:42.21 | 42775 | 63945
4 | 14:12.46 | 6:31.60 | 63946 | 93330


Range status and errors

Selected range

Filename D:\Program Files\CD Images\Hellwings71\Helloween - United Alive In Madrid 2019 (3 CD) (Lossless)\CD3\Helloween - United Alive In Madrid (CD3).wav

Peak level 94.4 %
Extraction speed 3.6 X
Range quality 100.0 %
Test CRC 1CBAA534
Copy CRC 1CBAA534
Copy OK

No errors occurred


AccurateRip summary

Track 1 accurately ripped (confidence 7) [DAA33C7E] (AR v2)
Track 2 accurately ripped (confidence 7) [0B2D8AA4] (AR v2)
Track 3 accurately ripped (confidence 7) [B1F9A86D] (AR v2)
Track 4 accurately ripped (confidence 7) [CA059572] (AR v2)

All tracks accurately ripped

End of status report

–– CUETools DB Plugin V2.1.6

[CTDB TOCID: vy_.64ldmTAeTZDxoxdAOWhse9U-] found
Submit result: vy_.64ldmTAeTZDxoxdAOWhse9U- has been confirmed
Track | CTDB Status
1 | (81/81) Accurately ripped
2 | (81/81) Accurately ripped
3 | (81/81) Accurately ripped
4 | (81/81) Accurately ripped


==== Log checksum 7C6770AF757274173215DA0F98CC36525AE355B3752268499FECFD60BFEB2A6F ====



All thanks go to Hellwings71

>>> "Helloween" in my Blog <<<

DOWNLOAD: