Subcategories

Helmut Winschermann, Deutsche Bachsolisten - Bach: 13 Sacred Cantatas [5CDs] (1996)

Posted By: ArlegZ
Helmut Winschermann, Deutsche Bachsolisten - Bach: 13 Sacred Cantatas [5CDs] (1996)

Helmut Winschermann, Deutsche Bachsolisten - Bach: 13 Sacred Cantatas [5CDs] (1996)
EAC | FLAC | Image (Cue & Log) ~ 1.78 Gb | Total time: 5:52:39 | Scans included
Classical | Label: Philips | # 454 346-2 | Recorded: 1968-1972

Winschermann's approach to the cantatas is conservative; his tempos are usually well chosen, though sometimes a little on the slow side, and his phrasing inclines towards that smooth legato so much favoured by Helmuth Rilling… Cantatas Nos. 147 and 74…were issued in 1972 and I think, on balance, they are the two which best illustrate the strong points of Winschermann's approach. In Cantata No. 74, especially, there is some fine obbligato playing from the violinist, Saschko Gawriloff, from Don Smithers (trumpet), and from Winschermann himself (oboe da caccia). The soprano, Ileana Cotrubas, has a vocal colour which suits the music very well…
Elly Ameling and Maurice André are both on sparkling form in Cantata No. 51, "Jauchzet Gott in allen Landen"; I should have preferred a crisper approach to the opening movement but that is clearly not Winschermann's view of the piece. The finale trips along delightfully, in a nicely-judged tempo. The earliest of the recordings, dating from 1968, is of Cantata No. 151. It opens with a delicately scored lullaby in 12/8 for the new-born Christ. Agnes Giebel is the soloist and, although her voice was then past its best, her fine intuition and technique make this a haunting interpretation… Julia Hamari, Kurt Equiluz and Hermann Prey make a formidable team [in Cantatas 128 and 134] with Equiluz leading the field in matters of style…
…BWV191 [is] Bach's Latin Feast Music for Christmas Day. Its music belongs to the Gloria of the Mass in B minor, but the use of Latin words for a work intended for the Leipzig liturgy is unique amongst Bach's cantatas… It's a lively interpretation, as it ought to be… A welcome issue… – Gramophone

Performer:
Elly Ameling, soprano
Ileana Cotrubas, soprano
Agnes Giebel, soprano
Birgit Finnilä, contralto
Julia Hamari, contralto
Kurt Equiluz, tenor
Dieter Ellenbeck, tenor
Hermann Prey, bass
Gérard Souzay, bass
William Reimer, bass
Deutsche Bachsolisten
Helmut Winschermann, conductor

Track List:
CD1:
Gloria in Excelsis Deo, BWV 191
01. Coro: "Gloria in excelsis Deo"
02. Duetto (Post Orationem): "Gloria Patri"
03. Coro: "Sicut erat in principio"
Selig ist der Mann, BWV 57
04. Aria: "Selig ist der Mann"
05. Recitativo: "Ach, dieser süsse Trost erquickt"
06. Aria: "Ich wünschte mir den Tod"
07. Recitativo: "Ich reiche dir die Hand"
08. Aria: "Ja, ich kann die Feinde schlagen"
09. Recitativo: "In meinem Schoss liegt Ruh' und Leben"
10. Aria: "Ich ende behende mein irdisches Leben"
11. Choral: "Richte dich, Liebste, nach meinem Gefallen"
Süßer Trost, mein Jesus kömmt, BWV 151
12. Aria: "Süßer Trost, mein Jesu kommt"
13. Recitativo: "Erfreue dich, mein Herz"
14. Aria: "In Jesu Demut kann ich Trost"
15. Recitativo: "Du teurer Gottessohn, nun hast du mir den Himmel aufgemacht"
16. Choral: "Heut' schleusst er wieder auf die Tür"
Liebster Jesu, mein Verlangen, BWV 32
17. Aria: "Liebster Jesu, mein Verlangen"
18. Recitativo: "Was ist's dass du mich gesuchet"
19. Aria: "Hier, in meines Vaters Stätte"
20. Recitativo: "Ach, heiliger und grosser Gott"
21. Duetto: "Nun verschwinden alle Plagen"
22. Choral: "Mein Gott, öffne mir die Pforten"
CD2:
Ein Herz, das seinem Jesum lebend weiß, BWV 134
01. Recitavo: "Ein Herz das seinen Jesum lebend weiss"
02. Aria: "Auf Gläubige"
03. Recitativo: "Wohl dir, Gott hat an dich gedacht"
04. Aria (Duetto): "Wir danken, wir preisen dein brünstiges Lieben"
05. Recitativo: "Doch wirke selbst den Dank"
06. Coro: "Erschallet, ihr Himmel"
Auf Christi Himmelfahrt allein, BWV 128
07. Choral: "Auf Christi Himmelfahrt"
08. Recitativo: "Ich bin bereit, komm, hole mich"
09. Aria: "Auf, auf mit hellem Schall"
10. Aria (Duetto): "Sein Allmacht zu ergründen"
11. Choral: "Als dann so wirst du mich zu deiner Rechten stellen"
Wer mich liebet, der wird mein Wort halten, BWV 74
12. Coro: "Wer mich liebet, der wird mein Wort halten"
13. Aria: "Komm, mein Herze steht dir offen"
14. Recitativo: "Die Wohnung ist bereit"
15. Aria: "Ich gehe hin und komme wieder zu euch"
16. Aria: "Kommt! eilet"
17. Recitativo: "Es ist nichts Verdammliches an denen"
18. Aria: "Nichts kann mich erretten"
19. Choral: "Kein Menschenkind hier auf der Erd'"
CD3:
Erhöhtes Fleisch und Blut, BWV 173
01. Recitativo: "Erhöhtes Fleisch und Blut"
02. Aria: "Ein geheiligtes Gemüte"
03. Aria: "Gott will, o ihr Menschenkinder"
04. Aria (Duett): "So hat Gott die Welt geliebt"
05. Rectativo (Duett): "Unendlichster, den man doch Vater nennt"
06. Coro: "Rühre, Höchster, unsern Geist"
Herz und Mund und Tat und Leben, BWV 147
07. Coro: "Herz und Mund und Tat und Leben"
08. Recitativo: "Gebenedeiter Mund!"
09. Aria: "Schäme dich, o Seele nicht"
10. Recitativo: "Verstockung kann Gewaltige verblenden"
11. Aria: "Bereite dir, Jesu"
12. Choral: "Wohl mir, dass ich Jesum habe"
13. Aria: "Hilf, Jesu, hilf"
14. Recitativo: "Der höchsten Allmacht Wunderhand"
15. Aria: "Ich will von Jesu Wundern singen"
16. Choral: "Jesus bleibet meine Freude"
Jauchzet Gott in allen Landen, BWV 51
17. Aria: "Jauchzet Gott in allen Landen"
18. Recitativo: "Wir beten zu dem Tempel an"
19. Aria: "Höchster, Höchster mache deine Güte ferner alle Morgen neu"
20. Chorale: "Sei Lob und Preis mit Ehren"
21. Aria: "Alleluja"
CD4:
Mein Herze schwimmt im Blut, BWV 199
01. Recitativo: "Mein Herze schwimmt im Blut"
02. Aria: "Stumme Seufzer, stille Klagen"
03. Recitativo: "Doch Gott muss mir genädig sein"
04. Aria: "Tief gebückt und voller Reue"
05. Recitativo: "Auf diese Schmerzens Reu"
06. Chorale: "Ich Dein betrübtes Kind"
07. Recitativo: "Ich lege mich in diese Wunden"
08. Aria: "Wie freudig ist mein Herz"
Ich will den Kreuzstab gerne tragen, BWV 56
09. Aria: "Ich will den Kreuzstab gerne tragen"
10. Recitativo: "Mein Wandel auf der Welt"
11. Aria: "Endlich, endlich wird mein Joch"
12. Recitativo: "Ich stehe fertig und bereit"
13. Choral: "Komm, o Tod, du Schlafes Bruder"
Ich habe genug, BWV 82
14. Aria: "Ich habe genug, ich habe den Heiland"
15. Recitativo: "Ich habe genug! Mein Trost ist nur allein"
16. Aria: "Schlummert ein, ihr matten Augen"
17. Recitativo: "Mein Gott! wann kommt das schöne Nun!"
18. Aria: "Ich freue mich auf meinen Tod"
CD5:
01. Christmas Oratorio, BWV 248: Sinfonia
02. Vom Himmel hoch, BWV 738 - Choralbearbeitung für Orgelsolo
03. Christmas Oratorium, BWv 248: Ach, mein herzliebes Jesulein (Corale)
04. Herz und Mund und Tat und Leben: Wohl mir, daß ich Jesum habe (Corale)
05. Sie werden aus Saba alle kommen, BWV 65 - Die Kön'ge aus Saba (Corale)
06. In dulci jubilo, BWV 729 - Choralbearbeitung für Orgelsolo
07. In dulci jubilo, BWV 368 (Corale)
08. Wir danken dir Gott, wir danken dir, BWV 29: Sinfonia D-dur
09. Ich liebe den Höchsten von ganzem Gemüte, BWV 174: Sinfonia (Concerto) G-dur
10. Wer sucht die Pracht, wer wünscht den Glanz, BWV 221: Sinfonia D-dur
11. Falsche Welt, dir trau' ich nicht, BWV 52: Sinfonia F-dur
12. Nach dir, Herr, verlanget mich, BWV 150: Sinfonia h-moll
13. Uns ist ein Kind geboren, BWV 142: Concerto a-moll
14. Der Herr denket an uns, BWV 196: Sinfonia C-dur
15. Ich geh' und suche mit Verlangen, BWV 49: Sinfonia E-dur
16. Vereinigte Zwietracht der wechselnden Saiten, BWV 207: Marcia D-dur
17. Christ lag in Todesbanden, BWV 4: Sinfonia G-dur
18. Der Himmel lacht, die Erde jubilieret, BWV 31: Sonata C-dur
19. Wir müssen durch viel Trübsal in das Reich Gottes eingehen, BWV 146: Concerto d-moll
20. Gottes Zeit ist die allerbeste Zeit, BWV 146: Sonatina B-dur
21. Gott soll allein mein Herze haben, BWV 169: Sinfonia D-dur


Exact Audio Copy V1.3 from 2. September 2016

EAC extraction logfile from 3. February 2020, 14:12

Winschermann, Deutsche Bachsolisten et.al. / Bach-13 Sacred Cantatas CD-1

Used drive : ASUS BW-16D1X-U Adapter: 1 ID: 1

Read mode : Secure
Utilize accurate stream : Yes
Defeat audio cache : Yes
Make use of C2 pointers : No

Read offset correction : 667
Overread into Lead-In and Lead-Out : No
Fill up missing offset samples with silence : Yes
Delete leading and trailing silent blocks : No
Null samples used in CRC calculations : Yes
Used interface : Native Win32 interface for Win NT & 2000

Used output format : User Defined Encoder
Selected bitrate : 1024 kBit/s
Quality : High
Add ID3 tag : No
Command line compressor : C:\Program Files (x86)\Exact Audio Copy\FLAC\FLAC.EXE
Additional command line options : -6 -V -T "ARTIST=%artist%" -T "TITLE=%title%" -T "ALBUM=%albumtitle%" -T "DATE=%year%" -T "TRACKNUMBER=%tracknr%" -T "GENRE=%genre%" -T "COMMENT=%comment%" -T "BAND=%albuminterpret%" -T "ALBUMARTIST=%albuminterpret%" -T "COMPOSER=%composer%" %haslyrics%–tag-from-file=LYRICS="%lyricsfile%"%haslyrics% -T "DISCNUMBER=%cdnumber%" -T "TOTALDISCS=%totalcds%" -T "TOTALTRACKS=%numtracks%" %hascover%–picture="%coverfile%"%hascover% %source% -o %dest%


TOC of the extracted CD

Track | Start | Length | Start sector | End sector
––––––––––––––––––––––––––––-
1 | 0:00.32 | 6:04.00 | 32 | 27331
2 | 6:04.32 | 4:12.00 | 27332 | 46231
3 | 10:16.32 | 4:42.00 | 46232 | 67381
4 | 14:58.32 | 3:12.00 | 67382 | 81781
5 | 18:10.32 | 1:32.25 | 81782 | 88706
6 | 19:42.57 | 4:43.50 | 88707 | 109981
7 | 24:26.32 | 0:32.50 | 109982 | 112431
8 | 24:59.07 | 5:35.25 | 112432 | 137581
9 | 30:34.32 | 1:58.50 | 137582 | 146481
10 | 32:33.07 | 4:19.50 | 146482 | 165956
11 | 36:52.57 | 0:50.50 | 165957 | 169756
12 | 37:43.32 | 9:28.00 | 169757 | 212356
13 | 47:11.32 | 1:23.13 | 212357 | 218594
14 | 48:34.45 | 6:34.25 | 218595 | 248169
15 | 55:08.70 | 1:04.25 | 248170 | 252994
16 | 56:13.20 | 0:51.12 | 252995 | 256831
17 | 57:04.32 | 4:40.00 | 256832 | 277831
18 | 61:44.32 | 0:38.00 | 277832 | 280681
19 | 62:22.32 | 6:48.00 | 280682 | 311281
20 | 69:10.32 | 2:33.00 | 311282 | 322756
21 | 71:43.32 | 5:21.00 | 322757 | 346831
22 | 77:04.32 | 1:02.00 | 346832 | 351481


Range status and errors

Selected range

Filename D:\A-upload\Bach Cantatas Winschermann\CD-1\Bach-13 Sacred Cantatas CD-1.wav

Peak level 100.0 %
Extraction speed 7.8 X
Range quality 100.0 %
Test CRC 7703C021
Copy CRC 7703C021
Copy OK

No errors occurred


AccurateRip summary

Track 1 cannot be verified as accurate (confidence 5) [AAD1F0EC], AccurateRip returned [73037FEA] (AR v2)
Track 2 cannot be verified as accurate (confidence 5) [D36E4BA2], AccurateRip returned [BB57D7D7] (AR v2)
Track 3 cannot be verified as accurate (confidence 5) [2A26FB3A], AccurateRip returned [3EE38CF2] (AR v2)
Track 4 cannot be verified as accurate (confidence 5) [FA2D888B], AccurateRip returned [B8D26229] (AR v2)
Track 5 cannot be verified as accurate (confidence 5) [EFCA1D49], AccurateRip returned [205D1686] (AR v2)
Track 6 cannot be verified as accurate (confidence 5) [38CCFFDF], AccurateRip returned [7E17FF77] (AR v2)
Track 7 cannot be verified as accurate (confidence 5) [0E1CBAF9], AccurateRip returned [4E5393D7] (AR v2)
Track 8 cannot be verified as accurate (confidence 5) [1103EF29], AccurateRip returned [7C46990F] (AR v2)
Track 9 cannot be verified as accurate (confidence 5) [4AF96625], AccurateRip returned [6C2B18CC] (AR v2)
Track 10 cannot be verified as accurate (confidence 5) [07A29127], AccurateRip returned [1884F7D9] (AR v2)
Track 11 cannot be verified as accurate (confidence 5) [078A8DBE], AccurateRip returned [73A1117B] (AR v2)
Track 12 cannot be verified as accurate (confidence 5) [A08B28EB], AccurateRip returned [A56DC184] (AR v2)
Track 13 cannot be verified as accurate (confidence 5) [E0F127B1], AccurateRip returned [F8810829] (AR v2)
Track 14 cannot be verified as accurate (confidence 5) [4F03C788], AccurateRip returned [FCFBFD91] (AR v2)
Track 15 cannot be verified as accurate (confidence 5) [C2ACE8C8], AccurateRip returned [67D1E49D] (AR v2)
Track 16 cannot be verified as accurate (confidence 5) [56F067FF], AccurateRip returned [3457661B] (AR v2)
Track 17 cannot be verified as accurate (confidence 5) [7758C47D], AccurateRip returned [661016F9] (AR v2)
Track 18 cannot be verified as accurate (confidence 5) [70B895B6], AccurateRip returned [0491C7E1] (AR v2)
Track 19 cannot be verified as accurate (confidence 5) [1DE68BD8], AccurateRip returned [5F72C49B] (AR v2)
Track 20 cannot be verified as accurate (confidence 5) [602A80CC], AccurateRip returned [C27D4041] (AR v2)
Track 21 cannot be verified as accurate (confidence 5) [581F9D1C], AccurateRip returned [C39B9F5F] (AR v2)
Track 22 cannot be verified as accurate (confidence 5) [3C1245AD], AccurateRip returned [91EC1C4D] (AR v2)

No tracks could be verified as accurate
You may have a different pressing from the one(s) in the database

End of status report

–– CUETools DB Plugin V2.1.6

[CTDB TOCID: eq3ZJzI_qS7XoUCdalGx71zUYpU-] found
Submit result: eq3ZJzI_qS7XoUCdalGx71zUYpU- has been confirmed
Track | CTDB Status
1 | (7/7) Accurately ripped
2 | (7/7) Accurately ripped
3 | (7/7) Accurately ripped
4 | (7/7) Accurately ripped
5 | (7/7) Accurately ripped
6 | (7/7) Accurately ripped
7 | (7/7) Accurately ripped
8 | (7/7) Accurately ripped
9 | (7/7) Accurately ripped
10 | (7/7) Accurately ripped
11 | (7/7) Accurately ripped
12 | (7/7) Accurately ripped
13 | (7/7) Accurately ripped
14 | (7/7) Accurately ripped
15 | (7/7) Accurately ripped
16 | (7/7) Accurately ripped
17 | (7/7) Accurately ripped
18 | (7/7) Accurately ripped
19 | (7/7) Accurately ripped
20 | (7/7) Accurately ripped
21 | (7/7) Accurately ripped
22 | (7/7) Accurately ripped


==== Log checksum 6A0CA288037E1615724841BCE0F52ADCFE852E29221CE682BEB298DB22AA0781 ====


Exact Audio Copy V1.3 from 2. September 2016

EAC extraction logfile from 12. February 2020, 7:27

Winschermann, Deutsche Bachsolisten et.al. / Bach - 13 Sacred Cantatas - CD-2

Used drive : ASUS BW-16D1X-U Adapter: 1 ID: 1

Read mode : Secure
Utilize accurate stream : Yes
Defeat audio cache : Yes
Make use of C2 pointers : No

Read offset correction : 667
Overread into Lead-In and Lead-Out : No
Fill up missing offset samples with silence : Yes
Delete leading and trailing silent blocks : No
Null samples used in CRC calculations : Yes
Used interface : Native Win32 interface for Win NT & 2000

Used output format : User Defined Encoder
Selected bitrate : 1024 kBit/s
Quality : High
Add ID3 tag : No
Command line compressor : C:\Program Files (x86)\Exact Audio Copy\FLAC\FLAC.EXE
Additional command line options : -6 -V -T "ARTIST=%artist%" -T "TITLE=%title%" -T "ALBUM=%albumtitle%" -T "DATE=%year%" -T "TRACKNUMBER=%tracknr%" -T "GENRE=%genre%" -T "COMMENT=%comment%" -T "BAND=%albuminterpret%" -T "ALBUMARTIST=%albuminterpret%" -T "COMPOSER=%composer%" %haslyrics%–tag-from-file=LYRICS="%lyricsfile%"%haslyrics% -T "DISCNUMBER=%cdnumber%" -T "TOTALDISCS=%totalcds%" -T "TOTALTRACKS=%numtracks%" %hascover%–picture="%coverfile%"%hascover% %source% -o %dest%


TOC of the extracted CD

Track | Start | Length | Start sector | End sector
––––––––––––––––––––––––––––-
1 | 0:00.33 | 0:49.37 | 33 | 3744
2 | 0:49.70 | 6:28.38 | 3745 | 32882
3 | 7:18.33 | 3:01.62 | 32883 | 46519
4 | 10:20.20 | 9:20.13 | 46520 | 88532
5 | 19:40.33 | 2:26.00 | 88533 | 99482
6 | 22:06.33 | 8:01.37 | 99483 | 135594
7 | 30:07.70 | 5:00.00 | 135595 | 158094
8 | 35:07.70 | 0:51.00 | 158095 | 161919
9 | 35:58.70 | 3:49.63 | 161920 | 179157
10 | 39:48.58 | 6:38.12 | 179158 | 209019
11 | 46:26.70 | 1:08.50 | 209020 | 214169
12 | 47:35.45 | 3:52.63 | 214170 | 231632
13 | 51:28.33 | 2:55.00 | 231633 | 244757
14 | 54:23.33 | 0:56.25 | 244758 | 248982
15 | 55:19.58 | 2:55.00 | 248983 | 262107
16 | 58:14.58 | 5:51.50 | 262108 | 288482
17 | 64:06.33 | 0:32.00 | 288483 | 290882
18 | 64:38.33 | 5:42.62 | 290883 | 316594
19 | 70:21.20 | 1:10.13 | 316595 | 321857


Range status and errors

Selected range

Filename D:\A-upload\Bach Cantatas Winschermann\CD-2\Winschermann, Deutsche Bachsolisten et.al. - Bach - 13 Sacred Cantatas - CD-2.wav

Peak level 91.9 %
Extraction speed 7.6 X
Range quality 99.9 %
Test CRC 6B1E93F5
Copy CRC 6B1E93F5
Copy OK

No errors occurred


AccurateRip summary

Track 1 cannot be verified as accurate (confidence 5) [94101972], AccurateRip returned [7CCDDC31] (AR v2)
Track 2 cannot be verified as accurate (confidence 5) [5B77C85D], AccurateRip returned [1CFC3E80] (AR v2)
Track 3 cannot be verified as accurate (confidence 5) [41B0879C], AccurateRip returned [7DACC712] (AR v2)
Track 4 cannot be verified as accurate (confidence 5) [C5805819], AccurateRip returned [AC1CBE0C] (AR v2)
Track 5 cannot be verified as accurate (confidence 5) [79ECA9D4], AccurateRip returned [682A4D7D] (AR v2)
Track 6 cannot be verified as accurate (confidence 5) [D7932F39], AccurateRip returned [BC32F871] (AR v2)
Track 7 cannot be verified as accurate (confidence 5) [228759E0], AccurateRip returned [1E5AC5DD] (AR v2)
Track 8 cannot be verified as accurate (confidence 5) [8C89E443], AccurateRip returned [990E260D] (AR v2)
Track 9 cannot be verified as accurate (confidence 5) [7A40D967], AccurateRip returned [DC845126] (AR v2)
Track 10 cannot be verified as accurate (confidence 5) [F77B5C72], AccurateRip returned [5EB39EA3] (AR v2)
Track 11 cannot be verified as accurate (confidence 5) [EE45932D], AccurateRip returned [38B99884] (AR v2)
Track 12 cannot be verified as accurate (confidence 5) [7C7E4FA2], AccurateRip returned [003491CA] (AR v2)
Track 13 cannot be verified as accurate (confidence 5) [97ADE516], AccurateRip returned [FE0BA34E] (AR v2)
Track 14 cannot be verified as accurate (confidence 5) [AEF74D25], AccurateRip returned [746436AB] (AR v2)
Track 15 cannot be verified as accurate (confidence 5) [FAADB6EA], AccurateRip returned [E1F33568] (AR v2)
Track 16 cannot be verified as accurate (confidence 5) [319C2FD3], AccurateRip returned [BFAA92E9] (AR v2)
Track 17 cannot be verified as accurate (confidence 5) [251F1184], AccurateRip returned [F2694F96] (AR v2)
Track 18 cannot be verified as accurate (confidence 5) [01496879], AccurateRip returned [F2FE3C5B] (AR v2)
Track 19 cannot be verified as accurate (confidence 5) [CBC64DAE], AccurateRip returned [E6FFE73C] (AR v2)

No tracks could be verified as accurate
You may have a different pressing from the one(s) in the database

End of status report

–– CUETools DB Plugin V2.1.6

[CTDB TOCID: inFiohSKpx.Uy.Ge_2uUAPiud78-] found
Submit result: inFiohSKpx.Uy.Ge_2uUAPiud78- has been confirmed
Track | CTDB Status
1 | (7/7) Accurately ripped
2 | (7/7) Accurately ripped
3 | (7/7) Accurately ripped
4 | (7/7) Accurately ripped
5 | (7/7) Accurately ripped
6 | (7/7) Accurately ripped
7 | (7/7) Accurately ripped
8 | (7/7) Accurately ripped
9 | (7/7) Accurately ripped
10 | (7/7) Accurately ripped
11 | (7/7) Accurately ripped
12 | (7/7) Accurately ripped
13 | (7/7) Accurately ripped
14 | (7/7) Accurately ripped
15 | (7/7) Accurately ripped
16 | (7/7) Accurately ripped
17 | (7/7) Accurately ripped
18 | (7/7) Accurately ripped
19 | (7/7) Accurately ripped


==== Log checksum 9D24C06B532F59F27A4F977C540333DF3FEB95D5DB8D26563C775B6E09071707 ====


Exact Audio Copy V1.3 from 2. September 2016

EAC extraction logfile from 12. February 2020, 10:05

Winschermann, Deutsche Bachsolisten et.al. / Bach - 13 Sacred Cantatas - CD-3

Used drive : ASUS BW-16D1X-U Adapter: 1 ID: 1

Read mode : Secure
Utilize accurate stream : Yes
Defeat audio cache : Yes
Make use of C2 pointers : No

Read offset correction : 667
Overread into Lead-In and Lead-Out : No
Fill up missing offset samples with silence : Yes
Delete leading and trailing silent blocks : No
Null samples used in CRC calculations : Yes
Used interface : Native Win32 interface for Win NT & 2000

Used output format : User Defined Encoder
Selected bitrate : 1024 kBit/s
Quality : High
Add ID3 tag : No
Command line compressor : C:\Program Files (x86)\Exact Audio Copy\FLAC\FLAC.EXE
Additional command line options : -6 -V -T "ARTIST=%artist%" -T "TITLE=%title%" -T "ALBUM=%albumtitle%" -T "DATE=%year%" -T "TRACKNUMBER=%tracknr%" -T "GENRE=%genre%" -T "COMMENT=%comment%" -T "BAND=%albuminterpret%" -T "ALBUMARTIST=%albuminterpret%" -T "COMPOSER=%composer%" %haslyrics%–tag-from-file=LYRICS="%lyricsfile%"%haslyrics% -T "DISCNUMBER=%cdnumber%" -T "TOTALDISCS=%totalcds%" -T "TOTALTRACKS=%numtracks%" %hascover%–picture="%coverfile%"%hascover% %source% -o %dest%


TOC of the extracted CD

Track | Start | Length | Start sector | End sector
––––––––––––––––––––––––––––-
1 | 0:00.33 | 0:42.12 | 33 | 3194
2 | 0:42.45 | 4:10.63 | 3195 | 22007
3 | 4:53.33 | 1:45.00 | 22008 | 29882
4 | 6:38.33 | 3:53.00 | 29883 | 47357
5 | 10:31.33 | 1:33.00 | 47358 | 54332
6 | 12:04.33 | 2:46.00 | 54333 | 66782
7 | 14:50.33 | 4:26.00 | 66783 | 86732
8 | 19:16.33 | 1:37.50 | 86733 | 94057
9 | 20:54.08 | 4:39.25 | 94058 | 115007
10 | 25:33.33 | 1:35.25 | 115008 | 122157
11 | 27:08.58 | 4:24.50 | 122158 | 142007
12 | 31:33.33 | 3:27.00 | 142008 | 157532
13 | 35:00.33 | 3:20.00 | 157533 | 172532
14 | 38:20.33 | 2:59.00 | 172533 | 185957
15 | 41:19.33 | 2:46.00 | 185958 | 198407
16 | 44:05.33 | 3:27.00 | 198408 | 213932
17 | 47:32.33 | 4:46.00 | 213933 | 235382
18 | 52:18.33 | 2:33.12 | 235383 | 246869
19 | 54:51.45 | 4:25.63 | 246870 | 266807
20 | 59:17.33 | 3:40.05 | 266808 | 283312
21 | 62:57.38 | 2:25.70 | 283313 | 294257


Range status and errors

Selected range

Filename D:\A-upload\Bach Cantatas Winschermann\CD-3\Winschermann, Deutsche Bachsolisten et.al. - Bach - 13 Sacred Cantatas - CD-3.wav

Peak level 97.6 %
Extraction speed 7.6 X
Range quality 100.0 %
Test CRC 999910F7
Copy CRC 999910F7
Copy OK

No errors occurred


AccurateRip summary

Track 1 cannot be verified as accurate (confidence 5) [5F8D1278], AccurateRip returned [2EAD1ADF] (AR v2)
Track 2 cannot be verified as accurate (confidence 5) [3DABE299], AccurateRip returned [B486AA8F] (AR v2)
Track 3 cannot be verified as accurate (confidence 5) [9E17537B], AccurateRip returned [764DA754] (AR v2)
Track 4 cannot be verified as accurate (confidence 5) [411A236D], AccurateRip returned [06455769] (AR v2)
Track 5 cannot be verified as accurate (confidence 5) [2F05D1DD], AccurateRip returned [0C8FF7FF] (AR v2)
Track 6 cannot be verified as accurate (confidence 5) [117A2B55], AccurateRip returned [5B272167] (AR v2)
Track 7 cannot be verified as accurate (confidence 5) [D5D2BEED], AccurateRip returned [1BE6D5CF] (AR v2)
Track 8 cannot be verified as accurate (confidence 5) [09F1F2F8], AccurateRip returned [F1D0C00F] (AR v2)
Track 9 cannot be verified as accurate (confidence 5) [3318E768], AccurateRip returned [34F890EA] (AR v2)
Track 10 cannot be verified as accurate (confidence 5) [1FB1F8F1], AccurateRip returned [C484AF87] (AR v2)
Track 11 cannot be verified as accurate (confidence 5) [8E9B935A], AccurateRip returned [A0FE31B5] (AR v2)
Track 12 cannot be verified as accurate (confidence 5) [1089A999], AccurateRip returned [648EE0BD] (AR v2)
Track 13 cannot be verified as accurate (confidence 5) [210F5B13], AccurateRip returned [E0AE7F8A] (AR v2)
Track 14 cannot be verified as accurate (confidence 5) [306FC5DA], AccurateRip returned [5E50998F] (AR v2)
Track 15 cannot be verified as accurate (confidence 5) [173A0D7D], AccurateRip returned [231CBDFA] (AR v2)
Track 16 cannot be verified as accurate (confidence 5) [66C11BC8], AccurateRip returned [196AA20A] (AR v2)
Track 17 cannot be verified as accurate (confidence 5) [B8C55F51], AccurateRip returned [4F5C478F] (AR v2)
Track 18 cannot be verified as accurate (confidence 5) [18B2D025], AccurateRip returned [BC64B0F4] (AR v2)
Track 19 cannot be verified as accurate (confidence 5) [35329A8B], AccurateRip returned [B4AC2930] (AR v2)
Track 20 cannot be verified as accurate (confidence 5) [E82F944A], AccurateRip returned [2727C75E] (AR v2)
Track 21 cannot be verified as accurate (confidence 5) [1C26CE99], AccurateRip returned [70024CCD] (AR v2)

No tracks could be verified as accurate
You may have a different pressing from the one(s) in the database

End of status report

–– CUETools DB Plugin V2.1.6

[CTDB TOCID: 3YSQPy9c6IvL2Rk0Wl0SjeZli5o-] found
Submit result: 3YSQPy9c6IvL2Rk0Wl0SjeZli5o- has been confirmed
Track | CTDB Status
1 | (7/7) Accurately ripped
2 | (7/7) Accurately ripped
3 | (7/7) Accurately ripped
4 | (7/7) Accurately ripped
5 | (7/7) Accurately ripped
6 | (7/7) Accurately ripped
7 | (7/7) Accurately ripped
8 | (7/7) Accurately ripped
9 | (7/7) Accurately ripped
10 | (7/7) Accurately ripped
11 | (7/7) Accurately ripped
12 | (7/7) Accurately ripped
13 | (7/7) Accurately ripped
14 | (7/7) Accurately ripped
15 | (7/7) Accurately ripped
16 | (7/7) Accurately ripped
17 | (7/7) Accurately ripped
18 | (7/7) Accurately ripped
19 | (7/7) Accurately ripped
20 | (7/7) Accurately ripped
21 | (7/7) Accurately ripped


==== Log checksum 9E1D8CF216888CAA11AA20E7153DC79790C83C6041782210043634831DD629A2 ====


Exact Audio Copy V1.3 from 2. September 2016

EAC extraction logfile from 12. February 2020, 10:52

Winschermann, Deutsche Bachsolisten et.al. / Bach- - 13 Sacred Cantatas - CD-4

Used drive : ASUS BW-16D1X-U Adapter: 1 ID: 1

Read mode : Secure
Utilize accurate stream : Yes
Defeat audio cache : Yes
Make use of C2 pointers : No

Read offset correction : 667
Overread into Lead-In and Lead-Out : No
Fill up missing offset samples with silence : Yes
Delete leading and trailing silent blocks : No
Null samples used in CRC calculations : Yes
Used interface : Native Win32 interface for Win NT & 2000

Used output format : User Defined Encoder
Selected bitrate : 1024 kBit/s
Quality : High
Add ID3 tag : No
Command line compressor : C:\Program Files (x86)\Exact Audio Copy\FLAC\FLAC.EXE
Additional command line options : -6 -V -T "ARTIST=%artist%" -T "TITLE=%title%" -T "ALBUM=%albumtitle%" -T "DATE=%year%" -T "TRACKNUMBER=%tracknr%" -T "GENRE=%genre%" -T "COMMENT=%comment%" -T "BAND=%albuminterpret%" -T "ALBUMARTIST=%albuminterpret%" -T "COMPOSER=%composer%" %haslyrics%–tag-from-file=LYRICS="%lyricsfile%"%haslyrics% -T "DISCNUMBER=%cdnumber%" -T "TOTALDISCS=%totalcds%" -T "TOTALTRACKS=%numtracks%" %hascover%–picture="%coverfile%"%hascover% %source% -o %dest%


TOC of the extracted CD

Track | Start | Length | Start sector | End sector
––––––––––––––––––––––––––––-
1 | 0:00.33 | 2:05.00 | 33 | 9407
2 | 2:05.33 | 8:28.00 | 9408 | 47507
3 | 10:33.33 | 1:19.25 | 47508 | 53457
4 | 11:52.58 | 9:19.50 | 53458 | 95432
5 | 21:12.33 | 0:17.62 | 95433 | 96769
6 | 21:30.20 | 1:59.13 | 96770 | 105707
7 | 23:29.33 | 0:50.12 | 105708 | 109469
8 | 24:19.45 | 2:10.63 | 109470 | 119282
9 | 26:30.33 | 8:08.00 | 119283 | 155882
10 | 34:38.33 | 2:22.15 | 155883 | 166547
11 | 37:00.48 | 7:24.60 | 166548 | 199907
12 | 44:25.33 | 2:00.00 | 199908 | 208907
13 | 46:25.33 | 1:21.00 | 208908 | 214982
14 | 47:46.33 | 8:07.00 | 214983 | 251507
15 | 55:53.33 | 1:34.50 | 251508 | 258607
16 | 57:28.08 | 7:15.25 | 258608 | 291257
17 | 64:43.33 | 1:02.67 | 291258 | 295974
18 | 65:46.25 | 4:05.08 | 295975 | 314357


Range status and errors

Selected range

Filename D:\A-upload\Bach Cantatas Winschermann\CD-4\Winschermann, Deutsche Bachsolisten et.al. - Bach- - 13 Sacred Cantatas - CD-4.wav

Peak level 100.0 %
Extraction speed 7.7 X
Range quality 100.0 %
Test CRC 6464D958
Copy CRC 6464D958
Copy OK

No errors occurred


AccurateRip summary

Track 1 cannot be verified as accurate (confidence 5) [3A79557A], AccurateRip returned [659EC506] (AR v2)
Track 2 cannot be verified as accurate (confidence 4) [4ABF6399], AccurateRip returned [C050D810] (AR v2)
Track 3 cannot be verified as accurate (confidence 5) [731BB791], AccurateRip returned [2E3CF501] (AR v2)
Track 4 cannot be verified as accurate (confidence 5) [380B0C54], AccurateRip returned [F4A08404] (AR v2)
Track 5 cannot be verified as accurate (confidence 5) [1914B2C9], AccurateRip returned [43072530] (AR v2)
Track 6 cannot be verified as accurate (confidence 5) [6879F3C9], AccurateRip returned [814545E3] (AR v2)
Track 7 cannot be verified as accurate (confidence 5) [4D4EB637], AccurateRip returned [11B977CF] (AR v2)
Track 8 cannot be verified as accurate (confidence 5) [AE71FF3A], AccurateRip returned [6C20B748] (AR v2)
Track 9 cannot be verified as accurate (confidence 5) [2AEBEAFF], AccurateRip returned [6451D741] (AR v2)
Track 10 cannot be verified as accurate (confidence 5) [2CF757A0], AccurateRip returned [10B990B0] (AR v2)
Track 11 cannot be verified as accurate (confidence 5) [00F75F24], AccurateRip returned [AE44F965] (AR v2)
Track 12 cannot be verified as accurate (confidence 5) [77C1519B], AccurateRip returned [21A8C3D4] (AR v2)
Track 13 cannot be verified as accurate (confidence 5) [B839E1CA], AccurateRip returned [0C1AEE73] (AR v2)
Track 14 cannot be verified as accurate (confidence 5) [B97502B2], AccurateRip returned [7D906A7B] (AR v2)
Track 15 cannot be verified as accurate (confidence 5) [A9BDCD65], AccurateRip returned [410F33C5] (AR v2)
Track 16 cannot be verified as accurate (confidence 5) [67DEC762], AccurateRip returned [BE1F3DA4] (AR v2)
Track 17 cannot be verified as accurate (confidence 5) [F8F56235], AccurateRip returned [1F535002] (AR v2)
Track 18 cannot be verified as accurate (confidence 5) [D59013AA], AccurateRip returned [E1030D2D] (AR v2)

No tracks could be verified as accurate
You may have a different pressing from the one(s) in the database

End of status report

–– CUETools DB Plugin V2.1.6

[CTDB TOCID: OugOtgW_gLtI2dZH9XtSjLwS_30-] found
Submit result: OugOtgW_gLtI2dZH9XtSjLwS_30- has been confirmed
Track | CTDB Status
1 | (7/7) Accurately ripped
2 | (7/7) Accurately ripped
3 | (7/7) Accurately ripped
4 | (7/7) Accurately ripped
5 | (7/7) Accurately ripped
6 | (7/7) Accurately ripped
7 | (7/7) Accurately ripped
8 | (7/7) Accurately ripped
9 | (7/7) Accurately ripped
10 | (7/7) Accurately ripped
11 | (7/7) Accurately ripped
12 | (7/7) Accurately ripped
13 | (7/7) Accurately ripped
14 | (7/7) Accurately ripped
15 | (7/7) Accurately ripped
16 | (7/7) Accurately ripped
17 | (7/7) Accurately ripped
18 | (7/7) Accurately ripped


==== Log checksum 06524B19DE914468E564F2BFD9893FF45F66174015241026298812F4F24EBF14 ====


Exact Audio Copy V1.3 from 2. September 2016

EAC extraction logfile from 12. February 2020, 13:15

Winschermann, Deutsche Bachsolisten et.al. / Bach - 13 Sacred Cantatas - CD-5

Used drive : ASUS BW-16D1X-U Adapter: 1 ID: 1

Read mode : Secure
Utilize accurate stream : Yes
Defeat audio cache : Yes
Make use of C2 pointers : No

Read offset correction : 667
Overread into Lead-In and Lead-Out : No
Fill up missing offset samples with silence : Yes
Delete leading and trailing silent blocks : No
Null samples used in CRC calculations : Yes
Used interface : Native Win32 interface for Win NT & 2000

Used output format : User Defined Encoder
Selected bitrate : 1024 kBit/s
Quality : High
Add ID3 tag : No
Command line compressor : C:\Program Files (x86)\Exact Audio Copy\FLAC\FLAC.EXE
Additional command line options : -6 -V -T "ARTIST=%artist%" -T "TITLE=%title%" -T "ALBUM=%albumtitle%" -T "DATE=%year%" -T "TRACKNUMBER=%tracknr%" -T "GENRE=%genre%" -T "COMMENT=%comment%" -T "BAND=%albuminterpret%" -T "ALBUMARTIST=%albuminterpret%" -T "COMPOSER=%composer%" %haslyrics%–tag-from-file=LYRICS="%lyricsfile%"%haslyrics% -T "DISCNUMBER=%cdnumber%" -T "TOTALDISCS=%totalcds%" -T "TOTALTRACKS=%numtracks%" %hascover%–picture="%coverfile%"%hascover% %source% -o %dest%


TOC of the extracted CD

Track | Start | Length | Start sector | End sector
––––––––––––––––––––––––––––-
1 | 0:00.32 | 6:26.00 | 32 | 28981
2 | 6:26.32 | 1:24.00 | 28982 | 35281
3 | 7:50.32 | 1:25.00 | 35282 | 41656
4 | 9:15.32 | 3:44.00 | 41657 | 58456
5 | 12:59.32 | 1:34.00 | 58457 | 65506
6 | 14:33.32 | 2:09.00 | 65507 | 75181
7 | 16:42.32 | 2:22.00 | 75182 | 85831
8 | 19:04.32 | 3:37.00 | 85832 | 102106
9 | 22:41.32 | 6:27.00 | 102107 | 131131
10 | 29:08.32 | 2:19.00 | 131132 | 141556
11 | 31:27.32 | 4:22.00 | 141557 | 161206
12 | 35:49.32 | 1:50.00 | 161207 | 169456
13 | 37:39.32 | 1:46.00 | 169457 | 177406
14 | 39:25.32 | 2:02.00 | 177407 | 186556
15 | 41:27.32 | 6:58.00 | 186557 | 217906
16 | 48:25.32 | 2:12.00 | 217907 | 227806
17 | 50:37.32 | 1:35.00 | 227807 | 234931
18 | 52:12.32 | 2:49.00 | 234932 | 247606
19 | 55:01.32 | 7:59.00 | 247607 | 283531
20 | 63:00.32 | 2:31.00 | 283532 | 294856
21 | 65:31.32 | 7:49.00 | 294857 | 330031


Range status and errors

Selected range

Filename D:\A-upload\Bach Cantatas Winschermann\CD-5\Winschermann, Deutsche Bachsolisten et.al. - Bach - 13 Sacred Cantatas - CD-5.wav

Peak level 100.0 %
Extraction speed 7.7 X
Range quality 100.0 %
Test CRC 45FF3DDC
Copy CRC 45FF3DDC
Copy OK

No errors occurred


AccurateRip summary

Track 1 cannot be verified as accurate (confidence 5) [4CA2D8D0], AccurateRip returned [390DD6F3] (AR v2)
Track 2 cannot be verified as accurate (confidence 5) [8081EF5B], AccurateRip returned [AD08339A] (AR v2)
Track 3 cannot be verified as accurate (confidence 5) [6FDB3BFF], AccurateRip returned [A5B637B1] (AR v2)
Track 4 cannot be verified as accurate (confidence 5) [21DB22D7], AccurateRip returned [23776B96] (AR v2)
Track 5 cannot be verified as accurate (confidence 5) [21878DCC], AccurateRip returned [7BB07A19] (AR v2)
Track 6 cannot be verified as accurate (confidence 5) [90618482], AccurateRip returned [4877B041] (AR v2)
Track 7 cannot be verified as accurate (confidence 5) [495692CE], AccurateRip returned [93124592] (AR v2)
Track 8 cannot be verified as accurate (confidence 5) [F1B46DDC], AccurateRip returned [385CD7B3] (AR v2)
Track 9 cannot be verified as accurate (confidence 5) [DCFE4A30], AccurateRip returned [66225A7A] (AR v2)
Track 10 cannot be verified as accurate (confidence 5) [B03EA409], AccurateRip returned [9F904EF1] (AR v2)
Track 11 cannot be verified as accurate (confidence 5) [F1D94E84], AccurateRip returned [A336DC1F] (AR v2)
Track 12 cannot be verified as accurate (confidence 5) [139EBE4F], AccurateRip returned [CE479DFF] (AR v2)
Track 13 cannot be verified as accurate (confidence 5) [20047300], AccurateRip returned [16480ACF] (AR v2)
Track 14 cannot be verified as accurate (confidence 5) [8EEC1081], AccurateRip returned [3C770E0C] (AR v2)
Track 15 cannot be verified as accurate (confidence 5) [AC191DBF], AccurateRip returned [D688B906] (AR v2)
Track 16 cannot be verified as accurate (confidence 5) [C6DCEC4B], AccurateRip returned [DC9AD246] (AR v2)
Track 17 cannot be verified as accurate (confidence 5) [18C5ACF9], AccurateRip returned [5181EEBF] (AR v2)
Track 18 cannot be verified as accurate (confidence 5) [790E421B], AccurateRip returned [36AAD820] (AR v2)
Track 19 cannot be verified as accurate (confidence 5) [35334861], AccurateRip returned [BEA8DA24] (AR v2)
Track 20 cannot be verified as accurate (confidence 5) [58677363], AccurateRip returned [C0E0290A] (AR v2)
Track 21 cannot be verified as accurate (confidence 5) [B3A55298], AccurateRip returned [956D0D5B] (AR v2)

No tracks could be verified as accurate
You may have a different pressing from the one(s) in the database

End of status report

–– CUETools DB Plugin V2.1.6

[CTDB TOCID: pXSehY0HhDgheplhI8i4fbaBVXo-] found
Submit result: pXSehY0HhDgheplhI8i4fbaBVXo- has been confirmed
Track | CTDB Status
1 | (7/7) Accurately ripped
2 | (7/7) Accurately ripped
3 | (7/7) Accurately ripped
4 | (7/7) Accurately ripped
5 | (7/7) Accurately ripped
6 | (7/7) Accurately ripped
7 | (7/7) Accurately ripped
8 | (7/7) Accurately ripped
9 | (7/7) Accurately ripped
10 | (7/7) Accurately ripped
11 | (7/7) Accurately ripped
12 | (7/7) Accurately ripped
13 | (7/7) Accurately ripped
14 | (7/7) Accurately ripped
15 | (7/7) Accurately ripped
16 | (7/7) Accurately ripped
17 | (7/7) Accurately ripped
18 | (7/7) Accurately ripped
19 | (7/7) Accurately ripped
20 | (7/7) Accurately ripped
21 | (7/7) Accurately ripped


==== Log checksum 7873641338EA2396F142BE17A2E2F032AA051AB6A3446D08906A845ED0BE40C1 ====

Helmut Winschermann, Deutsche Bachsolisten - Bach: 13 Sacred Cantatas [5CDs] (1996)

Thanks to the original releaser