Subcategories

Henry Mancini And His Orchestra - Mancini In Hollywood: Mr. Lucky And Other Film & TV Greats (1993) [Dolby Surround]

Posted By: flac jacket
Henry Mancini And His Orchestra - Mancini In Hollywood: Mr. Lucky And Other Film & TV Greats (1993) [Dolby Surround]

Henry Mancini And His Orchestra - Mancini In Hollywood: Mr. Lucky And Other Film & TV Greats (1993) [Dolby Surround]
EAC Secure Rip | FLAC (Image + Cue + Log) - 284 MB | Complete Scans (Jpeg 600 dpi) - 54.2 MB | MP3 (CBR320 Kbps) - 135 MB
Film Score, Soundtrack, Easy Listening | BMG Music | 09026-61517-2 | 55:37 minutes | 5% WinRar Recovery | Hosted on: Uploaded & FilePost


________________________________________________________


Henry Mancini enjoyed great success in every field he has entered, but one of his most satisfying endeavors has been his concert touring. Performing with major orchestras all across the country, he always plays to sold-out audiences. To quote his 1989 autobiography Did They Mention The Music?: "I like presenting the music directly to people."

This release is one of two volumes of Mr. Mancini's concert arrangements of material that are now available on compact disc and cassette. Both volumes were assembled from three concert albums that Mr. Mancini recorded for RCA Victor in 1964, 1967 and 1971. In addition, a compilation of his recordings with the Philadelphia and London Symphony Orchestras will be released shortly, so that, for the first time, all of this type of his recordings made for the RCA label will be available on CD.

Newly remixed from available two-, three- and four-track tapes for Dolby Surround, this release allows a similarly-equipped listener the chance to experience the same hall acoustics heard during the recording of these albums, and presents a quality of sound superior to the original vinyl album. The critical listener will also note that current digital technology can reveal the limitations of the analog source material, and that radical restoration methods were not attempted, in order to preserve the full-frequency content of the original recordings.

Of special interest in this volume are his tributes to other Hollywood composers in his Academy Awards Selections and his very popular Peter Gunn Meets Mr. Lucky suite. As millions of fans can attest, it can all be said in three words: Mancini, Majestic, Marvelous! - Al Lutz

Exact Audio Copy V1.0 beta 2 from 29. April 2011

EAC extraction logfile from 11. February 2013, 19:24

Henry Mancini / Mancini In Hollywood

Used drive : HL-DT-STDVDRAM GH60N Adapter: 0 ID: 1

Read mode : Secure
Utilize accurate stream : Yes
Defeat audio cache : Yes
Make use of C2 pointers : No

Read offset correction : 667
Overread into Lead-In and Lead-Out : No
Fill up missing offset samples with silence : Yes
Delete leading and trailing silent blocks : No
Null samples used in CRC calculations : Yes
Used interface : Native Win32 interface for Win NT & 2000

Used output format : User Defined Encoder
Selected bitrate : 1024 kBit/s
Quality : High
Add ID3 tag : No
Command line compressor : C:\Program Files (x86)\Exact Audio Copy\Flac\flac.exe
Additional command line options : -V -5 -T "artist=%albumartist%" -T "title=%title%" -T "album=%albumtitle%" -T "date=%year%" -T "genre=%genre%" -T

"tracknumber=%tracknr%" %source%


TOC of the extracted CD

Track | Start | Length | Start sector | End sector
––––––––––––––––––––––––––––-
1 | 0:00.37 | 10:48.15 | 37 | 48651
2 | 10:48.52 | 10:47.43 | 48652 | 97219
3 | 21:36.20 | 13:12.25 | 97220 | 156644
4 | 34:48.45 | 11:09.22 | 156645 | 206841
5 | 45:57.67 | 10:20.15 | 206842 | 253356


Range status and errors

Selected range

Filename C:\EAC\Henry Mancini And His Orchestra - (1993) Mancini In Hollywood [Dolby Surround]\Henry Mancini - Mancini In Hollywood.wav

Peak level 91.2 %
Extraction speed 1.7 X
Range quality 99.9 %
Test CRC 089B451A
Copy CRC 089B451A
Copy OK

No errors occurred


AccurateRip summary

Track 1 not present in database
Track 2 cannot be verified as accurate (confidence 1) [C7324737], AccurateRip returned [3EC05066] (AR v2)
Track 3 cannot be verified as accurate (confidence 1) [37BF6A07], AccurateRip returned [6AC0346F] (AR v2)
Track 4 cannot be verified as accurate (confidence 1) [1D7729DF], AccurateRip returned [1CC24529] (AR v2)
Track 5 cannot be verified as accurate (confidence 1) [EACB5F45], AccurateRip returned [2E9E0F08] (AR v2)

4 track(s) could not be verified as accurate
1 track(s) not present in the AccurateRip database

No tracks could be verified as accurate
You may have a different pressing from the one(s) in the database

End of status report

==== Log checksum 465C8E5A75C2C621094E4D02B3A05D31B246789C0F2BA342AE961245FCA0CD7D ====


Track Listing:

01. ACADEMY AWARDS SELECTIONS (BEST SONG WINNERS) 10:34
- Never On Sunday (1960)
- High Noon (1952)
- Over The Rainbow (1939) from The Wizard Of Oz
- Buttons And Bows (1948) from The Paleface
- Love Is A Many-Splendored Thing (1955)
- Three Coins In The Fountain (1954)
- Moon River (1961) from Breakfast At Tiffany's

02. FOREIGN FILM FESTIVAL 10:36
- Born Free
- The Song From Moulin Rouge (Where Is Your Heart?)
- More From Mondo Cane
- Samba De Orfeu From Black Orpheus
- Theme From Zorba The Greek
- I Will Wait For You From The Umbrellas Of Cherbourg

03. MUSIC FROM HOLLYWOOD 13:00
- Exodus
- The Man With The Golden Arm (Main Title Theme)
- Hi-Lili, Hi-Lo From Lili
- Somewhere, My Love (Lara's Theme) From Dr. Zhivago
- Conquest From Captain From Castile
- Laura

04. PETER GUNN MEETS MR. LUCKY 10:55
- Mr. Lucky - Lightly Latin - Dreamsville - Timothy
March Of The Cue Balls - Joanna - My Friend Andamo - Peter Gunn

05. THE MUSIC OF DAVID ROSE 10:12
- Holiday For Strings - One Love - American Hoe Down
Manhattan Square Dance - The Stripper - California Melodies
Dance Of The Spanish Onion - Our Watlz


All arrangements by: Mr. Mancini
Produced by: Joe Reisman
Digital Re-mastering and Dolby Surround Remix: Robert S. Warren
Additional Engineering: Ted Trewhella
Digital Master Assembly: Nathaniel S. Johnson
Art Director: J.J. Stemach
Design: Gina Bello
Photo Montage: Geoff Spear

All selections recorded prior to 1972.


Album Released: February 9, 1993


foobar2000 1.1.7 / Dynamic Range Meter 1.1.0
log date: 2013-02-11 22:10:06

––––––––––––––––––––––––––––––––––––––––
Analyzed: Henry Mancini / Mancini In Hollywood
––––––––––––––––––––––––––––––––––––––––

DR Peak RMS Duration Track
––––––––––––––––––––––––––––––––––––––––
DR13 -1.29 dB -19.05 dB 10:48 01-Academy Award Selections
DR14 -2.29 dB -20.25 dB 10:48 02-Foreign Film Festival
DR13 -0.81 dB -20.73 dB 13:12 03-Music From Hollywood
DR14 -0.79 dB -19.75 dB 11:09 04-Peter Gunn Meets Mr. Lucky
DR13 -1.47 dB -19.96 dB 10:20 05-The Music Of David Rose
––––––––––––––––––––––––––––––––––––––––

Number of tracks: 5
Official DR value: DR14

Samplerate: 44100 Hz
Channels: 2
Bits per sample: 16
Bitrate: 672 kbps
Codec: FLAC
================================================================================

This project is the latest release in an exciting series that unites the music of RCA Victor with the audio technology of Dolby Laboratories.
When played on a conventional stereo system with two speakers it presents a stereo recording as fine as any available.
But when the recording is played with a Dolby Surround decoder, and two small additional speakers at the back of the listening area,
an extra dimension is added: the music springs vividly to life.
It comes toward you, and from around and behind you can be heard natural reverberation of the concert hall -
as exciting as if you were sitting by the microphones while the recording was being made.

Henry Mancini And His Orchestra - Mancini In Hollywood: Mr. Lucky And Other Film & TV Greats (1993) [Dolby Surround]

Henry Mancini And His Orchestra - Mancini In Hollywood: Mr. Lucky And Other Film & TV Greats (1993) [Dolby Surround]

Ripped and Scanned from the Stadium Studios Library February 2013
5% WinRar Recovery


For more Henry Mancini titles, please also see the following:

Henry Mancini - Breakfast At Tiffany's (Music From The Motion Picture) (1961) [2013 Intrada Complete Version]

Henry Mancini - Hatari! (Music From The Motion Picture) (1962) [2012 Intrada Special Collection]

Henry Mancini - Charade (Original Motion Picture Soundtrack) (1963) [2012 Intrada Complete Version]

Henry Mancini And The Mancini Pops Orchestra - Top Hat: Music From The Films Of Astaire & Rogers (1992) [Dolby Surround]