Tags
Language
Tags

Herbie Hancock - Maiden Voyage (1965/2010) {Analogue Productions} [SACD Redbook Layer]

Posted By: tiburon
Herbie Hancock - Maiden Voyage (1965/2010) {Analogue Productions} [SACD Redbook Layer]

Herbie Hancock - Maiden Voyage (1965/2010) {Analogue Productions} [SACD Redbook Layer]
EAC 1.0b1 | FLAC tracks level 8 | Cue+Log+M3U | Full Scans 600dpi | 242MB + 5% Recovery
MP3 CBR 320 Kbps | 98MB + 5% Recovery
Genre: Jazz, Hard Bop

Less overtly adventurous than its predecessor, Empyrean Isles, Maiden Voyage nevertheless finds Herbie Hancock at a creative peak. In fact, it's arguably his finest record of the '60s, reaching a perfect balance between accessible, lyrical jazz and chance-taking hard bop. By this point, the pianist had been with Miles Davis for two years, and it's clear that Miles' subdued yet challenging modal experiments had been fully integrated by Hancock. Not only that, but through Davis, Hancock became part of the exceptional rhythm section of bassist Ron Carter and drummer Tony Williams, who are both featured on Maiden Voyage, along with trumpeter Freddie Hubbard and tenor saxophonist George Coleman. The quintet plays a selection of five Hancock originals, many of which are simply superb showcases for the group's provocative, unpredictable solos, tonal textures, and harmonies. While the quintet takes risks, the music is lovely and accessible, thanks to Hancock's understated, melodic compositions and the tasteful group interplay. All of the elements blend together to make Maiden Voyage a shimmering, beautiful album that captures Hancock at his finest as a leader, soloist, and composer.
Track List
01. Maiden Voyage (8:01)
02. The Eye Of The Hurricane (6:03)
03. Little One (8:51)
04. Survival Of The Fittest (10:08)
05. Dolphin Dance (9:28)

musicians
Herbie Hancock - piano
George Coleman - tenor saxophone
Freddie Hubbard - trumpet
Ron Carter - bass
Tony Williams - drums

Recorded on March 17, 1965 at Van Gelder Studio, Englewood Cliffs, NJ.

Produced by Alfred Lion

Mastered for SACD by Kevin Gray and Steve Hoffman


Exact Audio Copy V1.0 beta 1 from 15. November 2010

EAC extraction logfile from 7. April 2011, 17:13

Herbie Hancock / Maiden Voyage

Used drive : HL-DT-STDVDRAM GP08NU6B Adapter: 1 ID: 0

Read mode : Secure
Utilize accurate stream : Yes
Defeat audio cache : Yes
Make use of C2 pointers : No

Read offset correction : 103
Overread into Lead-In and Lead-Out : No
Fill up missing offset samples with silence : Yes
Delete leading and trailing silent blocks : No
Null samples used in CRC calculations : Yes
Used interface : Native Win32 interface for Win NT & 2000
Gap handling : Appended to previous track

Used output format : User Defined Encoder
Selected bitrate : 128 kBit/s
Quality : High
Add ID3 tag : No
Command line compressor : C:\Program Files\FLAC\flac.exe
Additional command line options : -8 -V -T "ARTIST=%a" -T "TITLE=%t" -T "ALBUM=%g" -T "DATE=%y" -T "TRACKNUMBER=%n" -T "TOTALTRACKS=%x" -T "GENRE=%m" -T "ALBUM ARTIST=%v" -T "ALBUMARTIST=%v" -T "COMMENT=L2Bits, EAC V1.0 beta 1, Secure Mode, Test & Copy, Acc


TOC of the extracted CD

Track | Start | Length | Start sector | End sector
––––––––––––––––––––––––––––-
1 | 0:00.13 | 8:00.58 | 13 | 36070
2 | 8:00.71 | 6:03.16 | 36071 | 63311
3 | 14:04.12 | 8:50.53 | 63312 | 103114
4 | 22:54.65 | 10:08.21 | 103115 | 148735
5 | 33:03.11 | 9:28.07 | 148736 | 191342


Track 1

Filename D:\Bezz Rip\01 - Maiden Voyage - Maiden Voyage.wav

Pre-gap length 0:00:02.13

Peak level 100.0 %
Extraction speed 1.4 X
Track quality 100.0 %
Test CRC 19057708
Copy CRC 19057708
Track not present in AccurateRip database
Copy OK

Track 2

Filename D:\Bezz Rip\02 - Maiden Voyage - The Eye Of The Hurricane.wav

Pre-gap length 0:00:00.33

Peak level 93.5 %
Extraction speed 1.6 X
Track quality 100.0 %
Test CRC 6A1B5CAD
Copy CRC 6A1B5CAD
Track not present in AccurateRip database
Copy OK

Track 3

Filename D:\Bezz Rip\03 - Maiden Voyage - Little One.wav

Pre-gap length 0:00:00.33

Peak level 72.7 %
Extraction speed 1.9 X
Track quality 100.0 %
Test CRC 9C654D28
Copy CRC 9C654D28
Track not present in AccurateRip database
Copy OK

Track 4

Filename D:\Bezz Rip\04 - Maiden Voyage - Survival Of The Fittest.wav

Pre-gap length 0:00:00.21

Peak level 91.6 %
Extraction speed 2.1 X
Track quality 100.0 %
Test CRC D2915312
Copy CRC D2915312
Track not present in AccurateRip database
Copy OK

Track 5

Filename D:\Bezz Rip\05 - Maiden Voyage - Dolphin Dance.wav

Pre-gap length 0:00:00.26

Peak level 84.8 %
Extraction speed 2.3 X
Track quality 100.0 %
Test CRC 85AF51EC
Copy CRC 85AF51EC
Track not present in AccurateRip database
Copy OK


None of the tracks are present in the AccurateRip database

No errors occurred

End of status report

==== Log checksum 45A549D6F95D64EB41313B666A189F1E0ED642E2B9AE9DE75C51A780579FAD61 ====


foobar2000 1.3.13 / Dynamic Range Meter 1.1.1
log date: 2020-02-10 15:23:27

––––––––––––––––––––––––––––––––––––––––
Analyzed: Herbie Hancock / Maiden Voyage
––––––––––––––––––––––––––––––––––––––––

DR Peak RMS Duration Track
––––––––––––––––––––––––––––––––––––––––
DR14 0.00 dB -18.80 dB 8:01 01-Maiden Voyage
DR14 -0.58 dB -18.30 dB 6:03 02-The Eye Of The Hurricane
DR15 -2.76 dB -22.50 dB 8:51 03-Little One
DR15 -0.76 dB -20.28 dB 10:08 04-Survival Of The Fittest
DR15 -1.43 dB -21.08 dB 9:28 05-Dolphin Dance
––––––––––––––––––––––––––––––––––––––––

Number of tracks: 5
Official DR value: DR15

Samplerate: 44100 Hz
Channels: 2
Bits per sample: 16
Bitrate: 706 kbps
Codec: FLAC
================================================================================

Herbie Hancock - Maiden Voyage (1965/2010) {Analogue Productions} [SACD Redbook Layer]
Herbie Hancock - Maiden Voyage (1965/2010) {Analogue Productions} [SACD Redbook Layer]
Herbie Hancock - Maiden Voyage (1965/2010) {Analogue Productions} [SACD Redbook Layer]


Thanks to the original ripper