Subcategories

Herbie Mann - Memphis Underground (1969) {Atlantic 1522-2}

Posted By: tiburon
Herbie Mann - Memphis Underground (1969) {Atlantic 1522-2}

Herbie Mann - Memphis Underground (1969) {Atlantic 1522-2}
EAC 0.99pb4 | FLAC tracks level 8 | Cue+Log+M3U | Full Scans 300dpi | 209MB + 5% Recovery
MP3 CBR 320 Kbps | 93MB + 5% Recovery
Genre: Jazz, Fusion
Herbie Mann - Memphis Underground (1969) {Atlantic 1522-2}

Herbie Mann has always been open to new trends in his music. For this 1969 studio session, he and three other top soloists (vibraphonist Roy Ayers and guitarists Larry Coryell and Sonny Sharrock) went down to Memphis and combined their talents with a topnotch local rhythm section. The music effectively mixes R&B and country rhythms with the lead jazz voices.
Track List
01. Memphis Underground 7:09
02. New Orleans 2:08
03. Hold On, I'm Comin' 8:57
04. Chain Of Fools 10:44
05. Battle Hymn Of The Republic 7:14

musicians
Herbie Mann - flute
Roy Ayers - vibes,conga drum
Larry Coryell - guitar
Sonny Sharrock - guitar
Miroslav Vitous - Fender bass
Reggie Young - guitar
Bobby Emmons - organ
Bobby Wood - electric and acoustic piano
Tommy Cogbill - Fender bass
Mike Leech - Fender bass
Gene Christman - drums

Produced by Tom Dowd


Exact Audio Copy V0.99 prebeta 4 from 23. January 2008

EAC extraction logfile from 25. January 2009, 6:43

Herbie Mann / Memphis Underground

Used drive : PIONEER DVD+-RW DR-K17Y Adapter: 0 ID: 0

Read mode : Secure
Utilize accurate stream : Yes
Defeat audio cache : Yes
Make use of C2 pointers : No

Read offset correction : 48
Overread into Lead-In and Lead-Out : No
Fill up missing offset samples with silence : Yes
Delete leading and trailing silent blocks : No
Null samples used in CRC calculations : Yes
Used interface : Native Win32 interface for Win NT & 2000
Gap handling : Appended to previous track

Used output format : User Defined Encoder
Selected bitrate : 768 kBit/s
Quality : High
Add ID3 tag : No
Command line compressor : C:\Program Files\Exact Audio Copy\FLAC\FLAC.EXE
Additional command line options : -8 -V -T "ARTIST=%a" -T "TITLE=%t" -T "ALBUM=%g" -T "DATE=%y" -T "TRACKNUMBER=%n" -T "GENRE=%m" -T "COMMENT=EAC FLAC -8" %s


TOC of the extracted CD

Track | Start | Length | Start sector | End sector
––––––––––––––––––––––––––––-
1 | 0:00.33 | 7:09.00 | 33 | 32207
2 | 7:09.33 | 2:08.00 | 32208 | 41807
3 | 9:17.33 | 8:57.00 | 41808 | 82082
4 | 18:14.33 | 10:44.00 | 82083 | 130382
5 | 28:58.33 | 7:14.00 | 130383 | 162932


Track 1

Filename C:\UPS\Herbie Mann - Memphis Underground (1991) [FLAC]\01 - Memphis Underground.wav

Pre-gap length 0:00:02.44

Peak level 96.9 %
Track quality 99.9 %
Test CRC 0D579E85
Copy CRC 0D579E85
Accurately ripped (confidence 2) [F56586F2]
Copy OK

Track 2

Filename C:\UPS\Herbie Mann - Memphis Underground (1991) [FLAC]\02 - New Orleans.wav

Pre-gap length 0:00:01.80

Peak level 99.9 %
Track quality 100.0 %
Test CRC F75C9BAF
Copy CRC F75C9BAF
Accurately ripped (confidence 2) [723C15B7]
Copy OK

Track 3

Filename C:\UPS\Herbie Mann - Memphis Underground (1991) [FLAC]\03 - Hold On, I'm Comin'.wav

Pre-gap length 0:00:02.00

Peak level 95.2 %
Track quality 100.0 %
Test CRC 7B6F21DA
Copy CRC 7B6F21DA
Accurately ripped (confidence 2) [9B9116D7]
Copy OK

Track 4

Filename C:\UPS\Herbie Mann - Memphis Underground (1991) [FLAC]\04 - Chain Of Fools.wav

Pre-gap length 0:00:02.50

Peak level 92.5 %
Track quality 100.0 %
Test CRC B0AD5EAC
Copy CRC B0AD5EAC
Accurately ripped (confidence 2) [64FAC3F4]
Copy OK

Track 5

Filename C:\UPS\Herbie Mann - Memphis Underground (1991) [FLAC]\05 - Battle Hymn Of The Republic.wav

Pre-gap length 0:00:01.93

Peak level 94.0 %
Track quality 99.9 %
Test CRC 71495A51
Copy CRC 71495A51
Accurately ripped (confidence 2) [F904B336]
Copy OK


All tracks accurately ripped

No errors occurred

End of status report

Herbie Mann - Memphis Underground (1969) {Atlantic 1522-2}
Herbie Mann - Memphis Underground (1969) {Atlantic 1522-2}


Thanks to the original ripper