Subcategories
Tags
Language
Tags

Hi-Gloss - You'll Never Know (1981) {1992 Prelude}

Posted By: TestTickles
Hi-Gloss - You'll Never Know (1981) {1992 Prelude}

Hi-Gloss - You'll Never Know (1981) {1992 Prelude}
EAC Rip | FLAC with CUE and log | scans | 301 mb
MP3 CBR 320kbps | RAR | 106 mb
Genre: R&B, soul, disco

You'll Never Know is the first and only full length by Hi-Gloss, released in 1981. Originally a self-titled project, it was given a name when reissued by Prelude Records in 1992.

Hi-Gloss - You'll Never Know (1981) {1992 Prelude}

1. You'll Never Know (5:27)
2. It's Up To You (5:48)
3. Cash (6:55)
4. I'm Totally Yours (5:17)
5. All Day All Night (5:42)
6. I Want Your Love To Last (5:16)
7. You'll Never Know (Instrumental) (Bonus Track) (7:03)
8. You'll Never Know (Radio Mix) (Bonus Track) (4:45)

Exact Audio Copy V0.99 prebeta 4 from 23. January 2008

EAC extraction logfile from 12. March 2009, 10:16

Hi Gloss / You'll Never Know

Used drive : PIONEER DVD-RW DVR-112D Adapter: 1 ID: 0

Read mode : Secure
Utilize accurate stream : Yes
Defeat audio cache : Yes
Make use of C2 pointers : No

Read offset correction : 48
Overread into Lead-In and Lead-Out : No
Fill up missing offset samples with silence : Yes
Delete leading and trailing silent blocks : No
Null samples used in CRC calculations : Yes
Used interface : Installed external ASPI interface
Gap handling : Appended to previous track

Used output format : User Defined Encoder
Selected bitrate : 192 kBit/s
Quality : High
Add ID3 tag : No
Command line compressor : D:\Program Files\Exact Audio Copy\flac-1.1.4-win\bin\flac.exe
Additional command line options : -8 -A tukey(0.25) -A gauss(0.1875) -b 4096 -V -T "artist=%a" -T "title=%t" -T "album=%g" -T "date=%y" -T "tracknumber=%n" -T "genre=%m" %s –sector-align

TOC of the extracted CD

Track | Start | Length | Start sector | End sector
––––––––––––––––––––––––––––-
1 | 0:00.00 | 5:27.11 | 0 | 24535
2 | 5:27.11 | 5:47.40 | 24536 | 50600
3 | 11:14.51 | 6:54.53 | 50601 | 81703
4 | 18:09.29 | 5:17.27 | 81704 | 105505
5 | 23:26.56 | 5:42.12 | 105506 | 131167
6 | 29:08.68 | 5:15.73 | 131168 | 154865
7 | 34:24.66 | 7:03.24 | 154866 | 186614
8 | 41:28.15 | 4:45.23 | 186615 | 208012

Track 1

Filename C:\cuntfist\FLAC\Hi-Gloss - You'll Never Know (1981) [FLAC] {1992 Prelude}\01 - You'll Never Know.wav

Pre-gap length 0:00:02.00

Peak level 93.6 %
Track quality 100.0 %
Test CRC 2676188B
Copy CRC 2676188B
Track not present in AccurateRip database
Copy OK

Track 2

Filename C:\cuntfist\FLAC\Hi-Gloss - You'll Never Know (1981) [FLAC] {1992 Prelude}\02 - It's Up To You.wav

Pre-gap length 0:00:02.00

Peak level 93.6 %
Track quality 100.0 %
Test CRC D9EB2339
Copy CRC D9EB2339
Track not present in AccurateRip database
Copy OK

Track 3

Filename C:\cuntfist\FLAC\Hi-Gloss - You'll Never Know (1981) [FLAC] {1992 Prelude}\03 - Cash.wav

Pre-gap length 0:00:02.00

Peak level 93.5 %
Track quality 100.0 %
Test CRC 8B672F12
Copy CRC 8B672F12
Track not present in AccurateRip database
Copy OK

Track 4

Filename C:\cuntfist\FLAC\Hi-Gloss - You'll Never Know (1981) [FLAC] {1992 Prelude}\04 - I'm Totally Yours.wav

Pre-gap length 0:00:02.00

Peak level 93.7 %
Track quality 100.0 %
Test CRC DA854545
Copy CRC DA854545
Track not present in AccurateRip database
Copy OK

Track 5

Filename C:\cuntfist\FLAC\Hi-Gloss - You'll Never Know (1981) [FLAC] {1992 Prelude}\05 - All Day All Night.wav

Pre-gap length 0:00:02.00

Peak level 93.6 %
Track quality 100.0 %
Test CRC 478E78F0
Copy CRC 478E78F0
Track not present in AccurateRip database
Copy OK

Track 6

Filename C:\cuntfist\FLAC\Hi-Gloss - You'll Never Know (1981) [FLAC] {1992 Prelude}\06 - I Want Your Love To Last.wav

Pre-gap length 0:00:02.00

Peak level 93.5 %
Track quality 100.0 %
Test CRC 81E4BFBC
Copy CRC 81E4BFBC
Track not present in AccurateRip database
Copy OK

Track 7

Filename C:\cuntfist\FLAC\Hi-Gloss - You'll Never Know (1981) [FLAC] {1992 Prelude}\07 - You'll Never Know (Instrumental) (Bonus Track).wav

Pre-gap length 0:00:02.00

Peak level 93.5 %
Track quality 100.0 %
Test CRC A3E51081
Copy CRC A3E51081
Track not present in AccurateRip database
Copy OK

Track 8

Filename C:\cuntfist\FLAC\Hi-Gloss - You'll Never Know (1981) [FLAC] {1992 Prelude}\08 - You'll Never Know (Radio Mix) (Bonus Track).wav

Pre-gap length 0:00:02.00

Peak level 93.5 %
Track quality 100.0 %
Test CRC 1597386B
Copy CRC 1597386B
Track not present in AccurateRip database
Copy OK

None of the tracks are present in the AccurateRip database

No errors occurred

End of status report


Hi-Gloss - You'll Never Know (1981) {1992 Prelude}


Thank you to the original uploader.