Subcategories

Holy Terror - Total Terror (2017) [4CD + DVD Box Set]

Posted By: v3122
Holy Terror - Total Terror (2017) [4CD + DVD Box Set]

Holy Terror - Total Terror (2017)
EAC | Flac(Image) + Cue + Log & MP3 CBR 320Kbps
Dissonance Productions, DISS071CD | ~ 1586 or 689 Mb | Artwork(jpg) -> 60 Mb
DVD5: 720*480 (4:3), NTSC, 29.97 fps | PCM 1536 kbps, 2 ch
Thrash Metal

The great importance for boxed sets is to bring a chance for new fans to know the previous albums of some artists. In the case of “Total Terror”, that assemble all HOLY TERROR material, is a great opportunity for many fans.

About HOLY TERROR, I’d like to introduce you all to a North American insane quintet from Los Angeles that was formed back in 1985, in the middle of a Metal scene that was boiling with new names. But unfortunately, even being a good act, they remained in the deep parts of the underground, and it was a pity. They had a resemblance with acts like FLOTSAM & JETSAM, DARK ANGEL (from where their first drummer, Jack Schwartz, came), ABBATOIR, AGENT STEEL and some others that were playing a melodic and furious mix between Speed Metal and earlier Thrash Metal. But their biggest difference between some of their comrades back them was the ability to use very good melodies in the middle of an attack of excellent guitars, thundering bass guitar and drums, and very good screamed vocals.

From here on I’ll review each album separately.

“Terror and Submission” came to the world on 1987. That was the year when the bands were evolving to better sound qualities but the band stayed with those tunes from the first half of the 80s, and the production was managed by the lead guitarist Kurt himself. Even with this nasty and smoky sound (It’s an album from the 80s, have this in mind, please), their musical talent pulses on songs as “Evil’s Rising”, the aggressive orientation from guitars shown on “Mortal Fear” (excellent riffs and great solos duels, and excellent vocals as well), the melodic and US Metal orientated tempos of “Guardians of the Netherworld” (that bears a Hard’n’Heavy scent, along with a very good chorus), the clear influence of NWOBHM that is shown on “Distant Calling”, the touch of Heavy/Power Metal that US Metal inherited from JUDAS PRIEST that is felt on “Terror and Submission” and on “Alpha Omega (The Bringer of Balance)” (both with fine vocals and great amounts of energy). If this album was released 3 or 4 years before its time…

One year later, on 1988, “Mind Wars” (their second album) came to the world, once more produced by Kurt (that did the mixing as well), and the sound quality improved a little. You can hear that their style became more mature and aggressive, but keeping its features. “Judas Reward” is a violent song, fast and heavy (with slow tempos during the first solo parts), and fast as well is the aggressive “Debt of Pain” (that shows melodies on vocals), the NWOBHM influence comes back on “The Immoral Wasteland” and its fine melodies, the conceptual and brutal grasp on triplet “A Fool's Gold”, “Terminal Humor” and “Mind Wars”; the clear Speed/Thrash grasp of the energy unleashed on “Terminal Humor”, the mad Thrash Metal fury of “No Resurrection” and “Christian Resistance” (this one with some subjective melodies). A fine work, but it was a time that if you were on a great label, you’d make some success, but it wasn’t their case…

And the band ended on 1989, and the feeling we had back on those days is that they deserved a better chance.

But they came back on 2005, and on 2007, they released a compilation remixed material, called “El Revengo”. On this box set, only the first CD (the one with studio remixes) is present. So, with a better sound quality, you can see how they were good, because the technology helped Kurt to find a better sound for the band. The songs 1 to four were remixed on 2004, and 5 to 13 on 1988. And on the new versions of “A Fool’s Gold/Terminal Humor”, “Christian Resistance”, the amazing energy of “Damned by Judges” and its guitar solos duets, the raw energy of “Evil’s Rising” and “Mortal Fear”, the great appeal that the vocals show on “Distant Calling”, the essential weight and melodies of “Blood of the Saints”, and the slashing fury of the guitars shown on “Black Plague” and “Guardians of the Netherworld”.

“Live Terror”, as the name shows clearly, is a live album. The shows were recorded on Dendermonde (Belgium), Fort Lauderdale (Florida), and Milan (Italy). The sound quality is really good, but keeping the rawness from a live album. And the power of their musical work is unleashed on songs as “Black Plague”, “Evil’s Rising”, “Distant Calling”, “Christian Resistance”, the hymn “Blood of the Saints”, the thunderous “Do Unto Others”, and the version for “Judas Reward” recorded on Milan.

The box set has one more surprise: a DVD that has three shows of the band, all of them on 1988, recorded on Milwaukee, Chicago and Anaheim 1988, and a session of extras, with slide show, extra pic from The Reign of Terror, and the official video for “Judas Reward”. A great homage to HOLY TERROR, to their fans and it will show that, if thing on this life were fairer, they could be the fifth band on the North American Big Four of Thrash Metal… Who knows?

Play it at the highest volume!

Originality: 10
Songwriting: 9
Memorability: 10
Production: 9

by Marcos "Big Daddy" Garcia, metal-temple.com
Holy Terror - Total Terror (2017) [4CD + DVD Box Set]

Holy Terror - Total Terror (2017):

Holy Terror - Total Terror (2017) [4CD + DVD Box Set]

Tracklist CD-1 - Terror And Submission (1987):

1. Black Plague
2. Evil’s Rising
3. Blood Of Saints
4. Mortal Fear
5. Guardians Of The Netherworld
6. Distant Calling
7. Terror And Submission
8. Tomorrow’s End
9. Alpha Omega (The Bringer Of Balance)

Exact Audio Copy V1.3 from 2. September 2016

EAC extraction logfile from 31. March 2019, 3:14

Holy Terror / Terror And Submission

Used drive : ASUS DRW-24B1ST Adapter: 1 ID: 1

Read mode : Secure
Utilize accurate stream : Yes
Defeat audio cache : Yes
Make use of C2 pointers : No

Read offset correction : 6
Overread into Lead-In and Lead-Out : No
Fill up missing offset samples with silence : Yes
Delete leading and trailing silent blocks : No
Null samples used in CRC calculations : Yes
Used interface : Native Win32 interface for Win NT & 2000

Used output format : User Defined Encoder
Selected bitrate : 1024 kBit/s
Quality : High
Add ID3 tag : No
Command line compressor : E:\Install\All for Music\Lossless\FLAC_1.3.2\flac-1.3.2-git-20170314-x64-icl\flac.exe
Additional command line options : -V -8 -T "Genre=%genre%" -T "Artist=%artist%" -T "Title=%title%" -T "Album=%albumtitle%" -T "Date=%year%" -T "Tracknumber=%tracknr%" -T "Comment=%comment%" %source%


TOC of the extracted CD

Track | Start | Length | Start sector | End sector
––––––––––––––––––––––––––––-
1 | 0:00.00 | 4:16.25 | 0 | 19224
2 | 4:16.25 | 4:13.45 | 19225 | 38244
3 | 8:29.70 | 3:47.70 | 38245 | 55339
4 | 12:17.65 | 4:09.73 | 55340 | 74087
5 | 16:27.63 | 5:33.20 | 74088 | 99082
6 | 22:01.08 | 4:27.58 | 99083 | 119165
7 | 26:28.66 | 4:58.21 | 119166 | 141536
8 | 31:27.12 | 5:05.16 | 141537 | 164427
9 | 36:32.28 | 5:52.31 | 164428 | 190858


Range status and errors

Selected range

Filename E:\Ginger Devil\Holy Terror - Total Terror (Box set) (2017)\CD-1 - Terror And Submission (1987)\Holy Terror - Terror And Submission.wav

Peak level 98.8 %
Extraction speed 5.1 X
Range quality 99.9 %
Test CRC 0E84C5D4
Copy CRC 0E84C5D4
Copy OK

No errors occurred


AccurateRip summary

Track 1 accurately ripped (confidence 2) [0C6E5BB5] (AR v2)
Track 2 accurately ripped (confidence 2) [9116F4CA] (AR v2)
Track 3 accurately ripped (confidence 2) [F6D71BCA] (AR v2)
Track 4 accurately ripped (confidence 2) [F96AB8E0] (AR v2)
Track 5 accurately ripped (confidence 2) [DA242860] (AR v2)
Track 6 accurately ripped (confidence 2) [3DF8537A] (AR v2)
Track 7 accurately ripped (confidence 2) [C8A1EAE7] (AR v2)
Track 8 accurately ripped (confidence 2) [FBCAB75E] (AR v2)
Track 9 accurately ripped (confidence 2) [10C2C966] (AR v2)

All tracks accurately ripped

End of status report

–– CUETools DB Plugin V2.1.6

[CTDB TOCID: qAV6Rs_BJDdKVgnASIQ1x.SHKr0-] found
Submit result: already submitted
Track | CTDB Status
1 | (14/38) Accurately ripped, or (24/38) differs in 1788 samples @04:16:23-04:16:26
2 | (14/38) Accurately ripped, or (24/38) differs in 3528 samples @00:00:00-00:00:01,04:13:43-04:13:46
3 | (14/38) Accurately ripped, or (24/38) differs in 3244 samples @00:00:00-00:00:01,03:47:68-03:47:71
4 | (14/38) Accurately ripped, or (24/38) differs in 3528 samples @00:00:00-00:00:01,04:09:71-04:09:74
5 | (14/38) Accurately ripped, or (24/38) differs in 3521 samples @00:00:00-00:00:01,05:33:18-05:33:21
6 | (14/38) Accurately ripped, or (24/38) differs in 3528 samples @00:00:00-00:00:01,04:27:56-04:27:59
7 | (14/38) Accurately ripped, or (24/38) differs in 2598 samples @00:00:00-00:00:01,04:58:19-04:58:22
8 | (14/38) Accurately ripped, or (24/38) differs in 3528 samples @00:00:00-00:00:01,05:05:14-05:05:17
9 | (14/38) Accurately ripped, or (24/38) differs in 1740 samples @00:00:00-00:00:01
If you are sure that your rip contains errors, you can use CUETools to repair it.


==== Log checksum DC99421066AE7184777A90DBC0DEC3B1F48B0D3558585E44EE2EBB6A3DB86BDB ====


[CUETools log; Date: 05.04.2019 13:03:22; Version: 2.1.4]
[AccurateRip ID: 000dc353-006625f0-8709f009] found.
Track [ CRC | V2 ] Status
01 [cf05b448|0c6e5bb5] (00+02/22) Accurately ripped
02 [9772fa22|9116f4ca] (00+02/22) Accurately ripped
03 [a063c809|f6d71bca] (00+02/22) Accurately ripped
04 [cb19aaa6|f96ab8e0] (00+02/22) Accurately ripped
05 [91ea48e9|da242860] (00+02/22) Accurately ripped
06 [4d039baa|3df8537a] (00+02/21) Accurately ripped
07 [8c190e81|c8a1eae7] (00+02/22) Accurately ripped
08 [b2e8c735|fbcab75e] (00+02/22) Accurately ripped
09 [6f2bfbb5|10c2c966] (00+02/21) Accurately ripped
Offsetted by -670:
01 [a1b75a83] (00/22) No match (V2 was not tested)
02 [cf3f093c] (00/22) No match (V2 was not tested)
03 [16cb346d] (00/22) No match (V2 was not tested)
04 [b174c528] (00/22) No match (V2 was not tested)
05 [734abeaf] (00/22) No match (V2 was not tested)
06 [4a60e0b6] (00/21) No match (V2 was not tested)
07 [24f16555] (00/22) No match (V2 was not tested)
08 [fd896741] (00/22) No match (V2 was not tested)
09 [d2604116] (00/21) No match (V2 was not tested)
Offsetted by -156:
01 [c239cf92] (00/22) No match (V2 was not tested)
02 [ddc10e76] (00/22) No match (V2 was not tested)
03 [ec1a0c11] (00/22) No match (V2 was not tested)
04 [13135e4a] (00/22) No match (V2 was not tested)
05 [e2aa6455] (00/22) No match (V2 was not tested)
06 [d3a8fd82] (00/21) No match (V2 was not tested)
07 [09183a69] (00/22) No match (V2 was not tested)
08 [2cfa4f0d] (00/22) No match (V2 was not tested)
09 [b34fcc63] (00/21) No match (V2 was not tested)
Offsetted by -132:
01 [0cc6b17e] (00/22) No match (V2 was not tested)
02 [fa52952e] (00/22) No match (V2 was not tested)
03 [a56077c1] (00/22) No match (V2 was not tested)
04 [ccecf3e2] (00/22) No match (V2 was not tested)
05 [9b2a601d] (00/22) No match (V2 was not tested)
06 [ab40c712] (00/21) No match (V2 was not tested)
07 [f5dd4759] (00/22) No match (V2 was not tested)
08 [68f79c9d] (00/22) No match (V2 was not tested)
09 [d6669ec7] (00/21) No match (V2 was not tested)
Offsetted by -92:
01 [8e06d9b2] (00/22) No match (V2 was not tested)
02 [d49a75b6] (00/22) No match (V2 was not tested)
03 [2f808091] (00/22) No match (V2 was not tested)
04 [5802428a] (00/22) No match (V2 was not tested)
05 [ceaa5915] (00/22) No match (V2 was not tested)
06 [12931702] (00/21) No match (V2 was not tested)
07 [d5d05ce9] (00/22) No match (V2 was not tested)
08 [779dc88d] (00/22) No match (V2 was not tested)
09 [61374dc3] (00/21) No match (V2 was not tested)
Offsetted by -6:
01 [b914787f] (00/22) No match (V2 was not tested)
02 [904e9874] (00/22) No match (V2 was not tested)
03 [72122d1d] (00/22) No match (V2 was not tested)
04 [1ca34540] (00/22) No match (V2 was not tested)
05 [63ca49f7] (00/22) No match (V2 was not tested)
06 [971da946] (00/21) No match (V2 was not tested)
07 [10e7cb45] (00/22) No match (V2 was not tested)
08 [23e973d1] (00/22) No match (V2 was not tested)
09 [e9b44a6a] (00/21) No match (V2 was not tested)

Track Peak [ CRC32 ] [W/O NULL] [ LOG ]
– 98,8 [0E84C5D4] [7FD3D2AF] CRC32
01 98,8 [4BCC4637] [B6CF8763]
02 98,8 [2313F1DD] [C7386C13]
03 98,8 [6C45EF29] [149E8E77]
04 98,8 [1E8BCED7] [563DE5A1]
05 98,8 [9473D6FA] [CA2A1E3D]
06 98,8 [47D86907] [ADA9C1E9]
07 98,8 [4B669F39] [9A743B58]
08 98,8 [61C1402D] [6DAFB7D4]
09 98,8 [2EA05781] [082C117F]


Holy Terror - Total Terror (2017) [4CD + DVD Box Set]

Tracklist CD-2 - Mind Wars (1988):

1. Judas Reward
2. Debt Of Pain
3. The Immortal Wasteland
4. A Fool's Gold
5. Terminal Humor
6. Mind Wars
7. Damned By The Judges
8. Do Unto Others
9. No Resurrection
10. Christian Resistance

Exact Audio Copy V1.3 from 2. September 2016

EAC extraction logfile from 31. March 2019, 3:57

Holy Terror / Mind Wars

Used drive : ASUS DRW-24B1ST Adapter: 1 ID: 1

Read mode : Secure
Utilize accurate stream : Yes
Defeat audio cache : Yes
Make use of C2 pointers : No

Read offset correction : 6
Overread into Lead-In and Lead-Out : No
Fill up missing offset samples with silence : Yes
Delete leading and trailing silent blocks : No
Null samples used in CRC calculations : Yes
Used interface : Native Win32 interface for Win NT & 2000

Used output format : User Defined Encoder
Selected bitrate : 1024 kBit/s
Quality : High
Add ID3 tag : No
Command line compressor : E:\Install\All for Music\Lossless\FLAC_1.3.2\flac-1.3.2-git-20170314-x64-icl\flac.exe
Additional command line options : -V -8 -T "Genre=%genre%" -T "Artist=%artist%" -T "Title=%title%" -T "Album=%albumtitle%" -T "Date=%year%" -T "Tracknumber=%tracknr%" -T "Comment=%comment%" %source%


TOC of the extracted CD

Track | Start | Length | Start sector | End sector
––––––––––––––––––––––––––––-
1 | 0:00.00 | 4:30.59 | 0 | 20308
2 | 4:30.59 | 2:35.20 | 20309 | 31953
3 | 7:06.04 | 5:17.64 | 31954 | 55792
4 | 12:23.68 | 2:29.54 | 55793 | 67021
5 | 14:53.47 | 1:08.26 | 67022 | 72147
6 | 16:01.73 | 4:13.72 | 72148 | 91194
7 | 20:15.70 | 6:36.63 | 91195 | 120957
8 | 26:52.58 | 4:04.36 | 120958 | 139293
9 | 30:57.19 | 4:03.01 | 139294 | 157519
10 | 35:00.20 | 4:37.45 | 157520 | 178339


Range status and errors

Selected range

Filename E:\Ginger Devil\Holy Terror - Total Terror (Box set) (2017)\CD-2 - Mind Wars (1988)\Holy Terror - Mind Wars.wav

Peak level 98.8 %
Extraction speed 5.1 X
Range quality 100.0 %
Test CRC BC8F77FE
Copy CRC BC8F77FE
Copy OK

No errors occurred


AccurateRip summary

Track 1 accurately ripped (confidence 3) [CC03EDA0] (AR v2)
Track 2 accurately ripped (confidence 3) [1B2CDB58] (AR v2)
Track 3 accurately ripped (confidence 3) [D9904DEA] (AR v2)
Track 4 accurately ripped (confidence 3) [B9D09B23] (AR v2)
Track 5 accurately ripped (confidence 3) [4E4F5E26] (AR v2)
Track 6 accurately ripped (confidence 3) [3D031A96] (AR v2)
Track 7 accurately ripped (confidence 3) [7D0C1B53] (AR v2)
Track 8 accurately ripped (confidence 3) [928E0E88] (AR v2)
Track 9 accurately ripped (confidence 3) [E4C38A54] (AR v2)
Track 10 accurately ripped (confidence 3) [07C98CC4] (AR v2)

All tracks accurately ripped

End of status report

–– CUETools DB Plugin V2.1.6

[CTDB TOCID: 4LjH5uALT0oPi9mVAqB4PTt70DI-] found
Submit result: 4LjH5uALT0oPi9mVAqB4PTt70DI- has been confirmed
Track | CTDB Status
1 | (13/13) Accurately ripped
2 | (13/13) Accurately ripped
3 | (13/13) Accurately ripped
4 | (13/13) Accurately ripped
5 | (13/13) Accurately ripped
6 | (13/13) Accurately ripped
7 | (13/13) Accurately ripped
8 | (13/13) Accurately ripped
9 | (13/13) Accurately ripped
10 | (13/13) Accurately ripped


==== Log checksum 0135B027BCB809C2FB6412B8B7A774E4EE069511B528E7B3C537F14BBDFE7DDD ====


[CUETools log; Date: 05.04.2019 13:05:57; Version: 2.1.4]
[AccurateRip ID: 000e4285-0072cfaa-8609490a] found.
Track [ CRC | V2 ] Status
01 [65ffec28|cc03eda0] (0+3/3) Accurately ripped
02 [9e9ca151|1b2cdb58] (0+3/3) Accurately ripped
03 [d7e7adce|d9904dea] (0+3/3) Accurately ripped
04 [3661c620|b9d09b23] (0+3/3) Accurately ripped
05 [cef5d465|4e4f5e26] (0+3/3) Accurately ripped
06 [910f9edd|3d031a96] (0+3/3) Accurately ripped
07 [bd36af69|7d0c1b53] (0+3/3) Accurately ripped
08 [92ce7246|928e0e88] (0+3/3) Accurately ripped
09 [f29ba151|e4c38a54] (0+3/3) Accurately ripped
10 [da8a8d62|07c98cc4] (0+3/3) Accurately ripped

Track Peak [ CRC32 ] [W/O NULL] [ LOG ]
– 98,8 [BC8F77FE] [5098659D] CRC32
01 93,3 [77B2B1AB] [34E7AFE3]
02 98,8 [3167E8FC] [680A30E3]
03 98,8 [CA88579A] [7F874463]
04 96,8 [AD596E89] [E04DA80A]
05 89,2 [DF737FD3] [FCD7EBED]
06 96,7 [BC010612] [804A8A91]
07 98,8 [64AED3FA] [ECF1832D]
08 98,8 [3BC9E5F7] [458F6CF8]
09 98,8 [1CE2C3C8] [C99B1406]
10 94,9 [79C7F0B6] [849A5776]


Holy Terror - Total Terror (2017) [4CD + DVD Box Set]

Tracklist CD-3 - El Revengo (2006):

1. A Fool's Gold / Terminal Humor
2. Christian Resistance
3. Damned By Judges
4. No Resurrection
5. Evil's Rising
6. Mortal Fear
7. Distant Calling
8. Alpha Omega (The Bringer Of Balance)
9. Blood Of The Saints
10. Black Plague
11. Terror & Submission
12. Tomorrow's End
13. Guardians Of The Netherworld

Exact Audio Copy V1.3 from 2. September 2016

EAC extraction logfile from 31. March 2019, 11:58

Holy Terror / El Revengo

Used drive : ASUS DRW-24B1ST Adapter: 1 ID: 1

Read mode : Secure
Utilize accurate stream : Yes
Defeat audio cache : Yes
Make use of C2 pointers : No

Read offset correction : 6
Overread into Lead-In and Lead-Out : No
Fill up missing offset samples with silence : Yes
Delete leading and trailing silent blocks : No
Null samples used in CRC calculations : Yes
Used interface : Native Win32 interface for Win NT & 2000

Used output format : User Defined Encoder
Selected bitrate : 1024 kBit/s
Quality : High
Add ID3 tag : No
Command line compressor : E:\Install\All for Music\Lossless\FLAC_1.3.2\flac-1.3.2-git-20170314-x64-icl\flac.exe
Additional command line options : -V -8 -T "Genre=%genre%" -T "Artist=%artist%" -T "Title=%title%" -T "Album=%albumtitle%" -T "Date=%year%" -T "Tracknumber=%tracknr%" -T "Comment=%comment%" %source%


TOC of the extracted CD

Track | Start | Length | Start sector | End sector
––––––––––––––––––––––––––––-
1 | 0:00.00 | 7:53.03 | 0 | 35477
2 | 7:53.03 | 4:37.39 | 35478 | 56291
3 | 12:30.42 | 5:24.71 | 56292 | 80662
4 | 17:55.38 | 4:01.50 | 80663 | 98787
5 | 21:57.13 | 4:35.19 | 98788 | 119431
6 | 26:32.32 | 3:57.74 | 119432 | 137280
7 | 30:30.31 | 4:27.01 | 137281 | 157306
8 | 34:57.32 | 5:52.34 | 157307 | 183740
9 | 40:49.66 | 3:46.20 | 183741 | 200710
10 | 44:36.11 | 3:36.46 | 200711 | 216956
11 | 48:12.57 | 4:57.58 | 216957 | 239289
12 | 53:10.40 | 4:53.06 | 239290 | 261270
13 | 58:03.46 | 5:34.40 | 261271 | 286360


Range status and errors

Selected range

Filename E:\Ginger Devil\Holy Terror - Total Terror (Box set) (2017)\CD-3 - El Revengo (2007)\Holy Terror - El Revengo.wav

Peak level 97.7 %
Extraction speed 6.0 X
Range quality 100.0 %
Test CRC A486ED6B
Copy CRC A486ED6B
Copy OK

No errors occurred


AccurateRip summary

Track 1 accurately ripped (confidence 3) [9ACFCEDB] (AR v2)
Track 2 accurately ripped (confidence 3) [849024FE] (AR v2)
Track 3 accurately ripped (confidence 3) [56BD5407] (AR v2)
Track 4 accurately ripped (confidence 3) [DAB1736D] (AR v2)
Track 5 accurately ripped (confidence 3) [9D5303D9] (AR v2)
Track 6 accurately ripped (confidence 3) [063BBDA8] (AR v2)
Track 7 accurately ripped (confidence 3) [1E6CBFA8] (AR v2)
Track 8 accurately ripped (confidence 3) [B3302971] (AR v2)
Track 9 accurately ripped (confidence 3) [33AE606E] (AR v2)
Track 10 accurately ripped (confidence 3) [B4445170] (AR v2)
Track 11 accurately ripped (confidence 3) [179FC554] (AR v2)
Track 12 accurately ripped (confidence 3) [09723530] (AR v2)
Track 13 accurately ripped (confidence 3) [A6FD9ED9] (AR v2)

All tracks accurately ripped

End of status report

–– CUETools DB Plugin V2.1.6

[CTDB TOCID: 33CLIYL.MBfYYPuKwnTSdFOvU54-] found
Submit result: 33CLIYL.MBfYYPuKwnTSdFOvU54- has been confirmed
Track | CTDB Status
1 | (13/13) Accurately ripped
2 | (13/13) Accurately ripped
3 | (11/13) Accurately ripped, or (2/13) differs in 1732 samples @05:24:69-05:24:72
4 | (11/13) Accurately ripped, or (2/13) differs in 1656 samples @00:00:00-00:00:01
5 | (13/13) Accurately ripped
6 | (13/13) Accurately ripped
7 | (11/13) Accurately ripped, or (2/13) differs in 1766 samples @04:26:74-04:27:02
8 | (11/13) Accurately ripped, or (2/13) differs in 3435 samples @00:00:00-00:00:01,05:52:32-05:52:35
9 | (11/13) Accurately ripped, or (2/13) differs in 3447 samples @00:00:00-00:00:01,03:46:18-03:46:21
10 | (11/13) Accurately ripped, or (2/13) differs in 1697 samples @00:00:00-00:00:01
11 | (13/13) Accurately ripped
12 | (13/13) Accurately ripped
13 | (13/13) Accurately ripped


==== Log checksum 66669ACB9130DA68C9F7D6AA66C855183D3E4253280E87800D03537FF082930F ====


[CUETools log; Date: 05.04.2019 13:09:24; Version: 2.1.4]
[AccurateRip ID: 001fa3e4-01360283-cf0eea0d] found.
Track [ CRC | V2 ] Status
01 [108ee2cc|9acfcedb] (0+3/5) Accurately ripped
02 [8e33953b|849024fe] (0+3/5) Accurately ripped
03 [84c3bb50|56bd5407] (0+3/5) Accurately ripped
04 [08b8efc6|dab1736d] (0+3/5) Accurately ripped
05 [0ad8bd77|9d5303d9] (0+3/5) Accurately ripped
06 [b19d55e2|063bbda8] (0+3/5) Accurately ripped
07 [2443ab53|1e6cbfa8] (0+3/5) Accurately ripped
08 [b484b1cd|b3302971] (0+3/5) Accurately ripped
09 [0c6e3bf1|33ae606e] (0+3/5) Accurately ripped
10 [3b48570e|b4445170] (0+3/5) Accurately ripped
11 [3bb63898|179fc554] (0+3/5) Accurately ripped
12 [4490cdfc|09723530] (0+3/5) Accurately ripped
13 [271f1f88|a6fd9ed9] (0+3/5) Accurately ripped
Offsetted by -6:
01 [953a89e2] (2/5) Accurately ripped
02 [e36fc359] (2/5) Accurately ripped
03 [d0317a64] (0/5) No match (V2 was not tested)
04 [61b9e012] (0/5) No match (V2 was not tested)
05 [bbe11fc5] (2/5) Accurately ripped
06 [ab1e97ed] (2/5) Accurately ripped
07 [52ba0bfe] (0/5) No match (V2 was not tested)
08 [875f93d1] (0/5) No match (V2 was not tested)
09 [70b055df] (0/5) No match (V2 was not tested)
10 [a1de4c9e] (0/5) No match (V2 was not tested)
11 [2862c3c6] (2/5) Accurately ripped
12 [dbf35bd0] (2/5) Accurately ripped
13 [f19070e8] (2/5) Accurately ripped

Track Peak [ CRC32 ] [W/O NULL] [ LOG ]
– 97,7 [A486ED6B] [E05DE112] CRC32
01 97,7 [F82B07C8] [3575CBA5]
02 97,7 [0852FEAA] [1452EF2A]
03 97,7 [23445406] [8C6F7AB9]
04 97,7 [CF135C68] [62AD49D9]
05 97,7 [9D34E95E] [1355E806]
06 97,7 [6410740A] [926BC1FD]
07 97,7 [52351BA3] [0E5E875D]
08 97,7 [044E59CF] [AAC299E4]
09 97,7 [DE13F048] [6C0B1BCB]
10 97,7 [18D6ED08] [F8E426D0]
11 97,7 [9EA6D0F2] [A4C1C39F]
12 97,7 [BC455F22] [9FD71FCD]
13 97,7 [4B9E8898] [D9C89665]


Holy Terror - Total Terror (2017) [4CD + DVD Box Set]

Tracklist CD-4 - El Revengo / Live Terror (2006):

Live in Dendermonde, Belgium
1. Black Plague
2. Evil's Rising
3. Judas Reward
4. Debt Of Pain
5. Distant Calling
6. Christian Resistance
7. Blood Of The Saints
8. Immortal Wasteland
9. Alpha Omega

Live in Fort Lauderdale, Florida
10. Do Unto Others
11. Christian Resistance
12. Alpha Omega

Live in Milan, Italy
13. Judas Reward
14. Black Plague

Exact Audio Copy V1.3 from 2. September 2016

EAC extraction logfile from 1. April 2019, 9:20

Holy Terror / El Revengo / Live Terror

Used drive : ASUS DRW-24B1ST Adapter: 1 ID: 1

Read mode : Secure
Utilize accurate stream : Yes
Defeat audio cache : Yes
Make use of C2 pointers : No

Read offset correction : 6
Overread into Lead-In and Lead-Out : No
Fill up missing offset samples with silence : Yes
Delete leading and trailing silent blocks : No
Null samples used in CRC calculations : Yes
Used interface : Native Win32 interface for Win NT & 2000

Used output format : User Defined Encoder
Selected bitrate : 1024 kBit/s
Quality : High
Add ID3 tag : No
Command line compressor : E:\Install\All for Music\Lossless\FLAC_1.3.2\flac-1.3.2-git-20170314-x64-icl\flac.exe
Additional command line options : -V -8 -T "Genre=%genre%" -T "Artist=%artist%" -T "Title=%title%" -T "Album=%albumtitle%" -T "Date=%year%" -T "Tracknumber=%tracknr%" -T "Comment=%comment%" %source%


TOC of the extracted CD

Track | Start | Length | Start sector | End sector
––––––––––––––––––––––––––––-
1 | 0:00.00 | 3:25.55 | 0 | 15429
2 | 3:25.55 | 3:52.57 | 15430 | 32886
3 | 7:18.37 | 4:45.43 | 32887 | 54304
4 | 12:04.05 | 3:04.50 | 54305 | 68154
5 | 15:08.55 | 4:02.23 | 68155 | 86327
6 | 19:11.03 | 5:07.15 | 86328 | 109367
7 | 24:18.18 | 3:18.60 | 109368 | 124277
8 | 27:37.03 | 5:26.36 | 124278 | 148763
9 | 33:03.39 | 5:12.70 | 148764 | 172233
10 | 38:16.34 | 3:51.60 | 172234 | 189618
11 | 42:08.19 | 4:36.57 | 189619 | 210375
12 | 46:45.01 | 4:54.16 | 210376 | 232441
13 | 51:39.17 | 4:32.49 | 232442 | 252890
14 | 56:11.66 | 3:15.27 | 252891 | 267542


Range status and errors

Selected range

Filename E:\Ginger Devil\Holy Terror - Total Terror (Box set) (2017)\CD-4 - El Revengo - Live Terror (2007)\Holy Terror - Live Terror.wav

Peak level 99.4 %
Extraction speed 5.6 X
Range quality 100.0 %
Test CRC 249C3ED2
Copy CRC 249C3ED2
Copy OK

No errors occurred


AccurateRip summary

Track 1 accurately ripped (confidence 3) [DDA93A40] (AR v2)
Track 2 accurately ripped (confidence 3) [30B9F9F0] (AR v2)
Track 3 accurately ripped (confidence 3) [A398313C] (AR v2)
Track 4 accurately ripped (confidence 3) [6A748C09] (AR v2)
Track 5 accurately ripped (confidence 3) [1AA431FE] (AR v2)
Track 6 accurately ripped (confidence 3) [5AAE073F] (AR v2)
Track 7 accurately ripped (confidence 3) [799D5B2F] (AR v2)
Track 8 accurately ripped (confidence 3) [D1FD95B4] (AR v2)
Track 9 accurately ripped (confidence 3) [45329DCF] (AR v2)
Track 10 accurately ripped (confidence 3) [48B6BC87] (AR v2)
Track 11 accurately ripped (confidence 3) [6FD4FC40] (AR v2)
Track 12 accurately ripped (confidence 3) [8645FDDD] (AR v2)
Track 13 accurately ripped (confidence 3) [E96D1818] (AR v2)
Track 14 accurately ripped (confidence 3) [0D80EB16] (AR v2)

All tracks accurately ripped

End of status report

–– CUETools DB Plugin V2.1.6

[CTDB TOCID: cDtpEonD3Fifg25rSwrR63rE1F4-] found
Submit result: cDtpEonD3Fifg25rSwrR63rE1F4- has been confirmed
Track | CTDB Status
1 | (7/7) Accurately ripped
2 | (7/7) Accurately ripped
3 | (7/7) Accurately ripped
4 | (7/7) Accurately ripped
5 | (7/7) Accurately ripped
6 | (7/7) Accurately ripped
7 | (7/7) Accurately ripped
8 | (7/7) Accurately ripped
9 | (7/7) Accurately ripped
10 | (7/7) Accurately ripped
11 | (7/7) Accurately ripped
12 | (7/7) Accurately ripped
13 | (7/7) Accurately ripped
14 | (7/7) Accurately ripped


==== Log checksum 7A86465EF80653B46B47321114812203B3FB2A8CEF5948EDF33167921928D091 ====


[CUETools log; Date: 05.04.2019 13:12:23; Version: 2.1.4]
[AccurateRip ID: 001dfa4c-0143ac1b-b20def0e] found.
Track [ CRC | V2 ] Status
01 [fac5cd5a|dda93a40] (0+3/3) Accurately ripped
02 [442cb7bb|30b9f9f0] (0+3/3) Accurately ripped
03 [e64b7511|a398313c] (0+3/3) Accurately ripped
04 [83c7eb34|6a748c09] (0+3/3) Accurately ripped
05 [542bc1c8|1aa431fe] (0+3/3) Accurately ripped
06 [ae8ce88b|5aae073f] (0+3/3) Accurately ripped
07 [38e40210|799d5b2f] (0+3/3) Accurately ripped
08 [2e3bc300|d1fd95b4] (0+3/3) Accurately ripped
09 [859d47a3|45329dcf] (0+3/3) Accurately ripped
10 [54bdddb4|48b6bc87] (0+3/3) Accurately ripped
11 [f8042e9c|6fd4fc40] (0+3/3) Accurately ripped
12 [7145ebf4|8645fddd] (0+3/3) Accurately ripped
13 [6dbfa13a|e96d1818] (0+3/3) Accurately ripped
14 [5f363da2|0d80eb16] (0+3/3) Accurately ripped

Track Peak [ CRC32 ] [W/O NULL] [ LOG ]
– 99,4 [249C3ED2] [4F292B22] CRC32
01 99,4 [0981CFB0] [7EE2A16D]
02 97,7 [36524DCE] [54F1A348]
03 97,7 [373592F6] [EE55D1EC]
04 97,7 [5D208E66] [559B31D0]
05 97,7 [A1587053] [52B46942]
06 97,7 [303253D3] [3E6A3322]
07 97,7 [7C654D87] [9D2AD713]
08 97,7 [67E237D7] [D1D1FE9A]
09 97,7 [5B238F20] [CD7A9629]
10 97,7 [570AE342] [9B0BF4A7]
11 97,7 [FE7B141D] [96177C91]
12 97,7 [27C1B474] [FEA9D37C]
13 97,7 [4F319053] [54F3B188]
14 97,7 [47A7807C] [82EC84FA]


Holy Terror - Total Terror (2017) [4CD + DVD Box Set]

Tracklist DVD:

Live In Milwaukee 1988

1 Intro
2 Black Plague
3 Do Unto Others
4 Alpha Omega
5 Christian Resistance
6 Judas Reward
7 No Resurrection
8 A Fools Gold / Terminal Humor / Mind Wars
9 Blood Of The Saints

Live In Chicago 1988

10 Blood Of The Saints
11 A Fools Gold / Terminal Humor / Mind Wars

Live In Anaheim 1988

12 Intro
13 Black Plague
14 Do Unto Others
15 Alpha Omega
16 Christian Resistance
17 Judas Reward
18 No Resurrection
19 Blood Of The Saints

Slide Show
Judas Reward Video

Title: DVD
Size: 3.97 Gb ( 4 162 530,00 KBytes ) - DVD-5
Enabled regions: 1, 2, 3, 4, 5, 6, 7, 8

VTS_01 :
Play Length: 00:12:50
Video: NTSC 4:3 (720x480) VBR
Audio:
Not specified (LinearPCM, 2 ch)

VTS_02 :
Play Length: 00:25:18
Video: NTSC 4:3 (720x480) VBR
Audio:
Not specified (LinearPCM, 2 ch)

VTS_03 :
Play Length: 00:05:31
Video: NTSC 4:3 (720x480) VBR
Audio:
Not specified (LinearPCM, 2 ch)

VTS_04 :
Play Length: 00:04:36
Video: NTSC 4:3 (720x480) VBR
Audio:
Not specified (LinearPCM, 2 ch)

VTS_05 :
Play Length: 00:32:45
Video: NTSC 4:3 (720x480) VBR
Audio:
Not specified (LinearPCM, 2 ch)

VTS_06 :
Play Length: 00:00:08
Video: NTSC 4:3 (720x480) VBR
Audio:
Not specified (LinearPCM, 2 ch)


Holy Terror - Total Terror (2017) [4CD + DVD Box Set]

Holy Terror - Total Terror (2017) [4CD + DVD Box Set]

Holy Terror - Total Terror (2017) [4CD + DVD Box Set]

All thanks go to Ginger Devil

Holy Terror in my Blog

Download Holy Terror - Total Terror (2017)):