Subcategories

Howard Jones - Dream Into Action (1985)

Posted By: Designol
Howard Jones - Dream Into Action (1985)

Howard Jones - Dream Into Action (1985)
EAC | FLAC | Tracks (Cue&Log) ~ 368 Mb | Mp3 (CBR320) ~ 165 Mb | Scans included
Label: WEA/Elektra | # 240 632-2, 9 60390-2 | Time: 00:55:45
Synthpop, New Wave, Pop/Rock, Dance-Rock

Dream into Action is the second studio album by the British pop musician Howard Jones. It was released in March 1985 and reached No.2 in the UK Album Charts. The album also reached the top ten in the US. The album went gold and platinum in many countries including the US and UK. The album contained the hit singles "Things Can Only Get Better" (UK #6, US #5), "Look Mama" (UK #10), "Life in One Day" (UK #14, US #19), and "Like to Get to Know You Well" (UK #4).

This album shows the synthesizer pop idol at the height of his creativity – Dream Into Action is definitely the most interesting of Jones' albums. It contains some of his best songs – "Things Can Only Get Better," "Life in One Day," and "No One Is to Blame." The CD includes two bonus tracks, "Bounce Right Back" and "Like to Get to Know You Well," both of which are worthwhile additions.

Review by Iotis Erlewine, Allmusic.com

Howard Jones - Dream Into Action (1985)



Tracklist:

01. Things Can Only Get Better (3:56)
02. Life In One Day (3:39)
03. Dream Into Action (3:47)
04. No-One Is To Blame (3:28)
05. Look Mama (4:04)
06. Assault And Battery (4:53)
07. Automaton (4:07)
08. Is There A Difference? (3:33)
09. Elegy (4:23)
10. Specialty (3:59)
11. Why Look For The Key (3:22)
12. Hunger For The Flesh (4:02)
13. Bounce Right Back (4:34)
14. Like To Get To Know You Well (3:59)


Exact Audio Copy V1.0 beta 3 from 29. August 2011

EAC extraction logfile from 9. October 2014, 12:04

Howard Jones / Dream Into Action

Used drive : ASUS DRW-20B1LT Adapter: 2 ID: 0

Read mode : Secure
Utilize accurate stream : Yes
Defeat audio cache : Yes
Make use of C2 pointers : No

Read offset correction : 6
Overread into Lead-In and Lead-Out : No
Fill up missing offset samples with silence : Yes
Delete leading and trailing silent blocks : No
Null samples used in CRC calculations : Yes
Used interface : Native Win32 interface for Win NT & 2000
Gap handling : Appended to previous track

Used output format : User Defined Encoder
Selected bitrate : 320 kBit/s
Quality : High
Add ID3 tag : No
Command line compressor : C:\Program Files\FLAC\flac.exe
Additional command line options : -8 -V -T "ARTIST=%artist%" -T "TITLE=%title%" -T "ALBUM=%albumtitle%" -T "DATE=%year%" -T "TRACKNUMBER=%tracknr%" -T "GENRE=%genre%" -T "COMMENT=EAC FLAC -8" %source%


TOC of the extracted CD

Track | Start | Length | Start sector | End sector
––––––––––––––––––––––––––––-
1 | 0:00.33 | 3:56.00 | 33 | 17732
2 | 3:56.33 | 3:39.30 | 17733 | 34187
3 | 7:35.63 | 3:47.27 | 34188 | 51239
4 | 11:23.15 | 3:28.20 | 51240 | 66859
5 | 14:51.35 | 4:03.48 | 66860 | 85132
6 | 18:55.08 | 4:52.45 | 85133 | 107077
7 | 23:47.53 | 4:06.47 | 107078 | 125574
8 | 27:54.25 | 3:32.38 | 125575 | 141512
9 | 31:26.63 | 4:23.05 | 141513 | 161242
10 | 35:49.68 | 3:58.45 | 161243 | 179137
11 | 39:48.38 | 3:22.37 | 179138 | 194324
12 | 43:11.00 | 4:02.28 | 194325 | 212502
13 | 47:13.28 | 4:33.55 | 212503 | 233032
14 | 51:47.08 | 3:58.57 | 233033 | 250939


Track 1

Filename K:\EACrips\Howard Jones - Dream Into Action\01 - Things Can Only Get Better.wav

Pre-gap length 0:00:02.33

Peak level 81.2 %
Extraction speed 3.4 X
Track quality 100.0 %
Test CRC 01B41864
Copy CRC 01B41864
Accurately ripped (confidence 19) [43BC08EA] (AR v2)
Copy OK

Track 2

Filename K:\EACrips\Howard Jones - Dream Into Action\02 - Life In One Day.wav

Peak level 81.2 %
Extraction speed 3.7 X
Track quality 100.0 %
Test CRC D599F438
Copy CRC D599F438
Accurately ripped (confidence 21) [29E8DD82] (AR v2)
Copy OK

Track 3

Filename K:\EACrips\Howard Jones - Dream Into Action\03 - Dream Into Action.wav

Peak level 81.2 %
Extraction speed 4.0 X
Track quality 100.0 %
Test CRC 5407765C
Copy CRC 5407765C
Accurately ripped (confidence 20) [6BDEA9C3] (AR v2)
Copy OK

Track 4

Filename K:\EACrips\Howard Jones - Dream Into Action\04 - No-One Is To Blame.wav

Pre-gap length 0:00:01.00

Peak level 65.7 %
Extraction speed 4.3 X
Track quality 100.0 %
Test CRC 5D825EB8
Copy CRC 5D825EB8
Accurately ripped (confidence 21) [93C93033] (AR v2)
Copy OK

Track 5

Filename K:\EACrips\Howard Jones - Dream Into Action\05 - Look Mama.wav

Peak level 81.2 %
Extraction speed 4.6 X
Track quality 100.0 %
Test CRC 973A9AAF
Copy CRC 973A9AAF
Accurately ripped (confidence 21) [7430B8EC] (AR v2)
Copy OK

Track 6

Filename K:\EACrips\Howard Jones - Dream Into Action\06 - Assault And Battery.wav

Peak level 81.2 %
Extraction speed 5.0 X
Track quality 100.0 %
Test CRC 7465B2C1
Copy CRC 7465B2C1
Accurately ripped (confidence 21) [50598F81] (AR v2)
Copy OK

Track 7

Filename K:\EACrips\Howard Jones - Dream Into Action\07 - Automaton.wav

Pre-gap length 0:00:01.00

Peak level 79.4 %
Extraction speed 4.2 X
Track quality 99.9 %
Test CRC E6C72FB5
Copy CRC E6C72FB5
Accurately ripped (confidence 20) [1A92B987] (AR v2)
Copy OK

Track 8

Filename K:\EACrips\Howard Jones - Dream Into Action\08 - Is There A Difference.wav

Pre-gap length 0:00:01.00

Peak level 81.2 %
Extraction speed 5.4 X
Track quality 100.0 %
Test CRC 87BCCB46
Copy CRC 87BCCB46
Accurately ripped (confidence 19) [B1C8AEBE] (AR v2)
Copy OK

Track 9

Filename K:\EACrips\Howard Jones - Dream Into Action\09 - Elegy.wav

Peak level 72.5 %
Extraction speed 5.7 X
Track quality 100.0 %
Test CRC F6CBA807
Copy CRC F6CBA807
Accurately ripped (confidence 20) [2B040144] (AR v2)
Copy OK

Track 10

Filename K:\EACrips\Howard Jones - Dream Into Action\10 - Specialty.wav

Pre-gap length 0:00:01.00

Peak level 79.4 %
Extraction speed 5.9 X
Track quality 100.0 %
Test CRC 1D6D2685
Copy CRC 1D6D2685
Accurately ripped (confidence 19) [16D5359E] (AR v2)
Copy OK

Track 11

Filename K:\EACrips\Howard Jones - Dream Into Action\11 - Why Look For The Key.wav

Peak level 78.7 %
Extraction speed 4.7 X
Track quality 99.9 %
Test CRC E25080DE
Copy CRC E25080DE
Accurately ripped (confidence 19) [1E48C805] (AR v2)
Copy OK

Track 12

Filename K:\EACrips\Howard Jones - Dream Into Action\12 - Hunger For The Flesh.wav

Pre-gap length 0:00:01.00

Peak level 79.4 %
Extraction speed 5.1 X
Track quality 99.9 %
Test CRC 8E40E081
Copy CRC 8E40E081
Accurately ripped (confidence 19) [5C3709D0] (AR v2)
Copy OK

Track 13

Filename K:\EACrips\Howard Jones - Dream Into Action\13 - Bounce Right Back.wav

Pre-gap length 0:00:03.00

Peak level 79.4 %
Extraction speed 6.6 X
Track quality 100.0 %
Test CRC F03B3165
Copy CRC F03B3165
Accurately ripped (confidence 18) [2A23BF02] (AR v2)
Copy OK

Track 14

Filename K:\EACrips\Howard Jones - Dream Into Action\14 - Like To Get To Know You Well.wav

Pre-gap length 0:00:02.00

Peak level 81.2 %
Extraction speed 6.6 X
Track quality 100.0 %
Test CRC 55BB4C3F
Copy CRC 55BB4C3F
Accurately ripped (confidence 19) [382465C6] (AR v2)
Copy OK


All tracks accurately ripped

No errors occurred

End of status report

==== Log checksum E9167C6418E70EEEDD4EC52C11DBB2B66F140EFA3B455E3CAED873B5EBE7BF69 ====

[CUETools log; Date: 08.08.2018 16:23:39; Version: 2.1.4]
Pregap length 00:00:33.
[CTDB TOCID: FiHlZvXatMPT4uatkXqGCCRpWRQ-] found.
Track | CTDB Status
1 | (113/115) Accurately ripped
2 | (112/115) Accurately ripped
3 | (113/115) Accurately ripped
4 | (113/115) Accurately ripped
5 | (112/115) Accurately ripped
6 | (113/115) Accurately ripped
7 | (113/115) Accurately ripped
8 | (113/115) Accurately ripped
9 | (113/115) Accurately ripped
10 | (113/115) Accurately ripped
11 | (109/115) Accurately ripped, or (2/115) differs in 1 samples @03:21:50
12 | (112/115) Accurately ripped
13 | (112/115) Accurately ripped
14 | (109/115) Accurately ripped
[AccurateRip ID: 001c63b7-012ff3d9-d80d110e] found.
Track [ CRC | V2 ] Status
01 [ebc11313|43bc08ea] (051+041/220) Accurately ripped
02 [616ca6bd|29e8dd82] (052+043/223) Accurately ripped
03 [34c00a54|6bdea9c3] (051+042/221) Accurately ripped
04 [69ad4862|93c93033] (052+043/224) Accurately ripped
05 [64c4baf3|7430b8ec] (052+043/224) Accurately ripped
06 [de2ad99a|50598f81] (051+043/223) Accurately ripped
07 [ecce9ed7|1a92b987] (051+042/221) Accurately ripped
08 [7dbe3079|b1c8aebe] (052+041/221) Accurately ripped
09 [49184b73|2b040144] (051+042/221) Accurately ripped
10 [3ae5d296|16d5359e] (052+041/221) Accurately ripped
11 [d52a9de0|1e48c805] (051+041/221) Accurately ripped
12 [96ca13f0|5c3709d0] (050+041/218) Accurately ripped
13 [97061dfb|2a23bf02] (051+040/218) Accurately ripped
14 [8dceba1b|382465c6] (048+041/214) Accurately ripped
Offsetted by -65:
01 [4096af18] (033/220) Accurately ripped
02 [63a50b61] (032/223) Accurately ripped
03 [9a2364ec] (031/221) Accurately ripped
04 [a4794e29] (032/224) Accurately ripped
05 [4662a8cc] (031/224) Accurately ripped
06 [04b704a0] (031/223) Accurately ripped
07 [6fb45894] (032/221) Accurately ripped
08 [915cc184] (031/221) Accurately ripped
09 [fce1bc6c] (031/221) Accurately ripped
10 [b82c2c9c] (032/221) Accurately ripped
11 [cc27b691] (032/221) Accurately ripped
12 [aadf5ce9] (032/218) Accurately ripped
13 [f3075cc1] (031/218) Accurately ripped
14 [acf54f2e] (032/214) Accurately ripped
Offsetted by 88:
01 [85747a3f] (020/220) Accurately ripped
02 [bb118e5e] (020/223) Accurately ripped
03 [31dac0e5] (020/221) Accurately ripped
04 [a5a11506] (020/224) Accurately ripped
05 [ae6d1d8d] (021/224) Accurately ripped
06 [916b4a5e] (022/223) Accurately ripped
07 [9a1d83df] (020/221) Accurately ripped
08 [abe281da] (020/221) Accurately ripped
09 [7598a74a] (021/221) Accurately ripped
10 [07ac2992] (020/221) Accurately ripped
11 [42385138] (020/221) Accurately ripped
12 [30c4e458] (019/218) Accurately ripped
13 [78fc8deb] (021/218) Accurately ripped
14 [67929d93] (021/214) Accurately ripped

Track Peak [ CRC32 ] [W/O NULL] [ LOG ]
– 81,2 [A64CCF34] [FC5434D2]
01 81,2 [01B41864] [6544661D] CRC32
02 81,2 [D599F438] [073DC52F] CRC32
03 81,2 [5407765C] [A671E357] CRC32
04 65,7 [5D825EB8] [7331DB08] CRC32
05 81,2 [973A9AAF] [453B2CA5] CRC32
06 81,2 [7465B2C1] [380AA1BF] CRC32
07 79,4 [E6C72FB5] [D5EBED65] CRC32
08 81,2 [87BCCB46] [2019B976] CRC32
09 72,5 [F6CBA807] [8D781BEF] CRC32
10 79,4 [1D6D2685] [F319CAC4] CRC32
11 78,7 [E25080DE] [217AB96C] CRC32
12 79,4 [8E40E081] [A09E2A1A] CRC32
13 79,4 [F03B3165] [E4645062] CRC32
14 81,2 [55BB4C3F] [7A31ABC0] CRC32

foobar2000 1.2 / Dynamic Range Meter 1.1.1
log date: 2018-08-08 16:18:25

––––––––––––––––––––––––––––––––––––––––
Analyzed: Howard Jones / Dream Into Action
––––––––––––––––––––––––––––––––––––––––

DR Peak RMS Duration Track
––––––––––––––––––––––––––––––––––––––––
DR13 -1.80 dB -15.91 dB 3:56 01-Things Can Only Get Better
DR12 -1.80 dB -16.14 dB 3:39 02-Life In One Day
DR15 -1.80 dB -18.31 dB 3:47 03-Dream Into Action
DR12 -3.65 dB -20.36 dB 3:28 04-No-One Is To Blame
DR12 -1.80 dB -16.10 dB 4:04 05-Look Mama
DR14 -1.80 dB -19.10 dB 4:53 06-Assault And Battery
DR13 -2.00 dB -17.37 dB 4:07 07-Automaton
DR14 -1.80 dB -17.68 dB 3:33 08-Is There A Difference?
DR12 -2.79 dB -19.07 dB 4:23 09-Elegy
DR13 -2.00 dB -17.84 dB 3:59 10-Specialty
DR12 -2.07 dB -17.22 dB 3:22 11-Why Look For The Key
DR13 -2.00 dB -19.91 dB 4:02 12-Hunger For The Flesh
DR14 -2.00 dB -17.43 dB 4:34 13-Bounce Right Back
DR14 -1.80 dB -17.33 dB 3:59 14-Like To Get To Know You Well
––––––––––––––––––––––––––––––––––––––––

Number of tracks: 14
Official DR value: DR13

Samplerate: 44100 Hz
Channels: 2
Bits per sample: 16
Bitrate: 900 kbps
Codec: FLAC
================================================================================

Howard Jones - Dream Into Action (1985)

Howard Jones - Dream Into Action (1985)