Subcategories

Hundred Seventy Split - The Road (2015) Re-Up

Posted By: popsakov
Hundred Seventy Split - The Road (2015) Re-Up

Hundred Seventy Split - The Road (2015)
2CD | EAC Rip | FLAC (Img) + Cue + Log ~ 819 Mb | MP3 CBR320 ~ 286 Mb
Full Scans ~ 47 Mb | RAR 5% Recovery
Blues, Rock | Corner House Records #CHR 008

Hundred Seventy Split are a Blues rock power trio featuring Leo Lyons bassist and founding member of Ten Years After, guitarist /vocalist Joe Gooch and drummer Damon Sawyer. This double live Cd features songs for the first two HSS cd's and Ten Years After classics.

Joe Cooch & Leo Lyons - both former members of the band Ten Years After, 2002 - 2013 - formed a great singer-songwriting pair for TYA. Leaving TYA they've stayed together & formed Hundred Seventy Split and, along with regular drummer Damon Sawyer, have produced a high energy blues rock band that you must listen to.

***************
Bass player Leo Lyons from the legendary rock combo Ten Years After talks about his early career with the band and a new record from his latest act - Hundred Seventy split.

“Ten Years After is probably best remembered for the bands performance at the historic 1969 Woodstock Festival and featuring in the subsequent film of the event. Original guitarist Alvin Lee sadly passed away in March 2013 and will be missed, as Alvin and I started out together and shared many of life's experiences, he was like the brother that I never had. After many Gold and Platinum Albums and thousands of concerts under our belts TYA is still going strong and, with the addition of new guitarist/vocalist Joe Gooch, the three original members are still touring and have recorded three new CDs.

Aside from my career as a bass player I have done many things since starting out on my musical journey way back in 1960. I am a recording engineer and record producer and was studio manager of Wessex Studios, London in 1975. I have also owned my own studios. Songwriting is also a passion and in 1998 I moved to Nashville where I was a staff writer for a country music publisher. I lived and worked in Nashville until 2011 before moving back to my now European base.

I first worked with Cyclone back in 2002 when my own label Corner House Records re-released the CD 'Tough Trip Through Paradise' - a solo project that I did with rock band Kick which was first released ten years earlier in the 1990’s. Graham at Cyclone was very helpful in putting together the re-packaging for me. The CD pressing was excellent and the delivery spot on time. Since then I've worked with Cyclone on releases with my new project 'Hundred Seventy Split'

HSS is a three piece Blues/Rock trio featuring guitarist/vocalist Joe Gooch, Damon Sawyer on drums and myself on bass. Joe and I still work with TYA but we wanted to do something different that rocks outside of the TYA box. Don't get me wrong, I love playing with TYA and I always enjoy playing the old songs that people still want to hear. However, that leaves no room for new material - hence the new project.

We are now mixing our second studio album called simply 'HSS' ready for release in October to be followed by a European tour in November and once again Cyclone will be taking care of the CD and vinyl manufacturing. The vinyl pressings of the last record were superb thanks to Graham and his team.

I have been in the music business for over fifty years now and have never lost any enthusiasm for what I do. Success doesn’t come easy and there have been many ups and downs since the early days. If I were asked to give advice to someone starting out in music today, I would say 'Believe in what you're doing, be prepared to make sacrifices and never give up. That way you will eventually succeed in realising your dreams.”
~ Leo Lyons

***************

Hundred Seventy Split - The Road (2015) Re-Up

Track List CD1:

01. Where The Blues Began [03:52]
02. Pork Pie Hat [04:39]
03. Let The River Flow [07:56]
04. The Smoke [04:55]
05. Gonna Dance On Your Tombstone [09:53]
06. Going Home [08:31]
07. Fifty Thousand Miles Beneath My Brain [05:42]
08. Love Like A Man [05:14]
09. The World Won’t Stop [06:37]
10. The Sound Of Goodbye [08:13]
11. The Devil To Pay [07:12]

Exact Audio Copy V1.0 beta 4 from 7. December 2014

EAC extraction logfile from 18. March 2015, 17:32

Hundred Seventy Split / The Road Live CD1 (2015, CHR 008)

Used drive : ATAPI iHAS124 B Adapter: 1 ID: 0

Read mode : Secure
Utilize accurate stream : Yes
Defeat audio cache : Yes
Make use of C2 pointers : No

Read offset correction : 6
Overread into Lead-In and Lead-Out : No
Fill up missing offset samples with silence : Yes
Delete leading and trailing silent blocks : No
Null samples used in CRC calculations : Yes
Used interface : Installed external ASPI interface

Used output format : User Defined Encoder
Selected bitrate : 128 kBit/s
Quality : High
Add ID3 tag : Yes
Command line compressor : C:\Program Files (x86)\Exact Audio Copy\Flac\flac.exe
Additional command line options : -V -8 -T "Date=%year%" -T "Genre=%genre%" %source%


TOC of the extracted CD

Track | Start | Length | Start sector | End sector
––––––––––––––––––––––––––––-
1 | 0:00.00 | 3:51.70 | 0 | 17394
2 | 3:51.70 | 4:38.60 | 17395 | 38304
3 | 8:30.55 | 7:55.25 | 38305 | 73954
4 | 16:26.05 | 4:54.71 | 73955 | 96075
5 | 21:21.01 | 9:52.69 | 96076 | 140544
6 | 31:13.70 | 8:30.07 | 140545 | 178801
7 | 39:44.02 | 5:41.52 | 178802 | 204428
8 | 45:25.54 | 5:13.54 | 204429 | 227957
9 | 50:39.33 | 6:36.62 | 227958 | 257719
10 | 57:16.20 | 8:12.18 | 257720 | 294637
11 | 65:28.38 | 7:11.14 | 294638 | 326976


Range status and errors

Selected range

Filename G:\CD\Hundred Seventy Split - The Road Live CD1.wav

Peak level 98.8 %
Extraction speed 6.2 X
Range quality 100.0 %
Test CRC E5122D0F
Copy CRC E5122D0F
Copy OK

No errors occurred


AccurateRip summary

Track 1 accurately ripped (confidence 1) [4C4559AF] (AR v2)
Track 2 accurately ripped (confidence 1) [C06BB86A] (AR v2)
Track 3 accurately ripped (confidence 1) [5552B218] (AR v2)
Track 4 accurately ripped (confidence 1) [4D25184C] (AR v2)
Track 5 accurately ripped (confidence 1) [517FA9D8] (AR v2)
Track 6 accurately ripped (confidence 1) [19570B31] (AR v2)
Track 7 accurately ripped (confidence 1) [6D884110] (AR v2)
Track 8 accurately ripped (confidence 1) [F56822A5] (AR v2)
Track 9 accurately ripped (confidence 1) [F3BFBF88] (AR v2)
Track 10 accurately ripped (confidence 1) [6879BF9E] (AR v2)
Track 11 accurately ripped (confidence 1) [79B3F6C2] (AR v2)

All tracks accurately ripped

End of status report

–– CUETools DB Plugin V2.1.4

[CTDB TOCID: dYyXazrlc9LnE1Hel57u9nYe2Xw-] found
Submit result: dYyXazrlc9LnE1Hel57u9nYe2Xw- has been confirmed
Track | CTDB Status
1 | (3/3) Accurately ripped
2 | (3/3) Accurately ripped
3 | (3/3) Accurately ripped
4 | (3/3) Accurately ripped
5 | (3/3) Accurately ripped
6 | (3/3) Accurately ripped
7 | (3/3) Accurately ripped
8 | (3/3) Accurately ripped
9 | (3/3) Accurately ripped
10 | (3/3) Accurately ripped
11 | (3/3) Accurately ripped


==== Log checksum 1066452EF8BA5FFBEE8673040520D067F9D04753608A80385E1A1351235A3944 ====

foobar2000 1.2.6 / Dynamic Range Meter 1.1.1
log date: 2015-03-18 20:34:14

––––––––––––––––––––––––––––––––––––––––
Analyzed: Hundred Seventy Split / The Road Live CD1 (2015, CHR 008)
––––––––––––––––––––––––––––––––––––––––

DR Peak RMS Duration Track
––––––––––––––––––––––––––––––––––––––––
DR6 -0.77 dB -7.81 dB 3:52 01-Where The Blues Began
DR7 -0.10 dB -7.83 dB 4:39 02-Pork Pie Hat
DR6 -0.78 dB -8.35 dB 7:55 03-Let The River Flow
DR6 -0.41 dB -7.61 dB 4:55 04-The Smoke
DR6 -0.10 dB -6.86 dB 9:53 05-Gonna Dance On Your Tombstone
DR6 -0.10 dB -7.08 dB 8:30 06-Going Home
DR6 -0.60 dB -8.11 dB 5:42 07-Fifty Thousand Miles Beneath My Brain
DR6 -0.10 dB -6.70 dB 5:14 08-Love Like A Man
DR6 -1.01 dB -8.44 dB 6:37 09-The World Won’t Stop
DR6 -0.10 dB -7.79 dB 8:12 10-The Sound Of Goodbye
DR6 -0.87 dB -7.84 dB 7:11 11-The Devil To Pay
––––––––––––––––––––––––––––––––––––––––

Number of tracks: 11
Official DR value: DR6

Samplerate: 44100 Hz
Channels: 2
Bits per sample: 16
Bitrate: 925 kbps
Codec: FLAC
================================================================================

[CUETools log; Date: 18.03.2015 20:33:25; Version: 2.1.5]
[CTDB TOCID: dYyXazrlc9LnE1Hel57u9nYe2Xw-] found.
Track | CTDB Status
1 | (4/4) Accurately ripped
2 | (4/4) Accurately ripped
3 | (4/4) Accurately ripped
4 | (4/4) Accurately ripped
5 | (4/4) Accurately ripped
6 | (4/4) Accurately ripped
7 | (4/4) Accurately ripped
8 | (4/4) Accurately ripped
9 | (4/4) Accurately ripped
10 | (4/4) Accurately ripped
11 | (4/4) Accurately ripped
[AccurateRip ID: 001c5520-00fb00fa-9c11070b] found.
Track [ CRC | V2 ] Status
01 [075ab220|4c4559af] (0+1/1) Accurately ripped
02 [c9cc84fe|c06bb86a] (0+1/1) Accurately ripped
03 [8b06d20a|5552b218] (0+1/1) Accurately ripped
04 [bae5d8b5|4d25184c] (0+1/1) Accurately ripped
05 [aa02c5b1|517fa9d8] (0+1/1) Accurately ripped
06 [ea5406b7|19570b31] (0+1/1) Accurately ripped
07 [3a37e717|6d884110] (0+1/1) Accurately ripped
08 [04be4673|f56822a5] (0+1/1) Accurately ripped
09 [42ce3253|f3bfbf88] (0+1/1) Accurately ripped
10 [ea1c6817|6879bf9e] (0+1/1) Accurately ripped
11 [d3f341fb|79b3f6c2] (0+1/1) Accurately ripped

Track Peak [ CRC32 ] [W/O NULL] [ LOG ]
– 98,8 [E5122D0F] [70DA0C1D] CRC32
01 91,5 [C2B66657] [BE8C4340]
02 98,8 [39B53B0C] [054EB868]
03 91,4 [98FF18AF] [BACA50A9]
04 95,3 [42B5C3CF] [F3EA8701]
05 98,8 [3159189C] [F2365450]
06 98,8 [96CBCF76] [B22E83E6]
07 93,3 [55AE5F46] [6DA561E5]
08 98,8 [9BE28F9A] [2F2AE901]
09 89,0 [0906E415] [3C5AD956]
10 98,8 [0D853395] [AB0AD307]
11 90,4 [CA0E5461] [F9B2D1D3]

Hundred Seventy Split - The Road (2015) Re-Up

Track List CD2:

01. Good Morning Little Schoolgirl [07:07]
02. Poison [07:21]
03. No Deal [03:18]
04. Tennessee Plates [05:46]
05. Do You Wish You Were At Woodstock [02:48]
06. I’m Going Home [08:31]
07. Bad Blood [07:43]
08. King Of The Blues [04:07]

Exact Audio Copy V1.0 beta 4 from 7. December 2014

EAC extraction logfile from 18. March 2015, 19:57

Hundred Seventy Split / The Road Live CD2 (2015, CHR 008)

Used drive : ATAPI iHAS124 B Adapter: 1 ID: 0

Read mode : Secure
Utilize accurate stream : Yes
Defeat audio cache : Yes
Make use of C2 pointers : No

Read offset correction : 6
Overread into Lead-In and Lead-Out : No
Fill up missing offset samples with silence : Yes
Delete leading and trailing silent blocks : No
Null samples used in CRC calculations : Yes
Used interface : Installed external ASPI interface

Used output format : User Defined Encoder
Selected bitrate : 128 kBit/s
Quality : High
Add ID3 tag : Yes
Command line compressor : C:\Program Files (x86)\Exact Audio Copy\Flac\flac.exe
Additional command line options : -V -8 -T "Date=%year%" -T "Genre=%genre%" %source%


TOC of the extracted CD

Track | Start | Length | Start sector | End sector
––––––––––––––––––––––––––––-
1 | 0:00.00 | 7:06.49 | 0 | 31998
2 | 7:06.49 | 7:20.10 | 31999 | 65008
3 | 14:26.59 | 3:17.73 | 65009 | 79856
4 | 17:44.57 | 5:45.31 | 79857 | 105762
5 | 23:30.13 | 2:47.21 | 105763 | 118308
6 | 26:17.34 | 8:30.34 | 118309 | 156592
7 | 34:47.68 | 7:42.41 | 156593 | 191283
8 | 42:30.34 | 4:06.66 | 191284 | 209799


Range status and errors

Selected range

Filename G:\CD\Hundred Seventy Split - The Road Live CD2.wav

Peak level 98.8 %
Extraction speed 5.6 X
Range quality 100.0 %
Test CRC 07260BF8
Copy CRC 07260BF8
Copy OK

No errors occurred


AccurateRip summary

Track 1 not present in database
Track 2 not present in database
Track 3 not present in database
Track 4 not present in database
Track 5 not present in database
Track 6 not present in database
Track 7 not present in database
Track 8 not present in database

None of the tracks are present in the AccurateRip database

End of status report

–– CUETools DB Plugin V2.1.4

[CTDB TOCID: k5qUK.R6I6_wXsRL1BJTzSHw0jE-] found
Submit result: k5qUK.R6I6_wXsRL1BJTzSHw0jE- has been confirmed
Track | CTDB Status
1 | (2/2) Accurately ripped
2 | (2/2) Accurately ripped
3 | (2/2) Accurately ripped
4 | (2/2) Accurately ripped
5 | (2/2) Accurately ripped
6 | (1/2) Accurately ripped, or (1/2) differs in 178 samples @01:56:38
7 | (2/2) Accurately ripped
8 | (2/2) Accurately ripped


==== Log checksum BF405B5FBBEBE5A5F2442798266831AC5A5AAF0474C7AEF64244E6EA2D6BFEF7 ====

foobar2000 1.2.6 / Dynamic Range Meter 1.1.1
log date: 2015-03-18 20:35:56

––––––––––––––––––––––––––––––––––––––––
Analyzed: Hundred Seventy Split / The Road Live CD2 (2015, CHR 008)
––––––––––––––––––––––––––––––––––––––––

DR Peak RMS Duration Track
––––––––––––––––––––––––––––––––––––––––
DR6 -0.84 dB -8.18 dB 7:07 01-Good Morning Little Schoolgirl
DR8 -0.59 dB -10.15 dB 7:20 02-Poison
DR6 -1.05 dB -7.72 dB 3:18 03-No Deal
DR6 -0.85 dB -7.94 dB 5:45 04-Tennessee Plates
DR5 -0.85 dB -7.39 dB 2:47 05-Do You Wish You Were At Woodstock
DR5 -0.85 dB -7.67 dB 8:30 06-I’m Going Home
DR7 -0.10 dB -8.73 dB 7:43 07-Bad Blood
DR7 -0.10 dB -8.35 dB 4:07 08-King Of The Blues
––––––––––––––––––––––––––––––––––––––––

Number of tracks: 8
Official DR value: DR6

Samplerate: 44100 Hz
Channels: 2
Bits per sample: 16
Bitrate: 896 kbps
Codec: FLAC
================================================================================

[CUETools log; Date: 18.03.2015 20:34:43; Version: 2.1.5]
[CTDB TOCID: k5qUK.R6I6_wXsRL1BJTzSHw0jE-] found.
Track | CTDB Status
1 | (3/3) Accurately ripped
2 | (3/3) Accurately ripped
3 | (3/3) Accurately ripped
4 | (3/3) Accurately ripped
5 | (3/3) Accurately ripped
6 | (2/3) Accurately ripped, or (1/3) differs in 178 samples @01:56:38
7 | (3/3) Accurately ripped
8 | (3/3) Accurately ripped
[AccurateRip ID: 000ea096-00609d62-720aed08] disk not present in database.

Track Peak [ CRC32 ] [W/O NULL] [ LOG ]
– 98,8 [07260BF8] [15BB3B29] CRC32
01 90,7 [2A3D0E7B] [4E42EC96]
02 93,3 [0EF5DCE7] [5487BF8D]
03 88,5 [EBB5EFD9] [74CBA897]
04 90,6 [6CD2A94B] [918E00C9]
05 90,6 [18506184] [40748727]
06 90,6 [DD275462] [030993A9]
07 98,8 [9EC34821] [C9D5F8B1]
08 98,8 [9F204B69] [3B853ECB]

Hundred Seventy Split - The Road (2015) Re-Up

All thanks go to gerrV

>>> My Blog <<<

Download from icerbox.com: