Tags
Language
Tags

I AM I - Event Horizon (2012)

Posted By: Andi_Deris
I AM I - Event Horizon (2012)

I AM I - Event Horizon (2012)
EAC Rip | FLAC: Image+Cue+Log | 329 Mb | MP3 CBR 320 kbps | 116 Mb | Scans | 78 Mb | 45:58
ZeePeeTee | ZPT001CD
Heavy/Power Metal

I Am I is the new band that has been put together by former DragonForce frontman ZP Theart following on from what was evidently an acrimonious parting of the ways due to “insurmountable differences of opinion”. Aside from Z.P., I Am I is comprised of drummer Paul Clark Jr, bassist Neil Salmon and guitarist and co-songwriter Jacob Ziemba who excels on both counts. The band’s debut shows here in the UK back in the spring received strong reviews and it therefore comes as no surprise to find that Event Horizon is a top quality release of barnstorming melodic metal anthems.

I AM I - Event Horizon (2012)




I AM I - Event Horizon (2012)


Track Listing

01. This Is My Life (5:52)
02. Silent Genocide (4:24)
03. Stay A While (3:56)
04. Cross The Line (4:32)
05. In The Air Tonight (3:42)
06. King In Ruins (4:44)
07. Kiss Of Judas (6:24)
08. Dust 2 Dust (4:04)
09. Wasted Wonders (3:38)
10. Pave The Way (4:42)

Produced by Lior Stein

The Band

• ZP Theart: Vocals
• Neil Salmon: Bass
• Jacob Ziemba: Guitars
• Paul Clark Jr.: Drums

I AM I - Event Horizon (2012)


Exact Audio Copy V0.99 prebeta 5 from 4. May 2009

EAC extraction logfile from 11. October 2012, 15:31

I Am I / Event Horizon

Used drive : ATAPI iHAP122 9 Adapter: 3 ID: 0

Read mode : Secure
Utilize accurate stream : Yes
Defeat audio cache : Yes
Make use of C2 pointers : No

Read offset correction : 6
Overread into Lead-In and Lead-Out : No
Fill up missing offset samples with silence : Yes
Delete leading and trailing silent blocks : No
Null samples used in CRC calculations : Yes
Used interface : Installed external ASPI interface

Used output format : User Defined Encoder
Selected bitrate : 40 kBit/s
Quality : High
Add ID3 tag : No
Command line compressor : C:\Program Files\Exact Audio Copy\Flac\flac.exe
Additional command line options : -6 -V %s


TOC of the extracted CD

Track | Start | Length | Start sector | End sector
––––––––––––––––––––––––––––-
1 | 0:00.00 | 5:52.00 | 0 | 26399
2 | 5:52.00 | 4:24.22 | 26400 | 46221
3 | 10:16.22 | 3:56.00 | 46222 | 63921
4 | 14:12.22 | 4:32.00 | 63922 | 84321
5 | 18:44.22 | 3:42.00 | 84322 | 100971
6 | 22:26.22 | 4:44.00 | 100972 | 122271
7 | 27:10.22 | 6:24.00 | 122272 | 151071
8 | 33:34.22 | 4:04.00 | 151072 | 169371
9 | 37:38.22 | 3:38.38 | 169372 | 185759
10 | 41:16.60 | 4:42.00 | 185760 | 206909


Range status and errors

Selected range

Filename D:\Download\I Am I - Event Horizon.wav

Peak level 98.4 %
Range quality 100.0 %
Copy CRC 17ACD9CA
Copy OK

No errors occurred


AccurateRip summary

Track 1 not present in database
Track 2 not present in database
Track 3 not present in database
Track 4 not present in database
Track 5 not present in database
Track 6 not present in database
Track 7 not present in database
Track 8 not present in database
Track 9 not present in database
Track 10 not present in database

None of the tracks are present in the AccurateRip database

End of status report


Many thanks to the original uploader: Ilijan

SEE also:
Tank 2015 Valley Of Tears [Japanese Ed.]



Password: pass