Subcategories

Ikjoyce - Cosmonaut (2019)

Posted By: gribovar
Ikjoyce - Cosmonaut (2019)

Ikjoyce - Cosmonaut (2019)
EAC Rip | FLAC (image+.cue+log) - 280 MB | MP3 CBR 320 kbps (LAME 3.93) - 161 MB | Covers - 37 MB
Genre: Ambient | RAR 3% Rec. | Label: Neotantra (NT09)

Very fine album of warm, soothing, floating ambient soundscapes and clever synth compositions, occasionally accompanied by nicely fitting drum work.
Tracklist:
01. A Warm Embrace
02. Darkness Falls
03. All Is Calm
04. Cosmonaut (Part 1)
05. Beyond Pluto
06. Orbital Manoeuvres
07. Interception
08. Cosmonaut (Part 2)

Total time: 01:08:33

Exact Audio Copy V1.3 from 2. September 2016

EAC extraction logfile from 3. November 2019, 11:18

Ikjoyce / Cosmonaut

Used drive : ATAPI iHAS124 D Adapter: 1 ID: 0

Read mode : Secure
Utilize accurate stream : Yes
Defeat audio cache : Yes
Make use of C2 pointers : No

Read offset correction : 6
Overread into Lead-In and Lead-Out : No
Fill up missing offset samples with silence : Yes
Delete leading and trailing silent blocks : No
Null samples used in CRC calculations : Yes
Used interface : Native Win32 interface for Win NT & 2000

Used output format : User Defined Encoder
Selected bitrate : 128 kBit/s
Quality : High
Add ID3 tag : No
Command line compressor : C:\Program Files (x86)\Exact Audio Copy\Flac\flac.exe
Additional command line options : -8 -V -T "ARTIST=%artist%" -T "TITLE=%title%" -T "ALBUM=%albumtitle%" -T "DATE=%year%" -T "TRACKNUMBER=%tracknr%" -T "TOTALTRACKS=%numtracks%" -T "GENRE=%genre%" -T "ALBUMARTIST=%albumartist%" -T "ALBUM ARTIST=%albumartist%" -T "COMMENT=EAC Secure Mode, Test & Copy, AccurateRip, FLAC -8" %source%


TOC of the extracted CD

Track | Start | Length | Start sector | End sector
––––––––––––––––––––––––––––-
1 | 0:00.00 | 13:22.46 | 0 | 60195
2 | 13:22.46 | 5:45.28 | 60196 | 86098
3 | 19:07.74 | 6:32.63 | 86099 | 115561
4 | 25:40.62 | 10:40.67 | 115562 | 163628
5 | 36:21.54 | 9:06.00 | 163629 | 204578
6 | 45:27.54 | 7:31.00 | 204579 | 238403
7 | 52:58.54 | 8:49.57 | 238404 | 278135
8 | 61:48.36 | 6:44.56 | 278136 | 308491


Range status and errors

Selected range

Filename G:\EAC\baal1983\rutracker.org\Label - Neotantra\(nt09) Ikjoyce – Cosmonaut (2019)\Ikjoyce - Cosmonaut.wav

Peak level 94.1 %
Extraction speed 8.9 X
Range quality 100.0 %
Test CRC D54ABFE3
Copy CRC D54ABFE3
Copy OK

No errors occurred


AccurateRip summary

Track 1 accurately ripped (confidence 1) [348A90AB] (AR v2)
Track 2 accurately ripped (confidence 1) [A129FD24] (AR v2)
Track 3 accurately ripped (confidence 1) [872AB21A] (AR v2)
Track 4 accurately ripped (confidence 1) [ED08845C] (AR v2)
Track 5 accurately ripped (confidence 1) [EDBDE8EB] (AR v2)
Track 6 accurately ripped (confidence 1) [9B339EB0] (AR v2)
Track 7 accurately ripped (confidence 1) [67DDCFB0] (AR v2)
Track 8 accurately ripped (confidence 1) [13D6F3D6] (AR v2)

All tracks accurately ripped

End of status report

–– CUETools DB Plugin V2.1.6

[CTDB TOCID: pp2uW9DDKT6Bwcys1YSbc.uw9ro-] found
Submit result: already submitted
Track | CTDB Status
1 | (1/1) Accurately ripped
2 | (1/1) Accurately ripped
3 | (1/1) Accurately ripped
4 | (1/1) Accurately ripped
5 | (1/1) Accurately ripped
6 | (1/1) Accurately ripped
7 | (1/1) Accurately ripped
8 | (1/1) Accurately ripped


==== Log checksum 5B26B80A9C0626666FF492922B4E31882DB67ABA52428D085AFD84BFCDC2A849 ====

[CUETools log; Date: 01.12.2019 22:52:20; Version: 2.1.4]
[CTDB TOCID: pp2uW9DDKT6Bwcys1YSbc.uw9ro-] found.
Track | CTDB Status
1 | (1/1) Accurately ripped
2 | (1/1) Accurately ripped
3 | (1/1) Accurately ripped
4 | (1/1) Accurately ripped
5 | (1/1) Accurately ripped
6 | (1/1) Accurately ripped
7 | (1/1) Accurately ripped
8 | (1/1) Accurately ripped
[AccurateRip ID: 001633f9-0091d3a5-62101108] found.
Track [ CRC | V2 ] Status
01 [3c2079c3|348a90ab] (0+1/1) Accurately ripped
02 [10a44a4e|a129fd24] (0+1/1) Accurately ripped
03 [c274b642|872ab21a] (0+1/1) Accurately ripped
04 [75f7c7da|ed08845c] (0+1/1) Accurately ripped
05 [5de2fb1d|edbde8eb] (0+1/1) Accurately ripped
06 [e9b8c8a7|9b339eb0] (0+1/1) Accurately ripped
07 [63e66c41|67ddcfb0] (0+1/1) Accurately ripped
08 [875949b4|13d6f3d6] (0+1/1) Accurately ripped

Track Peak [ CRC32 ] [W/O NULL] [ LOG ]
– 94,1 [D54ABFE3] [CAABD196] CRC32
01 61,9 [836001BB] [960F595E]
02 94,1 [94BA0200] [0D23B6D2]
03 66,1 [3845D356] [C4075916]
04 87,7 [9FFC42EF] [C2BFB355]
05 74,7 [04FA7A36] [EDA79B83]
06 94,1 [2968B757] [F482B4EE]
07 94,1 [26242C3B] [83BE8355]
08 78,7 [CDCACC17] [506CC212]

Thanks to baal1983